Tags
Language
Tags

Jeff Beck - Jeff (2003)

Posted By: popsakov
Jeff Beck - Jeff (2003)

Jeff Beck - Jeff (2003)
EAC Rip | FLAC (Img) + Cue + Log ~ 343 Mb | MP3 CBR320 ~ 131 Mb
Full Scans | 00:51:35 | RAR 5% Recovery
Fusion / Electro / Jazz Rock / Progressive Rock / Experimental / Guitar Virtuoso
Epic #510820 2

Jeff is the ninth studio album by guitarist Jeff Beck, released on 5 August 2003 through Epic Records. The album reached No. 92 on the French albums chart and No. 122 on the U.S. Billboard 200. "Plan B" won the award for Best Rock Instrumental Performance at the 2004 Grammys.

"If the voice don't say it, the guitar will play it," raps Saffron on "Pork-U-Pine," the third track on Jeff Beck's minimally titled Jeff. And he does. Beck teams with producer Andy Wright, the man responsible for his more complete immersion into electronic backdrops on his last outing, You Had It Coming. This time the transition is complete. Beck used electronica first on Who Else!, moved a little more into the fire on You Had It Coming, and here merges his full-on Beck-Ola guitar heaviness with the sounds of contemporary spazz-out big beats and noise. Beck and Wright employ Apollo 440 on "Grease Monkey" and "Hot Rod Honeymoon," and use a number of vocalists, including the wondrously gifted Nancy Sorrell, on a host of tracks, as well as the London Session Orchestra on others (such as "Seasons," where hip-hop, breakbeats, and old-school Tangerine Dream sequencing meet the guitarist's deep blues and funk-drenched guitar stylings). As for atmospherics, David Torn (aka producer Splattercell) offers a shape-shifting mix of glitch tracks on "Plan B" for Beck to wax on both acoustically and electrically, and make them weigh a ton. But it's on cuts like "Trouble Man," a purely instrumental big drum and guitar skronk workout, where Beck truly shines here. With a rhythm section of Dean Garcia and Steve Barney – and Tony Hymas appears as well – Beck goes completely overboard: the volume screams and the sheer crunch of his riffs and solos split the rhythm tracks in two, then four, and finally eight, as he turns single-string runs into commentaries on everything from heavy metal to East Indian classical music.

The industrial crank and burn of "Grease Monkey" is an outing fraught with danger for the guitarist, who has to whirl away inside a maelstrom of deeply funky noise – and Beck rides the top of the wave into dirty drum hell and comes out wailing. For those who feel they need a dose of Beck's rootsier and bluesier playing, there is one, but the context is mentally unglued. "Hot Rod Honeymoon" is a drum and bass sprint with Beck playing both slide and Texas-style blues à la Albert Collins, letting the strings bite into the beats. The vocals are a bit cheesy, but the entire track is so huge it's easy to overlook them. "Line Dancing With Monkeys" has a splintered Delta riff at its core, but it mutates, shifts, changes shape, and becomes the kind of spooky blues that cannot be made with conventional instruments. His turnarounds into the myopic rhythms provide a kind of menacing foil to their increasing insistence in the mix. Before gabber-style drum and bass threaten to break out of the box, Beck's elongated bent-note solos tame them. "JB's Blues" is the oddest thing here because it's so ordinary; it feels like it belongs on an updated Blow By Blow. In all this is some of the most emotionally charged and ferocious playing of Beck's career. Within the context of contemporary beatronica, Beck flourishes. He find a worthy opponent to tame in the machines, and his ever-present funkiness is allowed to express far more excess than restraint. This is as fine a modern guitar record as you are ever going to hear.

~ Thom Jurek, All Music
Jeff Beck - Jeff (2003)


***************

Jeff Beck - Jeff (2003)

Track List:

01. So What [4:20]
02. Plan B [4:49]
03. Pork-U-Pine [4:06]
04. Seasons [3:48]
05. Trouble Man [3:34]
06. Grease Monkey [3:34]
07. Hot Rod Honeymoon [3:34]
08. Line Dancing With Monkeys [5:19]
09. Jb's Blues [4:20]
10. Pay Me No Mind (Jeff Beck Remix) [3:19]
11. My Thing [4:10]
12. Bulgaria [2:00]
13. Why Lord Oh Why? [4:41]

Exact Audio Copy V1.3 from 2. September 2016

EAC extraction logfile from 14. March 2017, 16:39

Jeff Beck / Jeff

Used drive : TSSTcorpCDDVDW SE-S084C Adapter: 0 ID: 0

Read mode : Secure
Utilize accurate stream : Yes
Defeat audio cache : Yes
Make use of C2 pointers : No

Read offset correction : 6
Overread into Lead-In and Lead-Out : No
Fill up missing offset samples with silence : Yes
Delete leading and trailing silent blocks : No
Null samples used in CRC calculations : Yes
Used interface : Installed external ASPI interface

Used output format : User Defined Encoder
Selected bitrate : 128 kBit/s
Quality : High
Add ID3 tag : No
Command line compressor : C:\Program Files (x86)\Exact Audio Copy\FLAC\FLAC.EXE
Additional command line options : -V -8 -T "Date=%year%" -T "Genre=%genre%" %source%


TOC of the extracted CD

Track | Start | Length | Start sector | End sector
––––––––––––––––––––––––––––-
1 | 0:00.00 | 4:19.50 | 0 | 19474
2 | 4:19.50 | 4:49.27 | 19475 | 41176
3 | 9:09.02 | 4:06.15 | 41177 | 59641
4 | 13:15.17 | 3:48.15 | 59642 | 76756
5 | 17:03.32 | 3:34.28 | 76757 | 92834
6 | 20:37.60 | 3:34.12 | 92835 | 108896
7 | 24:11.72 | 3:33.38 | 108897 | 124909
8 | 27:45.35 | 5:18.55 | 124910 | 148814
9 | 33:04.15 | 4:20.07 | 148815 | 168321
10 | 37:24.22 | 3:18.55 | 168322 | 183226
11 | 40:43.02 | 4:10.28 | 183227 | 202004
12 | 44:53.30 | 2:00.30 | 202005 | 211034
13 | 46:53.60 | 4:41.37 | 211035 | 232146


Range status and errors

Selected range

Filename D:\EAC\Jeff Beck - Jeff.wav

Peak level 99.7 %
Extraction speed 4.2 X
Range quality 100.0 %
Test CRC 95738CF2
Copy CRC 95738CF2
Copy OK

No errors occurred


AccurateRip summary

Track 1 accurately ripped (confidence 87) [7DE01298] (AR v2)
Track 2 accurately ripped (confidence 88) [2EAF67F3] (AR v2)
Track 3 accurately ripped (confidence 88) [A6EEB9BD] (AR v2)
Track 4 accurately ripped (confidence 88) [24396C05] (AR v2)
Track 5 accurately ripped (confidence 88) [ED819249] (AR v2)
Track 6 accurately ripped (confidence 87) [0EBA7E20] (AR v2)
Track 7 accurately ripped (confidence 88) [C1C25A7D] (AR v2)
Track 8 accurately ripped (confidence 87) [2E8C7F53] (AR v2)
Track 9 accurately ripped (confidence 88) [B3A872B3] (AR v2)
Track 10 accurately ripped (confidence 88) [DBF92265] (AR v2)
Track 11 accurately ripped (confidence 87) [2C12594E] (AR v2)
Track 12 accurately ripped (confidence 88) [DDCDD894] (AR v2)
Track 13 accurately ripped (confidence 87) [168EF512] (AR v2)

All tracks accurately ripped

End of status report

–– CUETools DB Plugin V2.1.6

[CTDB TOCID: 4m.OX8BxTAdV3WsFeWVHaWlsUms-] found
Submit result: already submitted
Track | CTDB Status
1 | (119/205) Accurately ripped
2 | (120/205) Accurately ripped
3 | (118/205) Accurately ripped
4 | (118/205) Accurately ripped
5 | (119/205) Accurately ripped
6 | (119/205) Accurately ripped
7 | (120/205) Accurately ripped
8 | (120/205) Accurately ripped
9 | (120/205) Accurately ripped
10 | (120/205) Accurately ripped
11 | (120/205) Accurately ripped
12 | (120/205) Accurately ripped
13 | (120/205) Accurately ripped


==== Log checksum F19CEB58A85D99778D858599C34CFD7A9CE64D2F6261203D268FDEF87B65F01C ====

[CUETools log; Date: 15.03.2017 0:52:33; Version: 2.1.5]
[CTDB TOCID: 4m.OX8BxTAdV3WsFeWVHaWlsUms-] found.
Track | CTDB Status
1 | (119/205) Accurately ripped
2 | (120/205) Accurately ripped
3 | (118/205) Accurately ripped
4 | (118/205) Accurately ripped
5 | (119/205) Accurately ripped
6 | (119/205) Accurately ripped
7 | (120/205) Accurately ripped
8 | (120/205) Accurately ripped
9 | (120/205) Accurately ripped
10 | (120/205) Accurately ripped
11 | (120/205) Accurately ripped
12 | (120/205) Accurately ripped
13 | (120/205) Accurately ripped
[AccurateRip ID: 0019787c-00fcabb5-c00c170d] found.
Track [ CRC | V2 ] Status
01 [22214e83|7de01298] (078+087/343) Accurately ripped
02 [9f1bd5fc|2eaf67f3] (077+088/342) Accurately ripped
03 [e6527466|a6eeb9bd] (077+088/342) Accurately ripped
04 [abd6dcec|24396c05] (075+088/342) Accurately ripped
05 [a540c359|ed819249] (076+088/344) Accurately ripped
06 [8e679332|0eba7e20] (076+087/342) Accurately ripped
07 [a79f776d|c1c25a7d] (076+088/340) Accurately ripped
08 [23636956|2e8c7f53] (076+087/338) Accurately ripped
09 [3d5b51e6|b3a872b3] (076+088/343) Accurately ripped
10 [e69a0b5a|dbf92265] (075+088/341) Accurately ripped
11 [bde8fb52|2c12594e] (075+087/338) Accurately ripped
12 [0a4a34cf|ddcdd894] (074+088/343) Accurately ripped
13 [c6b126d5|168ef512] (070+087/338) Accurately ripped
Offsetted by -676:
01 [a69671ec] (003/343) Accurately ripped
02 [e51f8627] (003/342) Accurately ripped
03 [b56c65a3] (003/342) Accurately ripped
04 [889d42b7] (003/342) Accurately ripped
05 [e3315e74] (003/344) Accurately ripped
06 [4073e4be] (003/342) Accurately ripped
07 [815a2ec6] (003/340) Accurately ripped
08 [3d827baa] (003/338) Accurately ripped
09 [4c807379] (003/343) Accurately ripped
10 [a7afbe28] (003/341) Accurately ripped
11 [63959d0b] (003/338) Accurately ripped
12 [7e92f5d5] (003/343) Accurately ripped
13 [3da6a1e3] (003/338) Accurately ripped
Offsetted by -664:
01 [f5ed0c72] (002/343) Accurately ripped
02 [428edbea] (002/342) Accurately ripped
03 [2c6059b1] (002/342) Accurately ripped
04 [f8689e8e] (002/342) Accurately ripped
05 [bb0c7a84] (002/344) Accurately ripped
06 [26bc0fe6] (002/342) Accurately ripped
07 [42733efd] (002/340) Accurately ripped
08 [52262537] (002/338) Accurately ripped
09 [9811d457] (002/343) Accurately ripped
10 [ceac5410] (002/341) Accurately ripped
11 [106af854] (002/338) Accurately ripped
12 [dee8b15a] (002/343) Accurately ripped
13 [e0ed7e4d] (002/338) Accurately ripped
Offsetted by 6:
01 [486f1eae] (000/343) No match
02 [cd7225aa] (000/342) No match
03 [21cc6e4d] (000/342) No match
04 [e23ca56f] (002/342) Accurately ripped
05 [0122524d] (000/344) No match
06 [020c1bd6] (000/342) No match
07 [08bbab99] (000/340) No match
08 [adb53de0] (000/338) No match
09 [e3d307cc] (000/343) No match
10 [f90ce050] (000/341) No match
11 [1453a910] (000/338) No match
12 [55b67f54] (000/343) No match
13 [4eab8ca6] (000/338) No match

Track Peak [ CRC32 ] [W/O NULL] [ LOG ]
– 99,7 [95738CF2] [A0FB0563] CRC32
01 96,0 [EE870C6D] [68F65777]
02 97,4 [FB2E049D] [9B287C5F]
03 96,3 [6A4517E3] [7B4DA058]
04 98,6 [6729E8F8] [50E7CC3A]
05 97,5 [8820B567] [8E04EB96]
06 99,7 [BEF26CAB] [9B4F75F5]
07 99,7 [86EC51AA] [C2801F85]
08 97,5 [716B778B] [6C786EB4]
09 95,9 [21E89A39] [D793CD08]
10 98,6 [B22226D9] [54029D01]
11 98,6 [FC09B249] [3951ADD8]
12 98,8 [785B8149] [38039ED6]
13 99,7 [63C549AF] [8A160820]

Jeff Beck - Jeff (2003)


All thanks go to salernitana

>>> Jeff Beck in my Blog <<<

DOWNLOAD: