Subcategories
Tags
Language
Tags

Jeff Beck - Live + (2015)

Posted By: popsakov
Jeff Beck - Live + (2015)

Jeff Beck - Live + (2015)
EAC Rip | FLAC (Img) + Cue + Log ~ 524 Mb | MP3 CBR320 ~ 185 Mb
Scans Included | 01:11:40 | RAR 5% Recovery
Blues Rock, Hard Rock, Classic Rock | Rhino Records / Deuce Music #081227954581

The "+" in the title of Live+ refers to the two studio recordings tacked onto the end of this 2015 live set: a tense, cloistered original called "Tribal," where Jeff Beck spits out squalls of noise over thundering primal drums; and a cover of "My Tiled White Floor," a wash of electronic soul with vocals by Veronica Bellino that feels constructed out of faded memories of Prince. They're nice additions that wouldn't have quite suited 2010's Emotion & Commotion, nor do they quite feel of a piece with the rest of Live+, all recorded on tour in August 2014. Supported by a collection of tight pros – bassist Rhonda Smith, drummer Jonathan Joseph, guitarist Nicolas Meier, and vocalist Jimmy Hall – Beck isn't so much interested in resurrecting specific songs from his career as he is in revisiting particular styles and moods, waxing lyrical on "A Change Is Gonna Come" and "Danny Boy," venturing into thick sheets of distortion on "Big Block," transforming the Beatles' "A Day in the Life" into instrumental fusion, and ending with a set of hard blues. It's diverse but not showy: always a wildly flashy guitarist, Beck's flights feel lyrical, not indulgent, which underscores the sense that he used this 2014 tour as an excuse to just get out and play some guitar.

~ Stephen Thomas Erlewine, All Music

***************

Jeff Beck - Live + (2015)

Track List:

01. Loaded [02:57]
02. Morning Dew [04:33]
03. You Know You Know [06:32]
04. Why Give It Away [03:41]
05. A Change Is Gonna Come [07:21]
06. A Day In The Life [05:02]
07. Superstition [04:01]
08. Hammerhead [03:46]
09. Little Wing [03:52]
10. Big Block [05:08]
11. Where Were You [03:18]
12. Danny Boy [01:35]
13. Rollin’ And Tumblin’ [06:14]
14. Going Down [05:19]
15. Tribal (studio) [03:08]
16. My Tiled White Floor (studio) [05:21]

Exact Audio Copy V1.0 beta 6 from 9. April 2015

EAC extraction logfile from 4. June 2015, 17:37

Jeff Beck / Live +

Used drive : hp CDDVDW SH-216DB Adapter: 1 ID: 0

Read mode : Secure
Utilize accurate stream : Yes
Defeat audio cache : Yes
Make use of C2 pointers : No

Read offset correction : 6
Overread into Lead-In and Lead-Out : No
Fill up missing offset samples with silence : Yes
Delete leading and trailing silent blocks : No
Null samples used in CRC calculations : Yes
Used interface : Native Win32 interface for Win NT & 2000

Used output format : Internal WAV Routines
Sample format : 44.100 Hz; 16 Bit; Stereo


TOC of the extracted CD

Track | Start | Length | Start sector | End sector
––––––––––––––––––––––––––––-
1 | 0:00.00 | 2:56.57 | 0 | 13256
2 | 2:56.57 | 4:32.05 | 13257 | 33661
3 | 7:28.62 | 6:31.15 | 33662 | 63001
4 | 14:00.02 | 3:40.08 | 63002 | 79509
5 | 17:40.10 | 7:20.16 | 79510 | 112525
6 | 25:00.26 | 5:01.19 | 112526 | 135119
7 | 30:01.45 | 4:00.72 | 135120 | 153191
8 | 34:02.42 | 3:45.58 | 153192 | 170124
9 | 37:48.25 | 3:51.32 | 170125 | 187481
10 | 41:39.57 | 5:07.25 | 187482 | 210531
11 | 46:47.07 | 3:17.53 | 210532 | 225359
12 | 50:04.60 | 1:34.60 | 225360 | 232469
13 | 51:39.45 | 6:13.42 | 232470 | 260486
14 | 57:53.12 | 5:18.28 | 260487 | 284364
15 | 63:11.40 | 3:07.40 | 284365 | 298429
16 | 66:19.05 | 5:20.55 | 298430 | 322484


Range status and errors

Selected range

Filename E:\POST\Jeff Beck - Live + (EAC)\Jeff Beck - Live +.wav

Peak level 98.8 %
Extraction speed 7.8 X
Range quality 100.0 %
Test CRC 50A31F73
Copy CRC 50A31F73
Copy OK

No errors occurred


AccurateRip summary

Track 1 not present in database
Track 2 not present in database
Track 3 not present in database
Track 4 not present in database
Track 5 not present in database
Track 6 not present in database
Track 7 not present in database
Track 8 not present in database
Track 9 not present in database
Track 10 not present in database
Track 11 not present in database
Track 12 not present in database
Track 13 not present in database
Track 14 not present in database
Track 15 not present in database
Track 16 not present in database

None of the tracks are present in the AccurateRip database

End of status report

[CUETools log; Date: 11.05.2019 19:10:41; Version: 2.1.6]
[CTDB TOCID: oQNLp8cnvudyZ6sP.4rxinZ.HJQ-] found.
Track | CTDB Status
1 | (264/266) Accurately ripped
2 | (264/266) Accurately ripped
3 | (263/266) Accurately ripped
4 | (265/266) Accurately ripped
5 | (263/266) Accurately ripped
6 | (263/266) Accurately ripped
7 | (262/266) Accurately ripped
8 | (264/266) Accurately ripped
9 | (264/266) Accurately ripped
10 | (264/266) Accurately ripped
11 | (262/266) Accurately ripped
12 | (264/266) Accurately ripped
13 | (263/266) Accurately ripped
14 | (263/266) Accurately ripped
15 | (264/266) Accurately ripped
16 | (262/266) Accurately ripped
[AccurateRip ID: 002a7335-01fb3894-c210cb10] found.
Track [ CRC | V2 ] Status
01 [81149804|37134449] (004+092/104) Accurately ripped
02 [59f9cdee|15b202fc] (004+092/104) Accurately ripped
03 [748f2d09|ec96adb7] (004+092/104) Accurately ripped
04 [26858ae2|e9806f36] (004+092/104) Accurately ripped
05 [195974fc|1db4b375] (004+094/106) Accurately ripped
06 [4453a94d|785db52e] (004+093/105) Accurately ripped
07 [7952f29c|67111998] (004+093/105) Accurately ripped
08 [d6b21c5c|3014de1d] (004+092/104) Accurately ripped
09 [c89e7a12|65bad886] (004+093/105) Accurately ripped
10 [92b5ec74|0dace936] (004+092/104) Accurately ripped
11 [79783938|c3b3c45c] (004+091/103) Accurately ripped
12 [76598d0a|ebb1ca6b] (004+092/104) Accurately ripped
13 [e0119475|8a279524] (004+091/103) Accurately ripped
14 [b8faa6bd|b07a8280] (004+091/103) Accurately ripped
15 [15eddfe8|486cab96] (004+091/103) Accurately ripped
16 [639ec033|d13e635f] (004+092/104) Accurately ripped
Offsetted by -669:
01 [f557537b] (000/104) No match (V2 was not tested)
02 [b4134cda] (000/104) No match (V2 was not tested)
03 [49f4dab1] (000/104) No match (V2 was not tested)
04 [7c06ebea] (000/104) No match (V2 was not tested)
05 [7af4b6cb] (000/106) No match (V2 was not tested)
06 [2371b1cc] (000/105) No match (V2 was not tested)
07 [e5c375af] (000/105) No match (V2 was not tested)
08 [11c5bc74] (000/104) No match (V2 was not tested)
09 [2d2643b8] (000/105) No match (V2 was not tested)
10 [da529063] (000/104) No match (V2 was not tested)
11 [455472d4] (000/103) No match (V2 was not tested)
12 [906f909f] (000/104) No match (V2 was not tested)
13 [ffd254aa] (000/103) No match (V2 was not tested)
14 [64529408] (000/103) No match (V2 was not tested)
15 [685fc861] (000/103) No match (V2 was not tested)
16 [6a81fc65] (000/104) No match (V2 was not tested)
Offsetted by -12:
01 [073c7f51] (000/104) No match (V2 was not tested)
02 [8bf4d271] (000/104) No match (V2 was not tested)
03 [9028d9dd] (000/104) No match (V2 was not tested)
04 [a5ca7a4b] (000/104) No match (V2 was not tested)
05 [d32a6514] (000/106) No match (V2 was not tested)
06 [6dc737e1] (000/105) No match (V2 was not tested)
07 [9797b832] (000/105) No match (V2 was not tested)
08 [28b7693a] (000/104) No match (V2 was not tested)
09 [f4ba7a73] (000/105) No match (V2 was not tested)
10 [b44bfc67] (000/104) No match (V2 was not tested)
11 [a30a8662] (000/103) No match (V2 was not tested)
12 [8ef5a4ac] (000/104) No match (V2 was not tested)
13 [1d5d9229] (000/103) No match (V2 was not tested)
14 [8e9d26d2] (000/103) No match (V2 was not tested)
15 [b8289dcb] (000/103) No match (V2 was not tested)
16 [19109083] (000/104) No match (V2 was not tested)
Offsetted by -6:
01 [4775933b] (000/104) No match (V2 was not tested)
02 [9561d3b2] (000/104) No match (V2 was not tested)
03 [0f317d83] (000/104) No match (V2 was not tested)
04 [05b23db6] (000/104) No match (V2 was not tested)
05 [54760e05] (000/106) No match (V2 was not tested)
06 [d2e09699] (000/105) No match (V2 was not tested)
07 [380f11f5] (000/105) No match (V2 was not tested)
08 [0d1e50b7] (000/104) No match (V2 was not tested)
09 [7d4bcaf3] (000/105) No match (V2 was not tested)
10 [6df5490b] (000/104) No match (V2 was not tested)
11 [4aa3d116] (000/103) No match (V2 was not tested)
12 [183284a7] (000/104) No match (V2 was not tested)
13 [aaa3e313] (000/103) No match (V2 was not tested)
14 [701c20d4] (000/103) No match (V2 was not tested)
15 [d0829dc2] (000/103) No match (V2 was not tested)
16 [bdec4476] (000/104) No match (V2 was not tested)

Track Peak [ CRC32 ] [W/O NULL] [ LOG ]
– 98,8 [50A31F73] [D999A917] CRC32
01 97,7 [07EF34D1] [14A984A8]
02 98,8 [BDB228D8] [200C0811]
03 97,7 [3B161B5E] [DBC9D49A]
04 98,8 [B555AD14] [8045CE31]
05 97,7 [6A21B475] [E4771C6C]
06 97,1 [923EFB4E] [A064158C]
07 97,7 [37365496] [1CA7BF2E]
08 97,7 [CA292CA3] [4499B21B]
09 97,7 [AC6F3216] [207965DB]
10 97,7 [925E2434] [AB71F8C0]
11 96,5 [FCD406C5] [975B2D21]
12 94,6 [806637C9] [F485D4B1]
13 97,7 [B9905B28] [86382D3E]
14 97,7 [D0E2F358] [1B1AC895]
15 94,4 [98B54649] [2A786297]
16 94,4 [87A92553] [AAD1AE11]

Jeff Beck - Live + (2015)


All thanks go to the original ripper(s) …

>>> Jeff Beck in my Blog <<<

DOWNLOAD: