Tags
Language
Tags

Jeff Beck - Original Album Classics 1980-2001 (2010) [5CD Box Set]

Posted By: v3122
Jeff Beck - Original Album Classics 1980-2001 (2010) [5CD Box Set]

Jeff Beck - Original Album Classics 1980-2001 (2010)
EAC | Flac(Image) + Cue + Log & MP3 CBR 320Kbps
Sony Music, 88697660512 | ~ 1354 or 542 Mb | Scans(png) -> 286 Mb
Blues rock, Jazz fusion, Instrumental Rock, Hard Rock, Progressive Rock

Five CD release from the acclaimed guitarist contains five of his classic albums housed in paper sleeves in one package. This set from the British guitar legend features the albums There And Back (1980), Flash (1985), Jeff Beck's Guitar Shop (1989), Who Else (1999) and You Had It Coming (2001).
Jeff Beck - Original Album Classics 1980-2001 (2010):

Jeff Beck - Original Album Classics 1980-2001 (2010) [5CD Box Set]

Tracklist CD1 - 1980 There And Back:

1. Star Cycle
2. Too Much To Lose
3. You Never Know
4. The Pump
5. El Веckо
6. The Golden Road
7. Space Boogie
8. The Final Peace

Exact Audio Copy V1.0 beta 2 from 29. April 2011

EAC extraction logfile from 25. July 2011, 21:19

Jeff Beck / There And Back

Used drive : HL-DT-STDVDRAM GSA-H60N Adapter: 2 ID: 0

Read mode : Secure
Utilize accurate stream : Yes
Defeat audio cache : Yes
Make use of C2 pointers : No

Read offset correction : 667
Overread into Lead-In and Lead-Out : No
Fill up missing offset samples with silence : Yes
Delete leading and trailing silent blocks : No
Null samples used in CRC calculations : Yes
Used interface : Native Win32 interface for Win NT & 2000

Used output format : Internal WAV Routines
Sample format : 44.100 Hz; 16 Bit; Stereo


TOC of the extracted CD

Track | Start | Length | Start sector | End sector
––––––––––––––––––––––––––––-
1 | 0:00.00 | 4:58.72 | 0 | 22421
2 | 4:58.72 | 2:59.58 | 22422 | 35904
3 | 7:58.55 | 4:04.40 | 35905 | 54244
4 | 12:03.20 | 5:50.12 | 54245 | 80506
5 | 17:53.32 | 4:01.03 | 80507 | 98584
6 | 21:54.35 | 4:58.45 | 98585 | 120979
7 | 26:53.05 | 5:08.27 | 120980 | 144106
8 | 32:01.32 | 3:39.43 | 144107 | 160574


Range status and errors

Selected range

Filename C:\Documents and Settings\Администратор\Рабочий стол\Rip by ALLexxess\Jeff Beck\2010 Original Album Classics\1980 There & Back\Jeff Beck - There And Back.wav

Peak level 100.0 %
Extraction speed 5.5 X
Range quality 100.0 %
Test CRC 84981ECB
Copy CRC 84981ECB
Copy OK

No errors occurred


AccurateRip summary

Track 1 cannot be verified as accurate (confidence 17) [6E8FA741], AccurateRip returned [EE083DF4] (AR v2)
Track 2 cannot be verified as accurate (confidence 17) [6593707B], AccurateRip returned [53468784] (AR v2)
Track 3 cannot be verified as accurate (confidence 17) [2051D076], AccurateRip returned [FA90D6D1] (AR v2)
Track 4 cannot be verified as accurate (confidence 17) [59535B41], AccurateRip returned [E0AD4AF0] (AR v2)
Track 5 cannot be verified as accurate (confidence 16) [EBEE21C7], AccurateRip returned [3B606151] (AR v2)
Track 6 cannot be verified as accurate (confidence 17) [338F28AF], AccurateRip returned [F90F2C97] (AR v2)
Track 7 cannot be verified as accurate (confidence 17) [E05D03BC], AccurateRip returned [C688D977] (AR v2)
Track 8 cannot be verified as accurate (confidence 17) [0924B43A], AccurateRip returned [4C9999D7] (AR v2)

No tracks could be verified as accurate
You may have a different pressing from the one(s) in the database

End of status report

==== Log checksum E6A6D886BF1626482F46DEE58831A4FD58E034E535A0E637BCACB542C13EACBE ====


[CUETools log; Date: 28.02.2018 22:59:15; Version: 2.1.5]
[CTDB TOCID: fttj65otG9Cu8whq2SdPnmjMLYc-] found.
Track | CTDB Status
1 | (178/204) Accurately ripped
2 | (180/204) Accurately ripped
3 | (181/204) Accurately ripped
4 | (181/204) Accurately ripped
5 | (181/204) Accurately ripped
6 | (180/204) Accurately ripped
7 | (179/204) Accurately ripped
8 | (180/204) Accurately ripped
[AccurateRip ID: 000af20e-00495f1c-53085d08] found.
Track [ CRC | V2 ] Status
01 [34ba52e6|6e8fa741] (010+077/213) Accurately ripped
02 [c644e2e2|6593707b] (010+076/211) Accurately ripped
03 [7df3ae0d|2051d076] (010+077/212) Accurately ripped
04 [703565e6|59535b41] (010+077/213) Accurately ripped
05 [e5ae70e1|ebee21c7] (010+075/209) Accurately ripped
06 [ca9d804b|338f28af] (010+077/212) Accurately ripped
07 [87736f1e|e05d03bc] (010+077/212) Accurately ripped
08 [db9b138c|0924b43a] (010+077/212) Accurately ripped
Offsetted by 267:
01 [8f9d0c51] (004/213) Accurately ripped
02 [dd97f860] (004/211) Accurately ripped
03 [bbf6938d] (004/212) Accurately ripped
04 [29549576] (004/213) Accurately ripped
05 [93d7e8ab] (004/209) Accurately ripped
06 [e323552e] (004/212) Accurately ripped
07 [bce02800] (004/212) Accurately ripped
08 [d269831c] (004/212) Accurately ripped
Offsetted by 664:
01 [04c16a41] (008/213) Accurately ripped
02 [2841748e] (008/211) Accurately ripped
03 [1002ca8f] (008/212) Accurately ripped
04 [d96ff0a6] (008/213) Accurately ripped
05 [d5449b7d] (008/209) Accurately ripped
06 [0dd41fdf] (008/212) Accurately ripped
07 [a77bc906] (008/212) Accurately ripped
08 [944da60c] (008/212) Accurately ripped
Offsetted by 747:
01 [3d20ffc6] (002/213) Accurately ripped
02 [e78514d4] (002/211) Accurately ripped
03 [d59c64b7] (002/212) Accurately ripped
04 [26811e61] (002/213) Accurately ripped
05 [4d97c39f] (002/209) Accurately ripped
06 [557ab141] (002/212) Accurately ripped
07 [b857556b] (002/212) Accurately ripped
08 [77e2c6da] (002/212) Accurately ripped
Offsetted by 1649:
01 [8b6b0176] (003/213) Accurately ripped
02 [424cd082] (003/211) Accurately ripped
03 [c6075ac6] (003/212) Accurately ripped
04 [5fac20a9] (003/213) Accurately ripped
05 [00629db5] (003/209) Accurately ripped
06 [eb5b20df] (003/212) Accurately ripped
07 [80224ce7] (003/212) Accurately ripped
08 [16a318d4] (003/212) Accurately ripped
Offsetted by -646:
01 [07a854a8] (000/213) No match (V2 was not tested)
02 [1ced83a0] (000/211) No match (V2 was not tested)
03 [613a714c] (000/212) No match (V2 was not tested)
04 [7b0d81dd] (000/213) No match (V2 was not tested)
05 [758b984c] (000/209) No match (V2 was not tested)
06 [5c21616a] (000/212) No match (V2 was not tested)
07 [f5ef13c0] (000/212) No match (V2 was not tested)
08 [93d24fba] (000/212) No match (V2 was not tested)

Track Peak [ CRC32 ] [W/O NULL] [ LOG ]
– 100,0 [84981ECB] [4D2C7C5D] CRC32
01 100,0 [66A22482] [7D56F9D1]
02 100,0 [E6D07A56] [746FD76B]
03 100,0 [6F2C8AE0] [3BEDAF93]
04 100,0 [CD142782] [2285E9B9]
05 100,0 [1A31C4FE] [B7C5A52D]
06 100,0 [7D945537] [F6B7524E]
07 100,0 [ED2C6132] [8794367E]
08 48,2 [3BED56D1] [042A1300]


Jeff Beck - Original Album Classics 1980-2001 (2010) [5CD Box Set]

Tracklist CD2 - 1985 Flash:

01. Ambitious
02. Gets Us All In The End
03. Escape
04. People Get Ready
05. Stop, Look And Listen
06. Get Workin'
07. Ecstasy
08. Night After Night
09. You Know, We Know
Bonus Tracks
10. Nighthawks
11. Back On The Streets

Exact Audio Copy V1.0 beta 2 from 29. April 2011

EAC extraction logfile from 25. July 2011, 22:46

Jeff Beck / Flash

Used drive : HL-DT-STDVDRAM GSA-H60N Adapter: 2 ID: 0

Read mode : Secure
Utilize accurate stream : Yes
Defeat audio cache : Yes
Make use of C2 pointers : No

Read offset correction : 667
Overread into Lead-In and Lead-Out : No
Fill up missing offset samples with silence : Yes
Delete leading and trailing silent blocks : No
Null samples used in CRC calculations : Yes
Used interface : Native Win32 interface for Win NT & 2000

Used output format : Internal WAV Routines
Sample format : 44.100 Hz; 16 Bit; Stereo


TOC of the extracted CD

Track | Start | Length | Start sector | End sector
––––––––––––––––––––––––––––-
1 | 0:00.00 | 4:37.42 | 0 | 20816
2 | 4:37.42 | 6:06.18 | 20817 | 48284
3 | 10:43.60 | 4:41.55 | 48285 | 69414
4 | 15:25.40 | 4:54.65 | 69415 | 91529
5 | 20:20.30 | 4:27.32 | 91530 | 111586
6 | 24:47.62 | 3:35.70 | 111587 | 127781
7 | 28:23.57 | 3:31.18 | 127782 | 143624
8 | 31:55.00 | 3:42.15 | 143625 | 160289
9 | 35:37.15 | 5:35.60 | 160290 | 185474
10 | 41:13.00 | 4:48.07 | 185475 | 207081
11 | 46:01.07 | 3:41.05 | 207082 | 223661


Range status and errors

Selected range

Filename C:\Documents and Settings\Администратор\Рабочий стол\Rip by ALLexxess\Jeff Beck\2010 Original Album Classics\1985 Flash\Jeff Beck - Flash.wav

Peak level 100.0 %
Extraction speed 5.9 X
Range quality 100.0 %
Test CRC F13A781F
Copy CRC F13A781F
Copy OK

No errors occurred


AccurateRip summary

Track 1 accurately ripped (confidence 2) [47020F2B] (AR v1)
Track 2 accurately ripped (confidence 2) [53D3D30A] (AR v1)
Track 3 accurately ripped (confidence 2) [CAE476CF] (AR v1)
Track 4 accurately ripped (confidence 2) [B2D1C9DD] (AR v1)
Track 5 accurately ripped (confidence 2) [F4BF9CC1] (AR v1)
Track 6 accurately ripped (confidence 2) [A3E6D57D] (AR v1)
Track 7 accurately ripped (confidence 2) [32DDA919] (AR v1)
Track 8 accurately ripped (confidence 2) [3C7E5A11] (AR v1)
Track 9 accurately ripped (confidence 2) [647B8833] (AR v1)
Track 10 accurately ripped (confidence 2) [625767CE] (AR v1)
Track 11 accurately ripped (confidence 2) [7A2F2B42] (AR v1)

All tracks accurately ripped

End of status report

==== Log checksum 1C950D6ABABCFE1E856BE841708C64F5591D008F265720849B32CF0BE710E345 ====


[CUETools log; Date: 28.02.2018 22:59:54; Version: 2.1.5]
[CTDB TOCID: p49B6M3P4dGvuQDF4vgW4OWmcEg-] found.
Track | CTDB Status
1 | (109/111) Accurately ripped
2 | (109/111) Accurately ripped
3 | (109/111) Accurately ripped
4 | (109/111) Accurately ripped
5 | (109/111) Accurately ripped
6 | (109/111) Accurately ripped
7 | (109/111) Accurately ripped
8 | (109/111) Accurately ripped
9 | (109/111) Accurately ripped
10 | (109/111) Accurately ripped
11 | (109/111) Accurately ripped
[AccurateRip ID: 001533ee-00b57cf2-a40ba60b] found.
Track [ CRC | V2 ] Status
01 [47020f2b|364046e2] (08+23/92) Accurately ripped
02 [53d3d30a|f15a6c04] (08+23/93) Accurately ripped
03 [cae476cf|8446898b] (08+23/92) Accurately ripped
04 [b2d1c9dd|3bdcbec4] (08+23/92) Accurately ripped
05 [f4bf9cc1|34dfcbd4] (08+23/92) Accurately ripped
06 [a3e6d57d|2048a739] (08+23/92) Accurately ripped
07 [32dda919|2109818e] (08+23/92) Accurately ripped
08 [3c7e5a11|cfbae9a9] (08+23/92) Accurately ripped
09 [647b8833|e10070b7] (08+23/92) Accurately ripped
10 [625767ce|92127128] (08+23/92) Accurately ripped
11 [7a2f2b42|9602ae19] (08+23/92) Accurately ripped
Offsetted by 36:
01 [6ab044f7] (02/92) Accurately ripped
02 [6a3b1902] (03/93) Accurately ripped
03 [7b4a3ebb] (02/92) Accurately ripped
04 [7ff0bf31] (02/92) Accurately ripped
05 [b30f1bb6] (02/92) Accurately ripped
06 [723c8408] (02/92) Accurately ripped
07 [94dad239] (02/92) Accurately ripped
08 [53c60bf9] (02/92) Accurately ripped
09 [701f219f] (02/92) Accurately ripped
10 [bf5db79e] (02/92) Accurately ripped
11 [95de39e4] (02/92) Accurately ripped
Offsetted by -646:
01 [b884d809] (00/92) No match (V2 was not tested)
02 [88ebf9b6] (00/93) No match (V2 was not tested)
03 [34a59dfd] (00/92) No match (V2 was not tested)
04 [275f25cf] (00/92) No match (V2 was not tested)
05 [c5287640] (00/92) No match (V2 was not tested)
06 [ecb0e096] (00/92) No match (V2 was not tested)
07 [29d7b8e9] (00/92) No match (V2 was not tested)
08 [d3a27e15] (00/92) No match (V2 was not tested)
09 [93a04721] (00/92) No match (V2 was not tested)
10 [15f45dd6] (00/92) No match (V2 was not tested)
11 [63561b89] (00/92) No match (V2 was not tested)

Track Peak [ CRC32 ] [W/O NULL] [ LOG ]
– 100,0 [F13A781F] [3E92950A] CRC32
01 88,0 [8F069C07] [DBBD04E0]
02 93,6 [2B6FF1BD] [CE7B2E7D]
03 82,7 [F83B1CB2] [616B3A63]
04 80,7 [7730E1A4] [2AB7154C]
05 64,3 [52C29D21] [91C8A56F]
06 69,6 [F3B2D95D] [C5E47F6C]
07 70,4 [9CB4FFAD] [6ED9A023]
08 66,0 [72297573] [792674D7]
09 95,3 [5DFCA905] [7B9214FC]
10 100,0 [F18D2EF2] [FE2CB016]
11 100,0 [32ACF04F] [31A45D59]


Jeff Beck - Original Album Classics 1980-2001 (2010) [5CD Box Set]

Tracklist CD3 - 1989 Jeff Beck's Guitar Shop:

1. Guitar Shop
2. Savoy
3. Behind The Veil
4. Big Block
5. Where Were You
6. Stand On It
7. A Day In The House
8. Two Rivers
9. Sling Shot

Exact Audio Copy V1.0 beta 2 from 29. April 2011

EAC extraction logfile from 25. July 2011, 20:39

Jeff Beck / Terry Bozzio / Tony Hymas / Jeff Beck's Guitar Shop

Used drive : HL-DT-STDVDRAM GSA-H60N Adapter: 2 ID: 0

Read mode : Secure
Utilize accurate stream : Yes
Defeat audio cache : Yes
Make use of C2 pointers : No

Read offset correction : 667
Overread into Lead-In and Lead-Out : No
Fill up missing offset samples with silence : Yes
Delete leading and trailing silent blocks : No
Null samples used in CRC calculations : Yes
Used interface : Native Win32 interface for Win NT & 2000

Used output format : Internal WAV Routines
Sample format : 44.100 Hz; 16 Bit; Stereo


TOC of the extracted CD

Track | Start | Length | Start sector | End sector
––––––––––––––––––––––––––––-
1 | 0:00.00 | 5:02.45 | 0 | 22694
2 | 5:02.45 | 3:53.40 | 22695 | 40209
3 | 8:56.10 | 4:55.55 | 40210 | 62389
4 | 13:51.65 | 4:09.70 | 62390 | 81134
5 | 18:01.60 | 3:17.22 | 81135 | 95931
6 | 21:19.07 | 4:59.40 | 95932 | 118396
7 | 26:18.47 | 5:04.20 | 118397 | 141216
8 | 31:22.67 | 5:25.48 | 141217 | 165639
9 | 36:48.40 | 3:06.17 | 165640 | 179606


Range status and errors

Selected range

Filename C:\Documents and Settings\Администратор\Рабочий стол\Rip by ALLexxess\Jeff Beck\2010 Original Album Classics\1989 Jeff Beck's Guitar Shop\Jeff Beck's Guitar Shop.wav

Peak level 85.5 %
Extraction speed 5.5 X
Range quality 99.9 %
Test CRC C1F172AA
Copy CRC C1F172AA
Copy OK

No errors occurred


AccurateRip summary

Track 1 not present in database
Track 2 not present in database
Track 3 not present in database
Track 4 not present in database
Track 5 not present in database
Track 6 not present in database
Track 7 not present in database
Track 8 not present in database
Track 9 not present in database

None of the tracks are present in the AccurateRip database

End of status report

==== Log checksum 2A2D746A92C23A1A367CD936D580CEF82FC00F8AD8BAD6333F97C97DE41453F7 ====


[CUETools log; Date: 28.02.2018 23:00:29; Version: 2.1.5]
[CTDB TOCID: xwMjqszVuWtv.y3rZlIRKRUzZkA-] found.
Track | CTDB Status
1 | (104/104) Accurately ripped
2 | (104/104) Accurately ripped
3 | (104/104) Accurately ripped
4 | (104/104) Accurately ripped
5 | (104/104) Accurately ripped
6 | (104/104) Accurately ripped
7 | (104/104) Accurately ripped
8 | (104/104) Accurately ripped
9 | (104/104) Accurately ripped
[AccurateRip ID: 000dd7d7-00655a11-67095a09] found.
Track [ CRC | V2 ] Status
01 [918b4f52|0e93b7d4] (08+75/88) Accurately ripped
02 [76b5fa8d|d56b4af2] (08+75/88) Accurately ripped
03 [5ab8238c|5443616c] (08+75/88) Accurately ripped
04 [52797079|0eefc695] (08+75/88) Accurately ripped
05 [fa903a73|1cf6d49e] (08+75/88) Accurately ripped
06 [bf18f394|bc836291] (08+75/88) Accurately ripped
07 [bc9d7603|7180f9a9] (08+75/88) Accurately ripped
08 [ed64334c|1436ec9a] (08+75/88) Accurately ripped
09 [bbaa6f3e|73264bf1] (08+75/88) Accurately ripped
Offsetted by -670:
01 [658d5189] (00/88) No match (V2 was not tested)
02 [ce9dc07c] (00/88) No match (V2 was not tested)
03 [85a96ed0] (00/88) No match (V2 was not tested)
04 [39e87321] (00/88) No match (V2 was not tested)
05 [149884b9] (00/88) No match (V2 was not tested)
06 [da2dcf5b] (00/88) No match (V2 was not tested)
07 [2c188c2b] (00/88) No match (V2 was not tested)
08 [accdf3c2] (00/88) No match (V2 was not tested)
09 [1bf90b3a] (00/88) No match (V2 was not tested)

Track Peak [ CRC32 ] [W/O NULL] [ LOG ]
– 85,5 [C1F172AA] [4E1FAE87] CRC32
01 84,8 [A8071C6D] [69DE7830]
02 82,4 [67990462] [DCE851D7]
03 85,5 [68DD7C77] [06218A54]
04 79,7 [8875ECB5] [2AB93C21]
05 43,8 [B9D1FE0C] [99E09CB4]
06 77,3 [E855A6B3] [7DEC0B87]
07 84,3 [D9ED95C5] [3B2A861F]
08 64,9 [EF1F9762] [10A54C6A]
09 80,6 [0FCCC501] [2685F202]


Jeff Beck - Original Album Classics 1980-2001 (2010) [5CD Box Set]

Tracklist CD4 - 1999 Who Else!:

01. What Mama Said
02. Psycho Sam
03. Brush With The Blues
04. Blast From The East
05. Space For The Papa
06. Angel (Footsteps)
07. THX138
08. Hip-Notica
09. Even Odds
10. Declan
11. Another Place

Exact Audio Copy V1.0 beta 2 from 29. April 2011

EAC extraction logfile from 25. July 2011, 19:54

Jeff Beck / Who Else!

Used drive : HL-DT-STDVDRAM GSA-H60N Adapter: 2 ID: 0

Read mode : Secure
Utilize accurate stream : Yes
Defeat audio cache : Yes
Make use of C2 pointers : No

Read offset correction : 667
Overread into Lead-In and Lead-Out : No
Fill up missing offset samples with silence : Yes
Delete leading and trailing silent blocks : No
Null samples used in CRC calculations : Yes
Used interface : Native Win32 interface for Win NT & 2000

Used output format : Internal WAV Routines
Sample format : 44.100 Hz; 16 Bit; Stereo


TOC of the extracted CD

Track | Start | Length | Start sector | End sector
––––––––––––––––––––––––––––-
1 | 0:00.00 | 3:22.52 | 0 | 15201
2 | 3:22.52 | 4:55.48 | 15202 | 37374
3 | 8:18.25 | 6:24.60 | 37375 | 66234
4 | 14:43.10 | 4:46.62 | 66235 | 87746
5 | 19:29.72 | 7:41.65 | 87747 | 122386
6 | 27:11.62 | 6:30.73 | 122387 | 151709
7 | 33:42.60 | 6:15.32 | 151710 | 179866
8 | 39:58.17 | 4:40.40 | 179867 | 200906
9 | 44:38.57 | 3:29.13 | 200907 | 216594
10 | 48:07.70 | 4:02.65 | 216595 | 234809
11 | 52:10.60 | 1:47.70 | 234810 | 242904


Range status and errors

Selected range

Filename C:\Documents and Settings\Администратор\Рабочий стол\Rip by ALLexxess\Jeff Beck\2010 Original Album Classics\1999 Who Else!\Jeff Beck - Who Else!.wav

Peak level 99.9 %
Extraction speed 6.0 X
Range quality 100.0 %
Test CRC 4F86C39E
Copy CRC 4F86C39E
Copy OK

No errors occurred


AccurateRip summary

Track 1 not present in database
Track 2 not present in database
Track 3 not present in database
Track 4 not present in database
Track 5 not present in database
Track 6 not present in database
Track 7 not present in database
Track 8 not present in database
Track 9 not present in database
Track 10 not present in database
Track 11 not present in database

None of the tracks are present in the AccurateRip database

End of status report

==== Log checksum 9046EA2CCAC3CD95D458F555A2D227C496D8A2F43750D28D14FDD3651F39634A ====


[CUETools log; Date: 28.02.2018 23:01:09; Version: 2.1.5]
[CTDB TOCID: tE30XlKWLqY_KLtRMVofRnjvCCM-] found.
Track | CTDB Status
1 | (108/108) Accurately ripped
2 | (108/108) Accurately ripped
3 | (108/108) Accurately ripped
4 | (108/108) Accurately ripped
5 | (108/108) Accurately ripped
6 | (108/108) Accurately ripped
7 | (108/108) Accurately ripped
8 | (108/108) Accurately ripped
9 | (108/108) Accurately ripped
10 | (108/108) Accurately ripped
11 | (108/108) Accurately ripped
[AccurateRip ID: 0017bd1c-00cecea4-7b0ca60b] found.
Track [ CRC | V2 ] Status
01 [78e3dcde|51f40d68] (11+72/88) Accurately ripped
02 [d26eddd2|c7a921cf] (11+72/88) Accurately ripped
03 [94a95dec|1f307b6e] (11+72/88) Accurately ripped
04 [d94c4346|bca38453] (11+72/88) Accurately ripped
05 [7ee36648|666a79b1] (11+72/88) Accurately ripped
06 [c12b91a4|7170e038] (11+72/88) Accurately ripped
07 [de52d81d|c376c1c6] (11+73/89) Accurately ripped
08 [0510c55f|0ec1c09e] (11+73/89) Accurately ripped
09 [6520834f|c8b37718] (11+72/88) Accurately ripped
10 [3b00f5cd|9ea569fc] (11+73/89) Accurately ripped
11 [23892ab7|f50cd7b7] (11+73/89) Accurately ripped
Offsetted by -670:
01 [ff7b9309] (00/88) No match (V2 was not tested)
02 [e8b2fa2c] (00/88) No match (V2 was not tested)
03 [cfb14c67] (00/88) No match (V2 was not tested)
04 [f13d1f4c] (00/88) No match (V2 was not tested)
05 [e104aaa5] (00/88) No match (V2 was not tested)
06 [669c49d1] (00/88) No match (V2 was not tested)
07 [b4521d59] (00/89) No match (V2 was not tested)
08 [38c288fd] (00/89) No match (V2 was not tested)
09 [2c3b6bc3] (00/88) No match (V2 was not tested)
10 [30bdffa7] (00/89) No match (V2 was not tested)
11 [55aa9302] (00/89) No match (V2 was not tested)

Track Peak [ CRC32 ] [W/O NULL] [ LOG ]
– 99,9 [4F86C39E] [8E06F452] CRC32
01 99,9 [2159A133] [FFA92BEF]
02 99,7 [03D7596C] [AFA1B4D1]
03 99,9 [52492D26] [C05FC57D]
04 99,7 [84455052] [E70BE466]
05 99,9 [ABB38D4B] [1146E0D5]
06 99,9 [EC4E5018] [24A1DB08]
07 99,9 [9FD61DAC] [E07A68D7]
08 99,9 [163D3A8D] [8D87D5C1]
09 99,7 [E3B55B92] [66906534]
10 99,9 [5EC0094A] [E98A3226]
11 99,9 [A4A65385] [8D9916B6]


Jeff Beck - Original Album Classics 1980-2001 (2010) [5CD Box Set]

Tracklist CD5 - 2001 You Had It Coming:

01. Earthquake
02. Roy's Toy
03. Dirty Mind
04. Rollin' And Tumblin'
05. Nadia
06. Loose Cannon
07. Rosebud
08. Left Hook
09. Blackbird
10. Suspension

Exact Audio Copy V1.0 beta 2 from 29. April 2011

EAC extraction logfile from 26. July 2011, 18:07

Jeff Beck / You Had It Coming

Used drive : HL-DT-STDVDRAM GSA-H60N Adapter: 2 ID: 0

Read mode : Secure
Utilize accurate stream : Yes
Defeat audio cache : Yes
Make use of C2 pointers : No

Read offset correction : 667
Overread into Lead-In and Lead-Out : No
Fill up missing offset samples with silence : Yes
Delete leading and trailing silent blocks : No
Null samples used in CRC calculations : Yes
Used interface : Native Win32 interface for Win NT & 2000

Used output format : Internal WAV Routines
Sample format : 44.100 Hz; 16 Bit; Stereo


TOC of the extracted CD

Track | Start | Length | Start sector | End sector
––––––––––––––––––––––––––––-
1 | 0:00.00 | 3:18.22 | 0 | 14871
2 | 3:18.22 | 3:35.18 | 14872 | 31014
3 | 6:53.40 | 3:50.62 | 31015 | 48326
4 | 10:44.27 | 3:12.33 | 48327 | 62759
5 | 13:56.60 | 3:50.62 | 62760 | 80071
6 | 17:47.47 | 5:17.38 | 80072 | 103884
7 | 23:05.10 | 3:44.22 | 103885 | 120706
8 | 26:49.32 | 4:22.05 | 120707 | 140361
9 | 31:11.37 | 1:27.13 | 140362 | 146899
10 | 32:38.50 | 3:20.57 | 146900 | 161956


Range status and errors

Selected range

Filename C:\Documents and Settings\Администратор\Рабочий стол\Rip by ALLexxess\Jeff Beck\2010 Original Album Classics\2001 You Had It Coming\Jeff Beck - You Had It Coming.wav

Peak level 97.9 %
Extraction speed 5.5 X
Range quality 100.0 %
Test CRC C14945DC
Copy CRC C14945DC
Copy OK

No errors occurred


AccurateRip summary

Track 1 not present in database
Track 2 not present in database
Track 3 not present in database
Track 4 not present in database
Track 5 not present in database
Track 6 not present in database
Track 7 not present in database
Track 8 not present in database
Track 9 not present in database
Track 10 not present in database

None of the tracks are present in the AccurateRip database

End of status report

==== Log checksum 67B61F309EB0A70B847F5C0CED9A3B34F08497F5C3E687EEAC469A5657C9C138 ====


[CUETools log; Date: 28.02.2018 23:01:34; Version: 2.1.5]
[CTDB TOCID: BvYK1UnS0mU3hgxtgYzqMAtCMrE-] found.
Track | CTDB Status
1 | (110/110) Accurately ripped
2 | (110/110) Accurately ripped
3 | (110/110) Accurately ripped
4 | (110/110) Accurately ripped
5 | (110/110) Accurately ripped
6 | (110/110) Accurately ripped
7 | (110/110) Accurately ripped
8 | (110/110) Accurately ripped
9 | (110/110) Accurately ripped
10 | (110/110) Accurately ripped
[AccurateRip ID: 000de609-006fa5e6-80086f0a] found.
Track [ CRC | V2 ] Status
01 [9a3fc8c9|842180ca] (11+71/87) Accurately ripped
02 [c103701c|0cac6416] (11+71/87) Accurately ripped
03 [88e56ae8|0d68301a] (11+71/87) Accurately ripped
04 [663028d1|d2fb3086] (11+71/87) Accurately ripped
05 [d13b2f1d|dd5a3c96] (11+71/87) Accurately ripped
06 [05627a33|d5d9f351] (11+71/87) Accurately ripped
07 [53aa4767|e551bfaf] (11+71/87) Accurately ripped
08 [1aae1a42|d0b8e85f] (11+71/87) Accurately ripped
09 [aabc40e5|656a672f] (11+71/87) Accurately ripped
10 [4dd885e5|338bdccb] (11+71/87) Accurately ripped
Offsetted by -646:
01 [ad4371d3] (00/87) No match (V2 was not tested)
02 [42fa478a] (00/87) No match (V2 was not tested)
03 [c03c6752] (00/87) No match (V2 was not tested)
04 [37424023] (00/87) No match (V2 was not tested)
05 [b1621cfd] (00/87) No match (V2 was not tested)
06 [4d310dbd] (00/87) No match (V2 was not tested)
07 [9cba3c61] (00/87) No match (V2 was not tested)
08 [a7daa918] (00/87) No match (V2 was not tested)
09 [0668f83f] (00/87) No match (V2 was not tested)
10 [9d1d70f7] (00/87) No match (V2 was not tested)

Track Peak [ CRC32 ] [W/O NULL] [ LOG ]
– 97,9 [C14945DC] [CAF54F3E] CRC32
01 97,9 [A9958BCA] [84904676]
02 97,9 [D188E7FB] [A37F90E5]
03 97,9 [0ED947A7] [A8DD857A]
04 97,9 [38BBED6B] [479A4A09]
05 97,9 [FB4A3F78] [EE45FDD0]
06 97,9 [A54EA9EB] [043BFC23]
07 97,9 [8BD39994] [C4C6EEFC]
08 97,9 [0E6656D8] [FCA2592B]
09 53,1 [2DE73108] [F564E688]
10 97,9 [D3FB556A] [C5CDA506]


Jeff Beck - Original Album Classics 1980-2001 (2010) [5CD Box Set]

All thanks go to ALLexxess

Jeff Beck in my Blog

Download Jeff Beck - Original Album Classics 1980-2001 (2010):