Tags
Language
Tags

Jeff Beck - Rock 'n' Roll Party: Honoring Les Paul (2011) {2017, Japanese Edition}

Posted By: popsakov
Jeff Beck - Rock 'n' Roll Party: Honoring Les Paul (2011) {2017, Japanese Edition}

Jeff Beck - Rock 'n' Roll Party: Honoring Les Paul (2011) {2017, Japanese Edition}
EAC Rip | FLAC (Img) + Cue + Log ~ 474 Mb | MP3 CBR320 ~ 162 Mb
Full Scans (PNG, 400 dpi) ~ 147 Mb | RAR 5% Recovery
Rock'n'Roll, Jazz, Blues | ATCO Records / Warner Music Japan #WPCR-17651

A year after Les Paul's death, Jeff Beck saluted the guitar pioneer by staging a rousing tribute show to the great man at Paul’s regular stomping ground, the Iridium Jazz Club. Backed by his current running mates the Imelda May Band, Beck enlisted some heavy-hitters for help – Brian Setzer comes in for the rock & roll, Trombone Shorty for the jazz, Gary U.S. Bonds sings some oldies – all the better to get the party started. Despite its title, Rock 'N' Roll Party skews ever so slightly to the old-fashioned swing and standards that were Paul's specialty and with the notable exception of tightly wound versions of “The Train Kept A Rollin’” and “Twenty Flight Rock,” even the rockers feel closer to jump blues than rockabilly. And that’s fine: a tribute to Les Paul's music shouldn’t be greasy, it should be a jumping, joyous blast of nostalgia, which is precisely what this party is.
~ Stephen Thomas Erlewine, All Music
Jeff Beck - Rock 'n' Roll Party: Honoring Les Paul (2011) {2017, Japanese Edition}


***************

Jeff Beck - Rock 'n' Roll Party: Honoring Les Paul (2011) {2017, Japanese Edition}

Jeff Beck - Rock 'n' Roll Party: Honoring Les Paul (2011) {2017, Japanese Edition}

Track List:

01. Jeff Beck,Darrel Higham / Double Talking Baby [2:08]
02. Jeff Beck,Darrel Higham / Cruisin' [2:14]
03. Jeff Beck,Darrel Higham / The Train Kept A Rollin' [2:36]
04. Jeff Beck,Jason Rebello,Imelda May / Cry Me A River [2:47]
05. Jeff Beck,Imelda May / How High The Moon [2:11]
06. Jeff Beck,Imelda May / I'm Sitting On Top Of The World [2:24]
07. Jeff Beck,Imelda May / Bye Bye Blues [2:12]
08. Jeff Beck,Imelda May / The World Is Waiting For The Sunrise [2:21]
09. Jeff Beck,Imelda May / Vaya Con Dios [2:58]
10. Jeff Beck,Imelda May / Mockin' Bird Hill [2:23]
11. Jeff Beck,Imelda May / I'm A Fool To Care [2:59]
12. Jeff Beck,Imelda May / Tiger Rag [2:23]
13. Jeff Beck,Jason Rebello,Trombone Shorty / Peter Gunn [4:49]
14. Jeff Beck,Jason Rebello,Trombone Shorty,Darrel Higham / Rockin' Is Our Bizness [3:38]
15. Apache [3:07]
16. Sleep Walk [2:51]
17. Jeff Beck,Gary U.S. Bonds / New Orleans [4:35]
18. Jeff Beck,Jason Rebello,Imelda May / (Remember) Walking In The Sand [4:39]
19. Jeff Beck,Imelda May / Please Mr. Jailer [4:54]
20. Jeff Beck,Brian Setzer / Twenty Flight Rock [3:22]
21. Jeff Beck,Bobby Troup / The Girl Can't Help It [3:30]
22. Jeff Beck,Jimmy Deknight,Max Freedman / Rock Around The Clock [2:32]

Exact Audio Copy V1.0 beta 3 from 29. August 2011

EAC extraction logfile from 29. August 2017, 1:25

Jeff Beck / Rock 'n' Roll Party (Honoring Les Paul)

Used drive : PIONEER BD-RW BDR-TD03 Adapter: 0 ID: 1

Read mode : Secure
Utilize accurate stream : Yes
Defeat audio cache : Yes
Make use of C2 pointers : No

Read offset correction : 667
Overread into Lead-In and Lead-Out : No
Fill up missing offset samples with silence : Yes
Delete leading and trailing silent blocks : No
Null samples used in CRC calculations : Yes
Used interface : Native Win32 interface for Win NT & 2000

Used output format : User Defined Encoder
Selected bitrate : 768 kBit/s
Quality : High
Add ID3 tag : No
Command line compressor : C:\Program Files (x86)\Exact Audio Copy\FLAC\FLAC.EXE
Additional command line options : -6 -V -T "ARTIST=%artist%" -T "TITLE=%title%" -T "ALBUM=%albumtitle%" -T "DATE=%year%" -T "TRACKNUMBER=%tracknr%" -T "GENRE=%genre%" -T "COMMENT=%comment%" -T "BAND=%albuminterpret%" -T "ALBUMARTIST=%albuminterpret%" -T "COMPOSER=%composer%" %haslyrics%–tag-from-file=LYRICS="%lyricsfile%"%haslyrics% -T "DISCNUMBER=%cdnumber%" -T "TOTALDISCS=%totalcds%" -T "TOTALTRACKS=%numtracks%" %hascover%–picture="%coverfile%"%hascover% %source% -o %dest%


TOC of the extracted CD

Track | Start | Length | Start sector | End sector
––––––––––––––––––––––––––––-
1 | 0:00.00 | 2:07.74 | 0 | 9598
2 | 2:07.74 | 2:13.49 | 9599 | 19622
3 | 4:21.48 | 2:36.24 | 19623 | 31346
4 | 6:57.72 | 2:46.69 | 31347 | 43865
5 | 9:44.66 | 2:10.57 | 43866 | 53672
6 | 11:55.48 | 2:23.71 | 53673 | 64468
7 | 14:19.44 | 2:12.07 | 64469 | 74375
8 | 16:31.51 | 2:21.22 | 74376 | 84972
9 | 18:52.73 | 2:57.65 | 84973 | 98312
10 | 21:50.63 | 2:23.26 | 98313 | 109063
11 | 24:14.14 | 2:59.28 | 109064 | 122516
12 | 27:13.42 | 2:22.68 | 122517 | 133234
13 | 29:36.35 | 4:49.09 | 133235 | 154918
14 | 34:25.44 | 3:38.19 | 154919 | 171287
15 | 38:03.63 | 3:07.22 | 171288 | 185334
16 | 41:11.10 | 2:50.47 | 185335 | 198131
17 | 44:01.57 | 4:34.64 | 198132 | 218745
18 | 48:36.46 | 4:39.21 | 218746 | 239691
19 | 53:15.67 | 4:54.27 | 239692 | 261768
20 | 58:10.19 | 3:22.34 | 261769 | 276952
21 | 61:32.53 | 3:29.42 | 276953 | 292669
22 | 65:02.20 | 2:32.05 | 292670 | 304074


Range status and errors

Selected range

Filename C:\Users\Deris\Desktop\JeBeR'n'RPar\Jeff Beck - Rock 'n' Roll Party (Honoring Les Paul).wav

Peak level 100.0 %
Extraction speed 5.0 X
Range quality 100.0 %
Test CRC 058F9BE3
Copy CRC 058F9BE3
Copy OK

No errors occurred


AccurateRip summary

Track 1 accurately ripped (confidence 4) [C338574D] (AR v2)
Track 2 accurately ripped (confidence 4) [1056FA4D] (AR v2)
Track 3 accurately ripped (confidence 4) [2880A488] (AR v2)
Track 4 accurately ripped (confidence 4) [F74DD373] (AR v2)
Track 5 accurately ripped (confidence 4) [CA27E832] (AR v2)
Track 6 accurately ripped (confidence 4) [452B114B] (AR v2)
Track 7 accurately ripped (confidence 4) [6641F897] (AR v2)
Track 8 accurately ripped (confidence 4) [28D943FB] (AR v2)
Track 9 accurately ripped (confidence 4) [9BE4B18F] (AR v2)
Track 10 accurately ripped (confidence 4) [039F954B] (AR v2)
Track 11 accurately ripped (confidence 4) [02CE5F3E] (AR v2)
Track 12 accurately ripped (confidence 4) [0EA06228] (AR v2)
Track 13 accurately ripped (confidence 4) [0FCD1F8A] (AR v2)
Track 14 accurately ripped (confidence 4) [C0A7F0B5] (AR v2)
Track 15 accurately ripped (confidence 4) [627F47A5] (AR v2)
Track 16 accurately ripped (confidence 4) [D7B50F80] (AR v2)
Track 17 accurately ripped (confidence 4) [7222A107] (AR v2)
Track 18 accurately ripped (confidence 4) [3A44FE95] (AR v2)
Track 19 accurately ripped (confidence 4) [47D3AD1B] (AR v2)
Track 20 accurately ripped (confidence 4) [9A2F0A19] (AR v2)
Track 21 accurately ripped (confidence 4) [DBF52EF9] (AR v2)
Track 22 accurately ripped (confidence 4) [C450ABA8] (AR v2)

All tracks accurately ripped

End of status report

–– CUETools DB Plugin V2.1.3

[CTDB TOCID: JwVc2e76R4UeaMH9Xiz9chI_4M8-] found, Submit result: JwVc2e76R4UeaMH9Xiz9chI_4M8- has been confirmed
[a961f61d] (16/17) Accurately ripped
[55cf3407] (01/17) No match


==== Log checksum 4BAEA50936485E48B483290A4D9FE84493094143FE773992584DA5BB3DFD1AE2 ====

foobar2000 1.2.6 / Dynamic Range Meter 1.1.1
log date: 2017-09-01 00:32:22

––––––––––––––––––––––––––––––––––––––––
Analyzed: Jeff Beck / Rock 'n' Roll Party (Honoring Les Paul)
––––––––––––––––––––––––––––––––––––––––

DR Peak RMS Duration Track
––––––––––––––––––––––––––––––––––––––––
DR9 0.00 dB -10.39 dB 2:08 01-Jeff Beck,Darrel Higham / Double Talking Baby
DR8 0.00 dB -9.18 dB 2:14 02-Jeff Beck,Darrel Higham / Cruisin'
DR7 0.00 dB -9.05 dB 2:36 03-Jeff Beck,Darrel Higham / The Train Kept A Rollin'
DR12 -0.05 dB -15.58 dB 2:47 04-Jeff Beck,Jason Rebello,Imelda May / Cry Me A River
DR6 0.00 dB -7.53 dB 2:11 05-Jeff Beck,Imelda May / How High The Moon
DR6 0.00 dB -7.63 dB 2:24 06-Jeff Beck,Imelda May / I'm Sitting On Top Of The World
DR6 0.00 dB -7.75 dB 2:12 07-Jeff Beck,Imelda May / Bye Bye Blues
DR7 0.00 dB -8.81 dB 2:21 08-Jeff Beck,Imelda May / The World Is Waiting For The Sunrise
DR12 -0.04 dB -14.85 dB 2:58 09-Jeff Beck,Imelda May / Vaya Con Dios
DR9 0.00 dB -10.35 dB 2:23 10-Jeff Beck,Imelda May / Mockin' Bird Hill
DR12 -0.05 dB -15.20 dB 2:59 11-Jeff Beck,Imelda May / I'm A Fool To Care
DR7 0.00 dB -9.27 dB 2:23 12-Jeff Beck,Imelda May / Tiger Rag
DR8 0.00 dB -8.86 dB 4:49 13-Jeff Beck,Jason Rebello,Trombone Shorty / Peter Gunn
DR7 0.00 dB -8.63 dB 3:38 14-Jeff Beck,Jason Rebello,Trombone Shorty,Darrel Higham / Rockin' Is Our Bizness
DR7 0.00 dB -8.67 dB 3:07 15-Apache
DR8 -0.02 dB -10.90 dB 2:51 16-Sleep Walk
DR8 -0.03 dB -10.25 dB 4:35 17-Jeff Beck,Gary U.S. Bonds / New Orleans
DR7 -0.02 dB -9.27 dB 4:39 18-Jeff Beck,Jason Rebello,Imelda May / (Remember) Walking In The Sand
DR10 0.00 dB -12.93 dB 4:54 19-Jeff Beck,Imelda May / Please Mr. Jailer
DR8 -0.04 dB -9.79 dB 3:22 20-Jeff Beck,Brian Setzer / Twenty Flight Rock
DR8 0.00 dB -8.94 dB 3:30 21-Jeff Beck,Bobby Troup / The Girl Can't Help It
DR8 0.00 dB -9.70 dB 2:32 22-Jeff Beck,Jimmy Deknight,Max Freedman / Rock Around The Clock
––––––––––––––––––––––––––––––––––––––––

Number of tracks: 22
Official DR value: DR8

Samplerate: 44100 Hz
Channels: 2
Bits per sample: 16
Bitrate: 933 kbps
Codec: FLAC
================================================================================

[CUETools log; Date: 01.09.2017 0:32:28; Version: 2.1.5]
[CTDB TOCID: JwVc2e76R4UeaMH9Xiz9chI_4M8-] found.
Track | CTDB Status
1 | (18/18) Accurately ripped
2 | (18/18) Accurately ripped
3 | (17/18) Accurately ripped
4 | (17/18) Accurately ripped
5 | (18/18) Accurately ripped
6 | (18/18) Accurately ripped
7 | (17/18) Accurately ripped
8 | (17/18) Accurately ripped
9 | (18/18) Accurately ripped
10 | (18/18) Accurately ripped
11 | (18/18) Accurately ripped
12 | (18/18) Accurately ripped
13 | (18/18) Accurately ripped
14 | (18/18) Accurately ripped
15 | (18/18) Accurately ripped
16 | (18/18) Accurately ripped
17 | (18/18) Accurately ripped
18 | (18/18) Accurately ripped
19 | (18/18) Accurately ripped
20 | (18/18) Accurately ripped
21 | (18/18) Accurately ripped
22 | (18/18) Accurately ripped
[AccurateRip ID: 00300b5a-031946dd-530fd616] found.
Track [ CRC | V2 ] Status
01 [cce094fa|c338574d] (0+4/4) Accurately ripped
02 [cbf48508|1056fa4d] (0+4/4) Accurately ripped
03 [d4927106|2880a488] (0+4/4) Accurately ripped
04 [f9765f81|f74dd373] (0+4/4) Accurately ripped
05 [98fac1cb|ca27e832] (0+4/4) Accurately ripped
06 [7756e115|452b114b] (0+4/4) Accurately ripped
07 [9bfb5484|6641f897] (0+4/4) Accurately ripped
08 [07203d2b|28d943fb] (0+4/4) Accurately ripped
09 [fb8bbe85|9be4b18f] (0+4/4) Accurately ripped
10 [526e24ee|039f954b] (0+4/4) Accurately ripped
11 [3f010808|02ce5f3e] (0+4/4) Accurately ripped
12 [26e69a4c|0ea06228] (0+4/4) Accurately ripped
13 [0c7d4e84|0fcd1f8a] (0+4/4) Accurately ripped
14 [d616fabb|c0a7f0b5] (0+4/4) Accurately ripped
15 [bd9b9687|627f47a5] (0+4/4) Accurately ripped
16 [453eee71|d7b50f80] (0+4/4) Accurately ripped
17 [e46de000|7222a107] (0+4/4) Accurately ripped
18 [12e8cdd6|3a44fe95] (0+4/4) Accurately ripped
19 [b473edce|47d3ad1b] (0+4/4) Accurately ripped
20 [e99185a7|9a2f0a19] (0+4/4) Accurately ripped
21 [97be8eb8|dbf52ef9] (0+4/4) Accurately ripped
22 [8a5e54e6|c450aba8] (0+4/4) Accurately ripped
Offsetted by -48:
01 [35ee33be] (0/4) No match (V2 was not tested)
02 [80bbcc20] (0/4) No match (V2 was not tested)
03 [538efaa9] (0/4) No match (V2 was not tested)
04 [09654060] (0/4) No match (V2 was not tested)
05 [db1dd5e4] (0/4) No match (V2 was not tested)
06 [48f79c0c] (0/4) No match (V2 was not tested)
07 [df2b5df2] (0/4) No match (V2 was not tested)
08 [d5949c20] (0/4) No match (V2 was not tested)
09 [0e220251] (0/4) No match (V2 was not tested)
10 [3a930ef3] (0/4) No match (V2 was not tested)
11 [51ff6cb6] (0/4) No match (V2 was not tested)
12 [2e196cbd] (0/4) No match (V2 was not tested)
13 [03e57f38] (0/4) No match (V2 was not tested)
14 [e400a8ad] (0/4) No match (V2 was not tested)
15 [e0e251e4] (0/4) No match (V2 was not tested)
16 [de4bda8a] (0/4) No match (V2 was not tested)
17 [70a45728] (0/4) No match (V2 was not tested)
18 [314e7e87] (0/4) No match (V2 was not tested)
19 [d7ff8d85] (0/4) No match (V2 was not tested)
20 [855129b9] (0/4) No match (V2 was not tested)
21 [5d27e41f] (0/4) No match (V2 was not tested)
22 [6c2efdc8] (0/4) No match (V2 was not tested)

Track Peak [ CRC32 ] [W/O NULL] [ LOG ]
– 100,0 [058F9BE3] [A5B0822D] CRC32
01 100,0 [86DF7A22] [EDC9ADC2]
02 100,0 [0FA27848] [CB12AF59]
03 100,0 [A1C26FE1] [4C4579DC]
04 99,4 [307AD9AF] [920BCEA4]
05 100,0 [B4DA2EA1] [50837DC3]
06 100,0 [7C1A0753] [FDBDB74D]
07 100,0 [CC178902] [694A0640]
08 100,0 [B5242087] [3478CEE8]
09 99,5 [80C0AB56] [E79475D1]
10 100,0 [BA9A324B] [4E1BD661]
11 99,4 [BFBAFB31] [F74CECE1]
12 100,0 [B19247E6] [2D6D7499]
13 100,0 [2B5B93E6] [B1591317]
14 100,0 [9FD452BF] [9B13B169]
15 100,0 [562EA72B] [2D13D562]
16 99,7 [53EA13B6] [2BBD0D99]
17 99,7 [38E1C633] [F66F93FE]
18 99,7 [6BE7D046] [2B8D1AD0]
19 100,0 [8856760C] [BE974439]
20 99,5 [C1AB1918] [AB5E699D]
21 100,0 [F8A0D416] [01C09C29]
22 100,0 [7F6129AC] [2328ACBA]

Jeff Beck - Rock 'n' Roll Party: Honoring Les Paul (2011) {2017, Japanese Edition}

All thanks go to Boris1

>>> Jeff Beck in my Blog <<<

Download from icerbox.com: