Tags
Language
Tags

Jeff Beck - Truth & Beck-Ola (1991) {1998, Japanese Reissue}

Posted By: popsakov
Jeff Beck - Truth & Beck-Ola (1991) {1998, Japanese Reissue}

Jeff Beck - Truth & Beck-Ola (1991) {1998, Japanese Reissue}
EAC Rip | FLAC (Img) + Cue + Log ~ 414 Mb | MP3 CBR320 ~ 172 Mb
Full Scans ~ 46 Mb | RAR 5% Recovery
Blues Rock, Psychedelic Rock, Hard Rock | Toshiba-EMI Ltd. #TOCP-3411

Originally issued as two seperate albums, Truth and Beck-Ola are brought together here on one CD. Truth is the debut album by Jeff Beck, released in 1968 in the United Kingdom on Columbia Records and in the United States on Epic Records. It introduced the talents of his backing band The Jeff Beck Group, specifically Rod Stewart and Ronnie Wood, to a larger audience, and peaked at number 15 on the Billboard 200. Beck-Ola is the second album by Jeff Beck, released in 1969 in the United Kingdom on Columbia Records and in the United States on Epic Records. It peaked at No. 15 on the Billboard 200, and at No. 39 on the British album chart. The album’s title puns on the name of the Rock-Ola jukebox company.
Jeff Beck - Truth & Beck-Ola (1991) {1998, Japanese Reissue}


***************

Jeff Beck - Truth & Beck-Ola (1991) {1998, Japanese Reissue}

Jeff Beck - Truth & Beck-Ola (1991) {1998, Japanese Reissue}

Track List:

Truth (1968)
01. Shapes Of Things [03:22]
02. Let Me Love You [04:45]
03. Morning Dew [04:44]
04. You Shook Me [02:34]
05. Ol' Man River [04:02]
06. Greensleeves [01:51]
07. Rock My Plimsoul [04:15]
08. Beck's Bolero [02:56]
09. Blues De Luxe [07:34]
10. I Ain't Superstitious [04:57]
Beck-Ola (1969)
11. All Shook Up [04:52]
12. Spanish Boots [03:36]
13. Girls From Mill Valley [03:48]
14. Jailhouse Rock [03:17]
15. Plynth (Water Down The Drain) [03:08]
16. The Hangman's Knee [04:49]
17. Rice Pudding [07:23]

Exact Audio Copy V1.0 beta 1 from 15. November 2010

EAC extraction logfile from 15. June 2016, 18:00

Jeff Beck / Truth & Beck-Ola

Used drive : MATSHITADVD-RAM UJ8A0AS Adapter: 0 ID: 1

Read mode : Secure
Utilize accurate stream : Yes
Defeat audio cache : Yes
Make use of C2 pointers : No

Read offset correction : 102
Overread into Lead-In and Lead-Out : No
Fill up missing offset samples with silence : Yes
Delete leading and trailing silent blocks : No
Null samples used in CRC calculations : Yes
Used interface : Native Win32 interface for Win NT & 2000

Used output format : Internal WAV Routines
Sample format : 44.100 Hz; 16 Bit; Stereo


TOC of the extracted CD

Track | Start | Length | Start sector | End sector
––––––––––––––––––––––––––––-
1 | 0:00.32 | 3:21.08 | 32 | 15114
2 | 3:21.40 | 4:44.50 | 15115 | 36464
3 | 8:06.15 | 4:43.27 | 36465 | 57716
4 | 12:49.42 | 2:33.08 | 57717 | 69199
5 | 15:22.50 | 4:01.42 | 69200 | 87316
6 | 19:24.17 | 1:50.50 | 87317 | 95616
7 | 21:14.67 | 4:14.53 | 95617 | 114719
8 | 25:29.45 | 2:55.35 | 114720 | 127879
9 | 28:25.05 | 7:33.40 | 127880 | 161894
10 | 35:58.45 | 4:56.42 | 161895 | 184136
11 | 40:55.12 | 4:51.73 | 184137 | 206034
12 | 45:47.10 | 3:35.62 | 206035 | 222221
13 | 49:22.72 | 3:47.28 | 222222 | 239274
14 | 53:10.25 | 3:16.67 | 239275 | 254041
15 | 56:27.17 | 3:07.33 | 254042 | 268099
16 | 59:34.50 | 4:48.37 | 268100 | 289736
17 | 64:23.12 | 7:22.20 | 289737 | 322906


Range status and errors

Selected range

Filename C:\Users\Alex\Music\Alexharvey\Jeff Beck - Truth & Beck-Ola.wav

Peak level 99.6 %
Extraction speed 0.1 X
Range quality 100.0 %
Test CRC 2DAE65D0
Copy CRC 2DAE65D0
Copy OK

No errors occurred


AccurateRip summary

Track 1 cannot be verified as accurate (confidence 3) [B8DAC034], AccurateRip returned [613D4834]
Track 2 cannot be verified as accurate (confidence 3) [F181F052], AccurateRip returned [6F71B352]
Track 3 cannot be verified as accurate (confidence 3) [982126F2], AccurateRip returned [3AEFBFD2]
Track 4 cannot be verified as accurate (confidence 3) [159EE79B], AccurateRip returned [D335185B]
Track 5 cannot be verified as accurate (confidence 3) [3CABD1E0], AccurateRip returned [F580DFA0]
Track 6 cannot be verified as accurate (confidence 3) [80E517BB], AccurateRip returned [DF80C33B]
Track 7 cannot be verified as accurate (confidence 3) [689114FC], AccurateRip returned [F95A9DDC]
Track 8 cannot be verified as accurate (confidence 3) [054B3557], AccurateRip returned [F8F50B77]
Track 9 cannot be verified as accurate (confidence 3) [C71489B4], AccurateRip returned [F893DAD4]
Track 10 cannot be verified as accurate (confidence 3) [AEB8D64D], AccurateRip returned [577647CD]
Track 11 cannot be verified as accurate (confidence 3) [9F488A8B], AccurateRip returned [DECB5AEB]
Track 12 cannot be verified as accurate (confidence 3) [259EE06B], AccurateRip returned [90F7066B]
Track 13 cannot be verified as accurate (confidence 3) [20403667], AccurateRip returned [7C50BA27]
Track 14 cannot be verified as accurate (confidence 3) [B75A5AFC], AccurateRip returned [29E84CFC]
Track 15 cannot be verified as accurate (confidence 3) [3024FFA7], AccurateRip returned [334B87C7]
Track 16 cannot be verified as accurate (confidence 3) [5403A291], AccurateRip returned [60363F31]
Track 17 cannot be verified as accurate (confidence 3) [FFEE592A], AccurateRip returned [D6341ECA]

No tracks could be verified as accurate
You may have a different pressing from the one(s) in the database

End of status report

==== Log checksum D87D082274432AAFCE73410A56E03440FF40C2BCBC8D8A848468F3CDE0EEA328 ====

Jeff Beck - Truth & Beck-Ola (1991) {1998, Japanese Reissue}

All thanks go to Alexharvey

>>> Jeff Beck in my Blog <<<

Download from icerbox.com: