Subcategories

Jeff Liberman Discography (2002-2012)

Posted By: v3122
Jeff Liberman Discography (2002-2012)

Jeff Liberman Discography (2002-2012)
EAC Rip | Flac(Image) + Cue + Log & iPod M4A(Tracks) & MP3 CBR 320Kbps
6CD | JSL Records | ~ 3264 or 3131 or 1188 Mb | Scans Included
Blues-Rock / Jazz-Rock / Blues

As a guitarist, I have been influenced by such greats as; Carlos Santana, Eric Clapton, Albert King, Frank Zappa , Jimmy Hendrix and John Mclaughlin. My goal is to articulate my emotions through the guitar. I surround myself with great musicians and recording engineer. I sincerely appreciate the people that take the time to listen to my music.

~ Jeff Liberman
Jeff Liberman Discography (2002-2012):

Jeff Liberman Discography (2002-2012)

Jeff Liberman Project - Love Is Worth the Blues (2002)
EAC Rip | Flac(Image) + Cue + Log & iPod M4A(Tracks) & MP3 CBR 320Kbps
JSL Records, JSL 2002 2 | ~ 465 or 440 or 136 Mb | Scans Included
Blues-Rock / Jazz-Rock / Blues

Rock/Blues/Jazz Guitar Solos abound in this collection that ranges from progressive rock, blues guitar to classic rock and rockin' blues.

This is my first album since the '70s, when I had written and recorded four vinyl Albums. I like to record a lot of my own work myself, and only when I came upon the "Pro Tools" recording system, did I decide to record my music once again. I love to write, record and produce my work. Working with great musicians is truly a joy and their efforts are what make things happen!
These players are what inspire me to new heights!

~ Jeff Liberman
Tracklist:

01. To Be in Love (4:14)
02. In My Heart (2:57)
03. Vehicle (3:27)
04. Tell Me You Love Me (2:58)
05. Dreamin' (3:22)
06. Way Down Deep (4:57)
07. Stormy Weather (2:12)
08. I Love You (4:26)
09. Sunshine of Your Love (3:53)
10. One More Time (3:45)
11. Your Love (3:28)
12. Love Is Worth the Blues (3:00)
13. After Midnight (4:22)
14. Someone in My Dreams (2:48)
15. The Way I Love You (2:52)
16. Nothin' But the Blues (3:49)

Exact Audio Copy V0.99 prebeta 5 from 4. May 2009

Отчёт EAC об извлечении, выполненном 4. ноября 2012, 10:43

Jeff Liberman Project / Love Is Worth the Blues

Дисковод: PLEXTOR DVDR PX-880SA Adapter: 1 ID: 0

Режим чтения : Достоверность
Использование точного потока : Да
Отключение кэша аудио : Да
Использование указателей C2 : Нет

Коррекция смещения при чтении : 6
Способность читать области Lead-in и Lead-out : Нет
Заполнение пропущенных сэмплов тишиной : Да
Удаление блоков с тишиной в начале и конце : Нет
При вычислениях CRC использовались нулевые сэмплы : Да
Интерфейс : Установленный внешний ASPI-интерфейс

Выходной формат : Пользовательский кодировщик
Выбранный битрейт : 1024 kBit/s
Качество : Высокий
Добавление ID3-тэга : Нет
Утилита сжатия : C:\Program Files\Exact Audio Copy\FLAC\FLAC.EXE
Дополнительные параметры : -10 -V -T "ARTIST=%a" -T "TITLE=%t" -T "ALBUM=%g" -T "DATE=%y" -T "TRACKNUMBER=%n" -T "GENRE=%m" -T "COMMENT=%e" %s -o %d


TOC извлечённого CD

Трек | Старт | Длительность | Начальный сектор | Конечный сектор
––––––––––––––––––––––––––––––––––-
1 | 0:00.00 | 4:14.12 | 0 | 19061
2 | 4:14.12 | 2:57.33 | 19062 | 32369
3 | 7:11.45 | 3:27.52 | 32370 | 47946
4 | 10:39.22 | 2:58.49 | 47947 | 61345
5 | 13:37.71 | 3:22.46 | 61346 | 76541
6 | 17:00.42 | 4:57.44 | 76542 | 98860
7 | 21:58.11 | 2:12.11 | 98861 | 108771
8 | 24:10.22 | 4:26.06 | 108772 | 128727
9 | 28:36.28 | 3:01.59 | 128728 | 142361
10 | 31:38.12 | 3:45.58 | 142362 | 159294
11 | 35:23.70 | 3:45.55 | 159295 | 176224
12 | 39:09.50 | 3:00.48 | 176225 | 189772
13 | 42:10.23 | 4:22.07 | 189773 | 209429
14 | 46:32.30 | 2:48.02 | 209430 | 222031
15 | 49:20.32 | 1:57.05 | 222032 | 230811
16 | 51:17.37 | 3:49.19 | 230812 | 248005


Характеристики диапазона извлечения и сообщения об ошибках

Выбранный диапазон

Имя файла F:\Jeff Liberman (flac)\2002 - Jeff Liberman Project - Love Is Worth the Blues\Jeff Liberman Project - Love Is Worth the Blues.wav

Пиковый уровень 96.6 %
Качество диапазона 100.0 %
CRC теста B6FE28B7
CRC копии B6FE28B7
Копирование… OK

Ошибок не произошло


AccurateRip: сводка

Трек 1 нет в базе данных
Трек 2 нет в базе данных
Трек 3 нет в базе данных
Трек 4 нет в базе данных
Трек 5 нет в базе данных
Трек 6 нет в базе данных
Трек 7 нет в базе данных
Трек 8 нет в базе данных
Трек 9 нет в базе данных
Трек 10 нет в базе данных
Трек 11 нет в базе данных
Трек 12 нет в базе данных
Трек 13 нет в базе данных
Трек 14 нет в базе данных
Трек 15 нет в базе данных
Трек 16 нет в базе данных

Ни одного трека нет в базе AccurateRip

Конец отчёта

foobar2000 1.1.18 / Dynamic Range Meter 1.1.1
log date: 2013-01-25 00:46:56

––––––––––––––––––––––––––––––––––––––––
Analyzed: Jeff Liberman Project / Love Is Worth the Blues
––––––––––––––––––––––––––––––––––––––––

DR Peak RMS Duration Track
––––––––––––––––––––––––––––––––––––––––
DR5 -1.01 dB -8.34 dB 4:14 01-To Be in Love
DR6 -0.30 dB -8.84 dB 2:57 02-In My Heart
DR7 -0.30 dB -8.76 dB 3:28 03-Vehicle
DR6 -0.31 dB -8.16 dB 2:59 04-Tell Me You Love Me
DR7 -0.31 dB -9.84 dB 3:23 05-Dreamin'
DR7 -0.30 dB -9.69 dB 4:58 06-Way Down Deep
DR8 -0.31 dB -8.91 dB 2:12 07-Stormy Weather
DR7 -0.31 dB -9.07 dB 4:26 08-I Love You
DR7 -0.31 dB -8.19 dB 3:02 09-Sunshine of Your Love
DR7 -0.30 dB -9.71 dB 3:46 10-One More Time
DR7 -0.51 dB -8.64 dB 3:46 11-Your Love
DR7 -1.31 dB -9.52 dB 3:01 12-Love Is Worth the Blues
DR6 -0.31 dB -8.16 dB 4:22 13-After Midnight
DR7 -0.30 dB -9.85 dB 2:48 14-Someone in My Dreams
DR6 -0.30 dB -8.09 dB 1:57 15-The Way I Love You
DR5 -0.31 dB -7.94 dB 3:49 16-Nothin' But the Blues
––––––––––––––––––––––––––––––––––––––––

Number of tracks: 16
Official DR value: DR6

Samplerate: 44100 Hz
Channels: 2
Bits per sample: 16
Bitrate: 1008 kbps
Codec: FLAC

===========================

Jeff Liberman Discography (2002-2012)

Jeff Liberman Project - Jazz N' Blues (2003)
EAC Rip | Flac(Image) + Cue + Log & iPod M4A(Tracks) & MP3 CBR 320Kbps
JSL Records, JSL 2003 2 | ~ 579 or 556 or 222 Mb | Scans Included
Blues-Rock / Jazz-Rock / Blues

Eclectic Offering of Rock, Jazz and Blues.

Tracklist:

01. This Is the Moment (4:13)
02. Chameleon (3:2)1
03. Inside (2:59)
04. Awakening (3:48)
05. White Room (4:44)
06. The Blues Over Carmel Bay (3:28)
07. No Safe Harbor (4:13)
08. Dont Leave Me Cold (4:20)
09. Before the Dawn (4:06)
10. The Thrill Is Gone (4:45)
11. Moonlight Dancing in Her Eyes (2:38)
12. Melancholy Me (4:29)
13. It's a "Feel" Thing (4:48)
14. On the Edge (2:11)
15. I Shot the Sheriff (4:38)
16. Political Jam (3:03)
17. Jazz N' Blues (2:51)

Exact Audio Copy V0.99 prebeta 5 from 4. May 2009

Отчёт EAC об извлечении, выполненном 4. ноября 2012, 11:31

Jeff Liberman Project / Jazz N' Blues

Дисковод: PLEXTOR DVDR PX-880SA Adapter: 1 ID: 0

Режим чтения : Достоверность
Использование точного потока : Да
Отключение кэша аудио : Да
Использование указателей C2 : Нет

Коррекция смещения при чтении : 6
Способность читать области Lead-in и Lead-out : Нет
Заполнение пропущенных сэмплов тишиной : Да
Удаление блоков с тишиной в начале и конце : Нет
При вычислениях CRC использовались нулевые сэмплы : Да
Интерфейс : Установленный внешний ASPI-интерфейс

Выходной формат : Пользовательский кодировщик
Выбранный битрейт : 1024 kBit/s
Качество : Высокий
Добавление ID3-тэга : Нет
Утилита сжатия : C:\Program Files\Exact Audio Copy\FLAC\FLAC.EXE
Дополнительные параметры : -10 -V -T "ARTIST=%a" -T "TITLE=%t" -T "ALBUM=%g" -T "DATE=%y" -T "TRACKNUMBER=%n" -T "GENRE=%m" -T "COMMENT=%e" %s -o %d


TOC извлечённого CD

Трек | Старт | Длительность | Начальный сектор | Конечный сектор
––––––––––––––––––––––––––––––––––-
1 | 0:00.00 | 4:13.51 | 0 | 19025
2 | 4:13.51 | 3:21.01 | 19026 | 34101
3 | 7:34.52 | 2:59.51 | 34102 | 47577
4 | 10:34.28 | 3:48.61 | 47578 | 64738
5 | 14:23.14 | 4:44.68 | 64739 | 86106
6 | 19:08.07 | 3:28.19 | 86107 | 101725
7 | 22:36.26 | 4:13.53 | 101726 | 120753
8 | 26:50.04 | 4:20.54 | 120754 | 140307
9 | 31:10.58 | 4:06.23 | 140308 | 158780
10 | 35:17.06 | 4:45.71 | 158781 | 180226
11 | 40:03.02 | 2:38.15 | 180227 | 192091
12 | 42:41.17 | 4:29.64 | 192092 | 212330
13 | 47:11.06 | 4:48.07 | 212331 | 233937
14 | 51:59.13 | 2:11.42 | 233938 | 243804
15 | 54:10.55 | 4:38.74 | 243805 | 264728
16 | 58:49.54 | 3:03.47 | 264729 | 278500
17 | 61:53.26 | 2:51.58 | 278501 | 291383


Характеристики диапазона извлечения и сообщения об ошибках

Выбранный диапазон

Имя файла F:\Jeff Liberman (flac)\2003 - Jeff Liberman Project - Jazz N' Blues\Jeff Liberman Project - Jazz N' Blues.wav

Пиковый уровень 96.6 %
Качество диапазона 99.9 %
CRC теста 266A47CB
CRC копии 266A47CB
Копирование… OK

Ошибок не произошло


AccurateRip: сводка

Трек 1 нет в базе данных
Трек 2 нет в базе данных
Трек 3 нет в базе данных
Трек 4 нет в базе данных
Трек 5 нет в базе данных
Трек 6 нет в базе данных
Трек 7 нет в базе данных
Трек 8 нет в базе данных
Трек 9 нет в базе данных
Трек 10 нет в базе данных
Трек 11 нет в базе данных
Трек 12 нет в базе данных
Трек 13 нет в базе данных
Трек 14 нет в базе данных
Трек 15 нет в базе данных
Трек 16 нет в базе данных
Трек 17 нет в базе данных

Ни одного трека нет в базе AccurateRip

Конец отчёта

foobar2000 1.1.18 / Dynamic Range Meter 1.1.1
log date: 2013-01-25 00:47:27

––––––––––––––––––––––––––––––––––––––––
Analyzed: Jeff Liberman Project / Jazz N' Blues
––––––––––––––––––––––––––––––––––––––––

DR Peak RMS Duration Track
––––––––––––––––––––––––––––––––––––––––
DR6 -0.31 dB -7.15 dB 4:14 01-This Is the Moment
DR7 -0.31 dB -8.65 dB 3:21 02-Chameleon
DR6 -0.31 dB -8.05 dB 3:00 03-Inside
DR6 -0.30 dB -7.74 dB 3:49 04-Awakening
DR6 -0.31 dB -7.61 dB 4:45 05-White Room
DR7 -0.31 dB -8.73 dB 3:28 06-The Blues Over Carmel Bay
DR6 -0.31 dB -7.54 dB 4:14 07-No Safe Harbor
DR6 -0.31 dB -9.59 dB 4:21 08-Dont Leave Me Cold
DR6 -0.31 dB -9.18 dB 4:06 09-Before the Dawn
DR6 -0.31 dB -8.21 dB 4:46 10-The Thrill Is Gone
DR7 -0.30 dB -8.83 dB 2:38 11-Moonlight Dancing in Her Eyes
DR6 -0.31 dB -10.29 dB 4:30 12-Melancholy Me
DR7 -0.31 dB -8.65 dB 4:48 13- It's a 'Feel' Thing
DR7 -0.31 dB -8.53 dB 2:12 14-On the Edge
DR6 -0.31 dB -8.23 dB 4:39 15-I Shot the Sheriff
DR7 -0.30 dB -8.59 dB 3:04 16-Political Jam
DR6 -0.31 dB -7.66 dB 2:52 17-Jazz N' Blues
––––––––––––––––––––––––––––––––––––––––

Number of tracks: 17
Official DR value: DR6

Samplerate: 44100 Hz
Channels: 2
Bits per sample: 16
Bitrate: 1068 kbps
Codec: FLAC

===========================

Jeff Liberman Discography (2002-2012)

Jeff Liberman - Introspection (2008)
EAC Rip | Flac(Image) + Cue + Log & iPod M4A(Tracks) & MP3 CBR 320Kbps
JSL Records | ~ 620 or 587 or 222 Mb | Scans Included
Blues-Rock / Jazz-Rock / Blues

Guitar oriented; Rock, Blues and Jazz.

As a guitarist, I have been influenced by such greats as; Carlos Santana, Eric Clapton, Albert King, Frank Zappa , Jimmy Hendrix and John Mclaughlin. My goal is to articulate my emotions through the guitar. I surround myself with great musicians and recording engineer. I sincerely appreciate the people that take the time to listen to my music.

~ Jeff Liberman
Tracklist:

01. Lose Control (5:12)
02. Fascination With Fire (4:20)
03. A Day In Santa Fe (6:27)
04. Love Flows (6:20)
05. Steppin' Stone (3:58)
06. I Need Your Love (4:56)
07. Reason To Be (3:19)
08. We've Got The Power (2:45)
09. A New Beginning (5:06)
10. In The Moment (4:43)
11. Comin' Down On Me (4:59)
12. Our Love Is Comin' (4:16)
13. A Jones For Hilary (3:35)
14. Places To Go (3:34)
15. Midnight Sky (3:26)
16. Four Shots Of Schnapps (2:10)
17. A Perfect Storm (3:22)
18. Alive (3:47)

Exact Audio Copy V0.99 prebeta 5 from 4. May 2009

Отчёт EAC об извлечении, выполненном 4. ноября 2012, 12:29

Jeff Liberman / Introspection

Дисковод: PLEXTOR DVDR PX-880SA Adapter: 1 ID: 0

Режим чтения : Достоверность
Использование точного потока : Да
Отключение кэша аудио : Да
Использование указателей C2 : Нет

Коррекция смещения при чтении : 6
Способность читать области Lead-in и Lead-out : Нет
Заполнение пропущенных сэмплов тишиной : Да
Удаление блоков с тишиной в начале и конце : Нет
При вычислениях CRC использовались нулевые сэмплы : Да
Интерфейс : Установленный внешний ASPI-интерфейс

Выходной формат : Пользовательский кодировщик
Выбранный битрейт : 1024 kBit/s
Качество : Высокий
Добавление ID3-тэга : Нет
Утилита сжатия : C:\Program Files\Exact Audio Copy\FLAC\FLAC.EXE
Дополнительные параметры : -10 -V -T "ARTIST=%a" -T "TITLE=%t" -T "ALBUM=%g" -T "DATE=%y" -T "TRACKNUMBER=%n" -T "GENRE=%m" -T "COMMENT=%e" %s -o %d


TOC извлечённого CD

Трек | Старт | Длительность | Начальный сектор | Конечный сектор
––––––––––––––––––––––––––––––––––-
1 | 0:00.00 | 5:12.27 | 0 | 23426
2 | 5:12.27 | 4:20.29 | 23427 | 42955
3 | 9:32.56 | 6:27.68 | 42956 | 72048
4 | 16:00.49 | 6:20.21 | 72049 | 100569
5 | 22:20.70 | 3:58.23 | 100570 | 118442
6 | 26:19.18 | 4:56.34 | 118443 | 140676
7 | 31:15.52 | 3:19.46 | 140677 | 155647
8 | 34:35.23 | 2:45.36 | 155648 | 168058
9 | 37:20.59 | 5:06.55 | 168059 | 191063
10 | 42:27.39 | 4:43.32 | 191064 | 212320
11 | 47:10.71 | 4:59.03 | 212321 | 234748
12 | 52:09.74 | 4:16.19 | 234749 | 253967
13 | 56:26.18 | 3:35.03 | 253968 | 270095
14 | 60:01.21 | 3:34.14 | 270096 | 286159
15 | 63:35.35 | 3:26.15 | 286160 | 301624
16 | 67:01.50 | 2:10.38 | 301625 | 311412
17 | 69:12.13 | 3:22.56 | 311413 | 326618
18 | 72:34.69 | 3:47.47 | 326619 | 343690


Характеристики диапазона извлечения и сообщения об ошибках

Выбранный диапазон

Имя файла F:\Jeff Liberman (flac)\2008 - Introspection\Jeff Liberman - Introspection.wav

Пиковый уровень 100.0 %
Качество диапазона 100.0 %
CRC теста 670F9B12
CRC копии 670F9B12
Копирование… OK

Ошибок не произошло


AccurateRip: сводка

Трек 1 нет в базе данных
Трек 2 нет в базе данных
Трек 3 нет в базе данных
Трек 4 нет в базе данных
Трек 5 нет в базе данных
Трек 6 нет в базе данных
Трек 7 нет в базе данных
Трек 8 нет в базе данных
Трек 9 нет в базе данных
Трек 10 нет в базе данных
Трек 11 нет в базе данных
Трек 12 нет в базе данных
Трек 13 нет в базе данных
Трек 14 нет в базе данных
Трек 15 нет в базе данных
Трек 16 нет в базе данных
Трек 17 нет в базе данных
Трек 18 нет в базе данных

Ни одного трека нет в базе AccurateRip

Конец отчёта

foobar2000 1.1.18 / Dynamic Range Meter 1.1.1
log date: 2013-01-25 00:47:56

––––––––––––––––––––––––––––––––––––––––
Analyzed: Jeff Liberman / Introspection
––––––––––––––––––––––––––––––––––––––––

DR Peak RMS Duration Track
––––––––––––––––––––––––––––––––––––––––
DR7 0.00 dB -8.97 dB 5:12 01-Lose Control
DR8 -0.04 dB -9.40 dB 4:20 02-Fascination With Fire
DR7 0.00 dB -7.96 dB 6:28 03-A Day In Santa Fe
DR7 0.00 dB -8.65 dB 6:20 04-Love Flows
DR8 0.00 dB -9.07 dB 3:58 05-Steppin' Stone
DR7 0.00 dB -7.91 dB 4:56 06-I Need Your Love
DR8 0.00 dB -8.72 dB 3:20 07-Reason To Be
DR8 0.00 dB -9.64 dB 2:45 08-We've Got The Power
DR7 0.00 dB -8.98 dB 5:07 09-A New Beginning
DR7 -0.04 dB -9.38 dB 4:43 10-In The Moment
DR7 0.00 dB -7.98 dB 4:59 11-Comin' Down On Me
DR9 0.00 dB -10.96 dB 4:16 12-Our Love Is Comin'
DR10 -0.03 dB -11.86 dB 3:35 13-A Jones For Hilary
DR7 -0.01 dB -9.67 dB 3:34 14-Places To Go
DR7 0.00 dB -8.57 dB 3:26 15-Midnight Sky
DR8 -0.02 dB -10.31 dB 2:11 16-Four Shots Of Schnapps
DR8 0.00 dB -8.90 dB 3:23 17-A Perfect Storm
DR9 0.00 dB -10.85 dB 3:48 18-Alive
––––––––––––––––––––––––––––––––––––––––

Number of tracks: 18
Official DR value: DR8

Samplerate: 44100 Hz
Channels: 2
Bits per sample: 16
Bitrate: 1030 kbps
Codec: FLAC

===========================

Jeff Liberman Discography (2002-2012)

Jeff Liberman - Play Date (2010)
EAC Rip | Flac(Image) + Cue + Log & iPod M4A(Tracks) & MP3 CBR 320Kbps
~ 492 or 492 or 175 Mb | Scans Included
Blues-Rock / Jazz-Rock / Blues

At the age of 13 I heard songs by "Cream" with Eric Clapton and new that I wanted to be able to make those sounds come to life on a guitar. I listened to: Eric Clapton, Carlos Santana, B.B. King, Albert King, Albert Collins and began to develop my own style. I acquired an interest in Jazz, with such influences as; Larry Carlton, John Mclaughlin and Larry Coryell. I would say that I have fused the Blues/Jazz/Rock genres into my own thing. I certainly consider my guitar as a tool by which I can express my emotions and ideas. I enjoy creating music with energy and power while keeping in mind the need for musical

~ Jeff Liberman
Tracklist:

01. When You're Ready For Love (3:34)
02. B 4 U Go (3:17)
03. Slippin' Away (2:56)
04. Poodle X 2 (2:48)
05. Fascination With Fire (4:20)
06. A Sunset Paramour (4:07)
07. Music Takes Me Higher (2:49)
08. Jam (2:25)
09. Evil Woman Blues (3:33)
10. Caught In Transition (2:19)
11. I Need You Now (5:19)
12. Just A Matter of Time (6:38)
13. Night Ja Vu (4:11)
14. 25 Or 6 to 4 (4:47)
15. Culmination (8:21)

Exact Audio Copy V0.99 prebeta 5 from 4. May 2009

Отчёт EAC об извлечении, выполненном 8. ноября 2012, 20:46

Jeff Liberman / Play Date

Дисковод: PLEXTOR DVDR PX-880SA Adapter: 1 ID: 0

Режим чтения : Достоверность
Использование точного потока : Да
Отключение кэша аудио : Да
Использование указателей C2 : Нет

Коррекция смещения при чтении : 6
Способность читать области Lead-in и Lead-out : Нет
Заполнение пропущенных сэмплов тишиной : Да
Удаление блоков с тишиной в начале и конце : Нет
При вычислениях CRC использовались нулевые сэмплы : Да
Интерфейс : Установленный внешний ASPI-интерфейс

Выходной формат : Пользовательский кодировщик
Выбранный битрейт : 1024 kBit/s
Качество : Высокий
Добавление ID3-тэга : Нет
Утилита сжатия : C:\Program Files\Exact Audio Copy\FLAC\FLAC.EXE
Дополнительные параметры : -10 -V -T "ARTIST=%a" -T "TITLE=%t" -T "ALBUM=%g" -T "DATE=%y" -T "TRACKNUMBER=%n" -T "GENRE=%m" -T "COMMENT=%e" %s -o %d


TOC извлечённого CD

Трек | Старт | Длительность | Начальный сектор | Конечный сектор
––––––––––––––––––––––––––––––––––-
1 | 0:00.00 | 3:34.61 | 0 | 16110
2 | 3:34.61 | 3:17.10 | 16111 | 30895
3 | 6:51.71 | 2:56.56 | 30896 | 44151
4 | 9:48.52 | 2:48.37 | 44152 | 56788
5 | 12:37.14 | 4:20.05 | 56789 | 76293
6 | 16:57.19 | 4:07.34 | 76294 | 94852
7 | 21:04.53 | 2:49.27 | 94853 | 107554
8 | 23:54.05 | 2:25.55 | 107555 | 118484
9 | 26:19.60 | 3:33.27 | 118485 | 134486
10 | 29:53.12 | 2:19.34 | 134487 | 144945
11 | 32:12.46 | 5:19.64 | 144946 | 168934
12 | 37:32.35 | 6:38.74 | 168935 | 198858
13 | 44:11.34 | 4:11.37 | 198859 | 217720
14 | 48:22.71 | 4:47.18 | 217721 | 239263
15 | 53:10.14 | 8:21.62 | 239264 | 276900


Характеристики диапазона извлечения и сообщения об ошибках

Выбранный диапазон

Имя файла F:\Jeff Liberman (flac)\2010 - Play Date\Jeff Liberman - Play Date.wav

Пиковый уровень 100.0 %
Качество диапазона 100.0 %
CRC теста 06313A5C
CRC копии 06313A5C
Копирование… OK

Ошибок не произошло


AccurateRip: сводка

Трек 1 нет в базе данных
Трек 2 нет в базе данных
Трек 3 нет в базе данных
Трек 4 нет в базе данных
Трек 5 нет в базе данных
Трек 6 нет в базе данных
Трек 7 нет в базе данных
Трек 8 нет в базе данных
Трек 9 нет в базе данных
Трек 10 нет в базе данных
Трек 11 нет в базе данных
Трек 12 нет в базе данных
Трек 13 нет в базе данных
Трек 14 нет в базе данных
Трек 15 нет в базе данных

Ни одного трека нет в базе AccurateRip

Конец отчёта

foobar2000 1.1.18 / Dynamic Range Meter 1.1.1
log date: 2013-01-25 00:48:22

––––––––––––––––––––––––––––––––––––––––
Analyzed: Jeff Liberman / Play Date
––––––––––––––––––––––––––––––––––––––––

DR Peak RMS Duration Track
––––––––––––––––––––––––––––––––––––––––
DR7 0.00 dB -9.02 dB 3:35 01-When You're Ready For Love
DR7 0.00 dB -8.12 dB 3:17 02-B 4 U Go
DR7 0.00 dB -8.69 dB 2:57 03-Slippin' Away
DR8 0.00 dB -9.73 dB 2:48 04-Poodle X 2
DR7 0.00 dB -8.57 dB 4:20 05-Fascination With Fire
DR7 0.00 dB -9.26 dB 4:07 06-A Sunset Paramour
DR6 0.00 dB -7.75 dB 2:49 07-Music Takes Me Higher
DR7 0.00 dB -8.62 dB 2:26 08-Jam
DR8 -0.50 dB -9.83 dB 3:33 09-Evil Woman Blues
DR8 -0.60 dB -9.51 dB 2:19 10-Caught In Transition
DR7 0.00 dB -9.40 dB 5:20 11-I Need You Now
DR7 0.00 dB -8.42 dB 6:39 12-Just A Matter of Time
DR7 0.00 dB -8.36 dB 4:11 13-Night Ja Vu
DR7 0.00 dB -9.62 dB 4:47 14-25 Or 6 to 4
DR8 0.00 dB -8.88 dB 8:22 15-Culmination
––––––––––––––––––––––––––––––––––––––––

Number of tracks: 15
Official DR value: DR7

Samplerate: 44100 Hz
Channels: 2
Bits per sample: 16
Bitrate: 1020 kbps
Codec: FLAC

===========================

Jeff Liberman Discography (2002-2012)

Jeff Liberman - In the Morning (2011)
EAC Rip | Flac(Image) + Cue + Log & iPod M4A(Tracks) & MP3 CBR 320Kbps
JSL Records, JSL 2005 | ~ 623 or 594 or 219 Mb | Scans Included
Blues-Rock / Jazz-Rock / Blues

Eclectic offering of Rock, Jazz and Blues.

Tracklist:

01. Tonight (3:50)
02. The Two Of Us (5:04)
03. Passion Play (4:08)
04. If You Want Love (3:37)
05. Hold On, I'm Comin' (5:22)
06. Potentialize (3:10)
07. In The Morning (5:02)
08. Satisfy Me (4:07)
09. Vibes I Get From You (3:26)
10. Change Your Life (3:32)
11. I Need You Now (5:20)
12. It's A Funk Thing (3:23)
13. A Time For Reason (5:07)
14. This Fight (5:22)
15. Funk N "a" (4:37)
16. I Can Love You (6:47)
17. Where There's A Will (3:54)
18. Drivin' Blues (3:12)

Exact Audio Copy V0.99 prebeta 5 from 4. May 2009

Отчёт EAC об извлечении, выполненном 7. ноября 2012, 20:45

Jeff Liberman / In the Morning

Дисковод: PLEXTOR DVDR PX-880SA Adapter: 1 ID: 0

Режим чтения : Достоверность
Использование точного потока : Да
Отключение кэша аудио : Да
Использование указателей C2 : Нет

Коррекция смещения при чтении : 6
Способность читать области Lead-in и Lead-out : Нет
Заполнение пропущенных сэмплов тишиной : Да
Удаление блоков с тишиной в начале и конце : Нет
При вычислениях CRC использовались нулевые сэмплы : Да
Интерфейс : Установленный внешний ASPI-интерфейс

Выходной формат : Пользовательский кодировщик
Выбранный битрейт : 1024 kBit/s
Качество : Высокий
Добавление ID3-тэга : Нет
Утилита сжатия : C:\Program Files\Exact Audio Copy\FLAC\FLAC.EXE
Дополнительные параметры : -10 -V -T "ARTIST=%a" -T "TITLE=%t" -T "ALBUM=%g" -T "DATE=%y" -T "TRACKNUMBER=%n" -T "GENRE=%m" -T "COMMENT=%e" %s -o %d


TOC извлечённого CD

Трек | Старт | Длительность | Начальный сектор | Конечный сектор
––––––––––––––––––––––––––––––––––-
1 | 0:00.00 | 3:50.23 | 0 | 17272
2 | 3:50.23 | 5:04.66 | 17273 | 40138
3 | 8:55.14 | 4:08.20 | 40139 | 58758
4 | 13:03.34 | 3:37.64 | 58759 | 75097
5 | 16:41.23 | 5:22.61 | 75098 | 99308
6 | 22:04.09 | 3:10.15 | 99309 | 113573
7 | 25:14.24 | 5:02.17 | 113574 | 136240
8 | 30:16.41 | 4:07.74 | 136241 | 154839
9 | 34:24.40 | 3:26.28 | 154840 | 170317
10 | 37:50.68 | 3:32.33 | 170318 | 186250
11 | 41:23.26 | 5:20.46 | 186251 | 210296
12 | 46:43.72 | 3:23.14 | 210297 | 225535
13 | 50:07.11 | 5:07.59 | 225536 | 248619
14 | 55:14.70 | 5:22.42 | 248620 | 272811
15 | 60:37.37 | 4:37.52 | 272812 | 293638
16 | 65:15.14 | 6:47.51 | 293639 | 324214
17 | 72:02.65 | 3:54.57 | 324215 | 341821
18 | 75:57.47 | 3:12.71 | 341822 | 356292


Характеристики диапазона извлечения и сообщения об ошибках

Выбранный диапазон

Имя файла F:\Jeff Liberman (flac)\2011 - In the Morning\Jeff Liberman - In the Morning.wav

Пиковый уровень 100.0 %
Качество диапазона 100.0 %
CRC теста 0343FE41
CRC копии 0343FE41
Копирование… OK

Ошибок не произошло


AccurateRip: сводка

Трек 1 нет в базе данных
Трек 2 нет в базе данных
Трек 3 нет в базе данных
Трек 4 нет в базе данных
Трек 5 нет в базе данных
Трек 6 нет в базе данных
Трек 7 нет в базе данных
Трек 8 нет в базе данных
Трек 9 нет в базе данных
Трек 10 нет в базе данных
Трек 11 нет в базе данных
Трек 12 нет в базе данных
Трек 13 нет в базе данных
Трек 14 нет в базе данных
Трек 15 нет в базе данных
Трек 16 нет в базе данных
Трек 17 нет в базе данных
Трек 18 нет в базе данных

Ни одного трека нет в базе AccurateRip

Конец отчёта

foobar2000 1.1.18 / Dynamic Range Meter 1.1.1
log date: 2013-01-25 00:48:56

––––––––––––––––––––––––––––––––––––––––
Analyzed: Jeff Liberman / In the Morning
––––––––––––––––––––––––––––––––––––––––

DR Peak RMS Duration Track
––––––––––––––––––––––––––––––––––––––––
DR10 0.00 dB -10.79 dB 3:50 01-Tonight
DR8 0.00 dB -10.14 dB 5:05 02-The Two Of Us
DR11 0.00 dB -11.98 dB 4:08 03-Passion Play
DR11 0.00 dB -12.52 dB 3:38 04-If You Want Love
DR9 0.00 dB -10.78 dB 5:23 05-Hold On, I'm Comin'
DR11 0.00 dB -11.97 dB 3:10 06-Potentialize
DR11 0.00 dB -12.42 dB 5:02 07-In The Morning
DR12 -0.02 dB -13.50 dB 4:08 08-Satisfy Me
DR11 -0.03 dB -12.83 dB 3:26 09-Vibes I Get From You
DR8 0.00 dB -9.59 dB 3:32 10-Change Your Life
DR10 0.00 dB -12.34 dB 5:21 11-I Need You Now
DR10 0.00 dB -12.13 dB 3:23 12-It's A Funk Thing
DR9 0.00 dB -11.14 dB 5:08 13-A Time For Reason
DR8 0.00 dB -9.89 dB 5:23 14-This Fight
DR9 0.00 dB -10.05 dB 4:38 15-Funk N 'a'
DR9 0.00 dB -12.08 dB 6:48 16-I Can Love You
DR10 0.00 dB -11.23 dB 3:55 17-Where There's A Will
DR9 0.00 dB -9.89 dB 3:13 18-Drivin' Blues
––––––––––––––––––––––––––––––––––––––––

Number of tracks: 18
Official DR value: DR10

Samplerate: 44100 Hz
Channels: 2
Bits per sample: 16
Bitrate: 1015 kbps
Codec: FLAC

===========================

Jeff Liberman Discography (2002-2012)

Jeff Liberman - Nothin' But the Blues (2012)
EAC Rip | Flac(Image) + Cue + Log & iPod M4A(Tracks) & MP3 CBR 320Kbps
~ 485 or 462 or 164 Mb | Scans Included
Blues-Rock / Jazz-Rock / Blues

Inspired by Eric Clapton with John Mayall's Blues Band and Gary Moore. I love to create guitar solos that make a statement. Surrounded by great musicians and an experienced recording engineer, I feel that I have been able to Cogently articulate my ideas with this CD.

~ Jeff Liberman
Tracklist:

01. Bringin' This House Down (3:45)
02. Way of the Wind (2:29)
03. I'll Be Your Lovin' Man (4:04)
04. Nothin' But the Blues (3:48)
05. Power Play (4:29)
06. Deep Inside My Soul (5:17)
07. I'm the Man for You (3:37)
08. Steppin' Out (6:00)
09. Percussive Fugue (1:48)
10. Hurdy Gurdy Man (2:40)
11. There's Nobody (4:25)
12. Forever (4:33)
13. Caribbean Sea of Blues (3:57)
14. My '58 Les Paul (3:47)
15. Government Blues (5:21)

Exact Audio Copy V0.99 prebeta 5 from 4. May 2009

Отчёт EAC об извлечении, выполненном 8. ноября 2012, 20:10

Jeff Liberman / Nothin' But the Blues

Дисковод: PLEXTOR DVDR PX-880SA Adapter: 1 ID: 0

Режим чтения : Достоверность
Использование точного потока : Да
Отключение кэша аудио : Да
Использование указателей C2 : Нет

Коррекция смещения при чтении : 6
Способность читать области Lead-in и Lead-out : Нет
Заполнение пропущенных сэмплов тишиной : Да
Удаление блоков с тишиной в начале и конце : Нет
При вычислениях CRC использовались нулевые сэмплы : Да
Интерфейс : Установленный внешний ASPI-интерфейс

Выходной формат : Пользовательский кодировщик
Выбранный битрейт : 1024 kBit/s
Качество : Высокий
Добавление ID3-тэга : Нет
Утилита сжатия : C:\Program Files\Exact Audio Copy\FLAC\FLAC.EXE
Дополнительные параметры : -10 -V -T "ARTIST=%a" -T "TITLE=%t" -T "ALBUM=%g" -T "DATE=%y" -T "TRACKNUMBER=%n" -T "GENRE=%m" -T "COMMENT=%e" %s -o %d


TOC извлечённого CD

Трек | Старт | Длительность | Начальный сектор | Конечный сектор
––––––––––––––––––––––––––––––––––-
1 | 0:00.00 | 3:45.32 | 0 | 16906
2 | 3:45.32 | 2:29.35 | 16907 | 28116
3 | 6:14.67 | 4:04.19 | 28117 | 46435
4 | 10:19.11 | 3:48.13 | 46436 | 63548
5 | 14:07.24 | 4:29.70 | 63549 | 83793
6 | 18:37.19 | 5:17.10 | 83794 | 107578
7 | 23:54.29 | 3:37.25 | 107579 | 123878
8 | 27:31.54 | 6:00.38 | 123879 | 150916
9 | 33:32.17 | 1:48.60 | 150917 | 159076
10 | 35:21.02 | 2:40.19 | 159077 | 171095
11 | 38:01.21 | 4:25.10 | 171096 | 190980
12 | 42:26.31 | 4:33.67 | 190981 | 211522
13 | 47:00.23 | 3:57.47 | 211523 | 229344
14 | 50:57.70 | 3:47.29 | 229345 | 246398
15 | 54:45.24 | 5:21.50 | 246399 | 270523


Характеристики диапазона извлечения и сообщения об ошибках

Выбранный диапазон

Имя файла F:\Jeff Liberman (flac)\2012 - Nothin' But the Blues\Jeff Liberman - Nothin' But the Blues.wav

Пиковый уровень 100.0 %
Качество диапазона 100.0 %
CRC теста F14E28AF
CRC копии F14E28AF
Копирование… OK

Ошибок не произошло


AccurateRip: сводка

Трек 1 нет в базе данных
Трек 2 нет в базе данных
Трек 3 нет в базе данных
Трек 4 нет в базе данных
Трек 5 нет в базе данных
Трек 6 нет в базе данных
Трек 7 нет в базе данных
Трек 8 нет в базе данных
Трек 9 нет в базе данных
Трек 10 нет в базе данных
Трек 11 нет в базе данных
Трек 12 нет в базе данных
Трек 13 нет в базе данных
Трек 14 нет в базе данных
Трек 15 нет в базе данных

Ни одного трека нет в базе AccurateRip

Конец отчёта

foobar2000 1.1.18 / Dynamic Range Meter 1.1.1
log date: 2013-01-25 00:49:21

––––––––––––––––––––––––––––––––––––––––
Analyzed: Jeff Liberman / Nothin' But the Blues
––––––––––––––––––––––––––––––––––––––––

DR Peak RMS Duration Track
––––––––––––––––––––––––––––––––––––––––
DR5 -1.09 dB -6.88 dB 3:45 01-Bringin' This House Down
DR6 0.00 dB -7.63 dB 2:29 02-Way of the Wind
DR8 -0.20 dB -9.93 dB 4:04 03-I'll Be Your Lovin' Man
DR4 0.00 dB -6.47 dB 3:48 04-Nothin' But the Blues
DR6 0.00 dB -7.71 dB 4:30 05-Power Play
DR7 0.00 dB -8.50 dB 5:17 06-Deep Inside My Soul
DR5 -0.10 dB -7.33 dB 3:37 07-I'm the Man for You
DR8 0.00 dB -9.47 dB 6:01 08-Steppin' Out
DR6 0.00 dB -8.92 dB 1:49 09-Percussive Fugue
DR7 0.00 dB -8.78 dB 2:40 10-Hurdy Gurdy Man
DR6 0.00 dB -7.89 dB 4:25 11-There's Nobody
DR7 0.00 dB -8.49 dB 4:34 12-Forever
DR6 0.00 dB -7.57 dB 3:58 13-Caribbean Sea of Blues
DR5 -0.10 dB -6.13 dB 3:47 14-My '58 Les Paul
DR6 0.00 dB -8.61 dB 5:22 15-Government Blues
––––––––––––––––––––––––––––––––––––––––

Number of tracks: 15
Official DR value: DR6

Samplerate: 44100 Hz
Channels: 2
Bits per sample: 16
Bitrate: 1045 kbps
Codec: FLAC

All thanks go to izia1956

Download Jeff Liberman Discography (2002-2012):