Subcategories

Jeff Ray - The Walkup (2003)

Posted By: popsakov
Jeff Ray - The Walkup (2003)

Jeff Ray - The Walkup (2003)
EAC Rip | FLAC (Img) + Cue + Log ~ 399 Mb | MP3 CBR320 ~ 168 Mb
Full Scans | 01:00:40 | RAR 5% Recovery
Fusion, Guitar Jazz | HiPNOTIC Records #HR-10002

Too edgy and artsy for smooth jazz, too rockin' and bluesy for bebop, young Harlem-based electric guitarist Jeff Ray finds a niche playing likeable, melodic, sometimes brooding, often grooving post-millennium fusion. The album title refers in part to the ten-block distance from Ray's apartment to St. Nick's Pub, one of Harlem's best-known jazz nightspots from where the Ohio native may just conquer the jazz world. He's not afraid to stretch out and jam (most tunes run over seven minutes) and he modulates between subdued tones and distorted rock energy frequently. His best attribute, however, is the way he interacts with his band, which includes frenetic drummer Victor Wise and retro keyboard master Aaron Swinn, whose Rhodes solos on tunes like "Streams" are all at once feisty and dream-inducing. Ray mood-swings quickly, from the languid cool of "D.R.A." to the thumpin' hypnosis of "Hot Music," from his laid-back rendition of Roy Ayers' "Everybody Loves the Sunshine" to the wild, bluesy funk of "The Walkup." Influence-wise, one can hear a little Larry Carlton, Kenny Burrell, and John Scofield, but Ray makes a good case for eventually rising above those inspirations and creating a sound all his own.

~ Jonathan Widran, All Music

***************

Jeff Ray - The Walkup (2003)

Jeff Ray - The Walkup (2003)

Track List:

01. Streams [7:32]
02. D.R.A. [6:55]
03. Hot Music [9:35]
04. Everybody Loves the Sunshine [6:21]
05. The Walkup [5:28]
06. Wise Ton J [10:14]
07. Cinnamon Lenses [7:15]
08. Hoodwink [7:20]

Personnel:
Jeff Ray - electric guitar
Aaron Swinn - Hammond B3 organ, Rhodes keyboard
Darryl Hall - electric bass
Victor Wise - drums

Exact Audio Copy V1.3 from 2. September 2016

EAC extraction logfile from 5. November 2019, 23:28

Jeff Ray (3) / The Walkup

Used drive : SlimtypeDVD A DA8A5SH-L Adapter: 1 ID: 0

Read mode : Secure
Utilize accurate stream : Yes
Defeat audio cache : Yes
Make use of C2 pointers : No

Read offset correction : 6
Overread into Lead-In and Lead-Out : No
Fill up missing offset samples with silence : Yes
Delete leading and trailing silent blocks : No
Null samples used in CRC calculations : Yes
Used interface : Native Win32 interface for Win NT & 2000

Used output format : User Defined Encoder
Selected bitrate : 1024 kBit/s
Quality : High
Add ID3 tag : No
Command line compressor : C:\Program Files (x86)\Exact Audio Copy\Flac\flac.exe
Additional command line options : -V -8 %source%


TOC of the extracted CD

Track | Start | Length | Start sector | End sector
––––––––––––––––––––––––––––-
1 | 0:00.00 | 7:32.06 | 0 | 33905
2 | 7:32.06 | 6:54.47 | 33906 | 65002
3 | 14:26.53 | 9:35.23 | 65003 | 108150
4 | 24:02.01 | 6:20.59 | 108151 | 136709
5 | 30:22.60 | 5:27.67 | 136710 | 161301
6 | 35:50.52 | 10:14.23 | 161302 | 207374
7 | 46:05.00 | 7:14.72 | 207375 | 239996
8 | 53:19.72 | 7:19.72 | 239997 | 272993


Range status and errors

Selected range

Filename D:\Music\Jeff Ray (3) - The Walkup\Jeff Ray (3) - The Walkup.wav

Peak level 100.0 %
Extraction speed 4.0 X
Range quality 100.0 %
Copy CRC 6399B3FD
Copy OK

No errors occurred


AccurateRip summary

Track 1 not present in database
Track 2 not present in database
Track 3 not present in database
Track 4 not present in database
Track 5 not present in database
Track 6 not present in database
Track 7 not present in database
Track 8 not present in database

None of the tracks are present in the AccurateRip database

End of status report

–– CUETools DB Plugin V2.1.6

[CTDB TOCID: s6YEpB_lI_X8EO0vUTVuRhIYf5Y-] disk not present in database
Submit result: s6YEpB_lI_X8EO0vUTVuRhIYf5Y- has been uploaded


==== Log checksum 516A356F5183BB694B082E30393C9110E784A2E530AA4F5A5DDEBA19C2BA9A44 ====

Jeff Ray - The Walkup (2003)


All thanks go to lebesta41

>>> My Blog <<<

DOWNLOAD: