Subcategories

Jeff Scott Soto - One Night In Madrid (2009) {2010, Japanese Edition}

Posted By: popsakov
Jeff Scott Soto - One Night In Madrid (2009) {2010, Japanese Edition}

Jeff Scott Soto - One Night In Madrid (2009) {2010, Japanese Edition}
2CD | EAC Rip | FLAC (Img) + Cue + Log ~ 706 Mb | MP3 CBR320 ~ 222 Mb
Full Scans (JPG, 600 dpi) ~ 146 Mb | RAR 5% Recovery
Rock, Hard Rock | Frontiers Records / Happinet / Bickee Music #HMCX-1088/9

2009 two CD live release from the Rock vocalist. Jeff Scott Soto, formerly with Malmsteen, Talisman, Eyes, Soul Sirkus and Journey (and now with Melodic Rock sensations W.E.T,) celebrates the end of his European tour in support of his album Beautiful Mess with a fabulous night in Madrid in front of over 1000 fans. All the major hits of his varied back catalog are included, from solo material to Talisman to tracks from the movie Rock Star. JSS' electrifying performance shows the incredible capacities of this amazing entertainer!

***************

Jeff Scott Soto - One Night In Madrid (2009) {2010, Japanese Edition}

Jeff Scott Soto - One Night In Madrid (2009) {2010, Japanese Edition}

Track List CD1:

01. Intro [1:39]
02. 21st Century [3:26]
03. Colour My XTC [4:56]
04. Soul Divine [4:01]
05. Our Song [4:40]
06. Drowning [4:06]
07. Edu drum solo [0:40]
08. Funky Jam [1:25]
09. Jorge guitar solo [0:21]
10. Mountain [4:27]
11. Eyes Of Love [4:05]
12. Testify [4:35]
13. Band Introductions [1:46]
14. Broken Man [3:42]

Exact Audio Copy V1.0 beta 3 from 29. August 2011

EAC extraction logfile from 5. November 2017, 19:50

Jeff Scott Soto / One Night In Madrid cd1

Used drive : SlimtypeDVD A DS8A5SH Adapter: 0 ID: 0

Read mode : Secure
Utilize accurate stream : Yes
Defeat audio cache : Yes
Make use of C2 pointers : No

Read offset correction : 6
Overread into Lead-In and Lead-Out : No
Fill up missing offset samples with silence : Yes
Delete leading and trailing silent blocks : No
Null samples used in CRC calculations : Yes
Used interface : Installed external ASPI interface

Used output format : User Defined Encoder
Selected bitrate : 320 kBit/s
Quality : High
Add ID3 tag : No
Command line compressor : C:\Program Files (x86)\Exact Audio Copy\Flac\flac.exe
Additional command line options : -V -8 -T "Date=%year%" -T "Genre=%genre%" %source%


TOC of the extracted CD

Track | Start | Length | Start sector | End sector
––––––––––––––––––––––––––––-
1 | 0:00.00 | 1:39.28 | 0 | 7452
2 | 1:39.28 | 3:26.25 | 7453 | 22927
3 | 5:05.53 | 4:56.02 | 22928 | 45129
4 | 10:01.55 | 4:00.70 | 45130 | 63199
5 | 14:02.50 | 4:39.63 | 63200 | 84187
6 | 18:42.38 | 4:05.64 | 84188 | 102626
7 | 22:48.27 | 0:39.73 | 102627 | 105624
8 | 23:28.25 | 1:24.38 | 105625 | 111962
9 | 24:52.63 | 0:21.22 | 111963 | 113559
10 | 25:14.10 | 4:27.05 | 113560 | 133589
11 | 29:41.15 | 4:05.02 | 133590 | 151966
12 | 33:46.17 | 4:35.13 | 151967 | 172604
13 | 38:21.30 | 1:45.43 | 172605 | 180522
14 | 40:06.73 | 3:42.17 | 180523 | 197189


Range status and errors

Selected range

Filename D:\My Music\Jeff Scott Soto - 2009 One Night In Madrid\CD 1\Jeff Scott Soto - One Night In Madrid cd1.wav

Peak level 100.0 %
Extraction speed 1.7 X
Range quality 100.0 %
Test CRC 98C46E0C
Copy CRC 98C46E0C
Copy OK

No errors occurred


AccurateRip summary

Track 1 accurately ripped (confidence 2) [7009289B] (AR v2)
Track 2 accurately ripped (confidence 2) [D7AE2A96] (AR v2)
Track 3 accurately ripped (confidence 2) [70FC460C] (AR v2)
Track 4 accurately ripped (confidence 2) [3F587B2A] (AR v2)
Track 5 accurately ripped (confidence 2) [A1D2FCDD] (AR v2)
Track 6 accurately ripped (confidence 2) [5565C0F7] (AR v2)
Track 7 accurately ripped (confidence 2) [C461B4D2] (AR v2)
Track 8 accurately ripped (confidence 2) [86EAC135] (AR v2)
Track 9 accurately ripped (confidence 2) [E73E6A0A] (AR v2)
Track 10 accurately ripped (confidence 2) [3208CFFA] (AR v2)
Track 11 accurately ripped (confidence 2) [5FB544AA] (AR v2)
Track 12 accurately ripped (confidence 2) [5FE48CD5] (AR v2)
Track 13 accurately ripped (confidence 2) [1A6655BA] (AR v2)
Track 14 accurately ripped (confidence 2) [C03CD0EB] (AR v2)

All tracks accurately ripped

End of status report

==== Log checksum EFD59537FF7510B0F4005278089A0332C6244500446A42E24310D6FA2D41233A ====

foobar2000 1.3.16 / Dynamic Range Meter 1.1.1
log date: 2017-11-13 12:07:06

––––––––––––––––––––––––––––––––––––––––
Analyzed: Jeff Scott Soto / One Night In Madrid cd1
––––––––––––––––––––––––––––––––––––––––

DR Peak RMS Duration Track
––––––––––––––––––––––––––––––––––––––––
DR9 -0.79 dB -12.66 dB 1:39 01-Intro
DR6 0.00 dB -7.49 dB 3:26 02-21st Century
DR6 0.00 dB -7.58 dB 4:56 03-Colour My XTC
DR6 -0.01 dB -7.15 dB 4:01 04-Soul Divine
DR7 0.00 dB -8.23 dB 4:40 05-Our Song
DR6 0.00 dB -6.95 dB 4:06 06-Drowning
DR8 -0.01 dB -8.99 dB 0:40 07-Edu drum solo
DR7 -0.01 dB -9.11 dB 1:25 08-Funky Jam
DR6 -0.40 dB -8.46 dB 0:21 09-Jorge guitar solo
DR7 -0.01 dB -8.02 dB 4:27 10-Mountain
DR6 0.00 dB -7.21 dB 4:05 11-Eyes Of Love
DR6 0.00 dB -7.07 dB 4:35 12-Testify
DR7 -0.01 dB -9.17 dB 1:46 13-Band Introductions
DR7 -0.02 dB -8.03 dB 3:42 14-Broken Man
––––––––––––––––––––––––––––––––––––––––

Number of tracks: 14
Official DR value: DR7

Samplerate: 44100 Hz
Channels: 2
Bits per sample: 16
Bitrate: 1049 kbps
Codec: FLAC
================================================================================

[CUETools log; Date: 13.11.2017 12:07:11; Version: 2.1.5]
[CTDB TOCID: Sv8xWBO94DjIwl0xICE7yYQCUtc-] database access error: В документе XML (1, 1) присутствует ошибка..
[AccurateRip ID: 0016c645-00f14dee-940a450e] found.
Track [ CRC | V2 ] Status
01 [de18660a|7009289b] (0+2/2) Accurately ripped
02 [7c7924e1|d7ae2a96] (0+2/2) Accurately ripped
03 [ee051b26|70fc460c] (0+2/2) Accurately ripped
04 [f8c40804|3f587b2a] (0+2/2) Accurately ripped
05 [969c2595|a1d2fcdd] (0+2/2) Accurately ripped
06 [f524c4ac|5565c0f7] (0+2/2) Accurately ripped
07 [1d864ccd|c461b4d2] (0+2/2) Accurately ripped
08 [a1185f5c|86eac135] (0+2/2) Accurately ripped
09 [871ed571|e73e6a0a] (0+2/2) Accurately ripped
10 [45cb6124|3208cffa] (0+2/2) Accurately ripped
11 [5bf694ea|5fb544aa] (0+2/2) Accurately ripped
12 [7bd1198d|5fe48cd5] (0+2/2) Accurately ripped
13 [338dfcdb|1a6655ba] (0+2/2) Accurately ripped
14 [1eaeae0e|c03cd0eb] (0+2/2) Accurately ripped

Track Peak [ CRC32 ] [W/O NULL] [ LOG ]
– 100,0 [98C46E0C] [255D5C59] CRC32
01 91,3 [17A4C61E] [E666B122]
02 100,0 [3A04DDBC] [EAB3E86E]
03 99,9 [2E4B1869] [C214649A]
04 99,8 [8A18C869] [B899AAD6]
05 99,9 [9DD80B49] [D5D620BF]
06 100,0 [40D483EF] [50B54132]
07 99,9 [BD2D5007] [14360EA6]
08 99,9 [3BE6700B] [C79796C2]
09 95,5 [1D0CBB51] [E1AD9D3E]
10 99,9 [07FDF533] [7A9082E2]
11 99,9 [EA850E46] [A277D631]
12 99,9 [D902C1BC] [C66F7FBC]
13 99,8 [1DD6890C] [530CFABE]
14 99,8 [6D1E5226] [A412A509]

Jeff Scott Soto - One Night In Madrid (2009) {2010, Japanese Edition}

Jeff Scott Soto - One Night In Madrid (2009) {2010, Japanese Edition}

Track List CD2:

01. Hey [3:57]
02. Frozen/Crazy [7:39]
03. Piano Medley [7:35]
04. Gin & Tonic Sky [4:01]
05. JSS/Jorge workshop [2:29]
06. I'll Be Waiting [4:34]
07. Stand Up [5:19]
08. Funky Medley [12:53]

Exact Audio Copy V1.0 beta 3 from 29. August 2011

EAC extraction logfile from 5. November 2017, 20:52

Jeff Scott Soto / One Night In Madrid CD2

Used drive : SlimtypeDVD A DS8A5SH Adapter: 0 ID: 0

Read mode : Secure
Utilize accurate stream : Yes
Defeat audio cache : Yes
Make use of C2 pointers : No

Read offset correction : 6
Overread into Lead-In and Lead-Out : No
Fill up missing offset samples with silence : Yes
Delete leading and trailing silent blocks : No
Null samples used in CRC calculations : Yes
Used interface : Installed external ASPI interface

Used output format : User Defined Encoder
Selected bitrate : 320 kBit/s
Quality : High
Add ID3 tag : No
Command line compressor : C:\Program Files (x86)\Exact Audio Copy\Flac\flac.exe
Additional command line options : -V -8 -T "Date=%year%" -T "Genre=%genre%" %source%


TOC of the extracted CD

Track | Start | Length | Start sector | End sector
––––––––––––––––––––––––––––-
1 | 0:00.00 | 3:56.43 | 0 | 17742
2 | 3:56.43 | 7:39.20 | 17743 | 52187
3 | 11:35.63 | 7:35.25 | 52188 | 86337
4 | 19:11.13 | 4:00.72 | 86338 | 104409
5 | 23:12.10 | 2:28.65 | 104410 | 115574
6 | 25:41.00 | 4:34.05 | 115575 | 136129
7 | 30:15.05 | 5:18.53 | 136130 | 160032
8 | 35:33.58 | 12:52.71 | 160033 | 218003


Range status and errors

Selected range

Filename D:\My Music\Jeff Scott Soto - 2009 One Night In Madrid\CD 2\Jeff Scott Soto - One Night In Madrid CD2.wav

Peak level 100.0 %
Extraction speed 1.7 X
Range quality 100.0 %
Test CRC CE0765BD
Copy CRC CE0765BD
Copy OK

No errors occurred


AccurateRip summary

Track 1 accurately ripped (confidence 2) [F54FF7BB] (AR v2)
Track 2 accurately ripped (confidence 2) [1802FD0F] (AR v2)
Track 3 accurately ripped (confidence 2) [52EE331C] (AR v2)
Track 4 accurately ripped (confidence 2) [E24E1D78] (AR v2)
Track 5 accurately ripped (confidence 2) [9289FD55] (AR v2)
Track 6 accurately ripped (confidence 2) [10C854A0] (AR v2)
Track 7 accurately ripped (confidence 2) [AEFDB1BD] (AR v2)
Track 8 accurately ripped (confidence 2) [632D2B6D] (AR v2)

All tracks accurately ripped

End of status report

==== Log checksum B387C431405DACB880C2D61299445CB86EA3181EE88B59241F9133E659A2AF20 ====

foobar2000 1.3.16 / Dynamic Range Meter 1.1.1
log date: 2017-11-13 12:07:57

––––––––––––––––––––––––––––––––––––––––
Analyzed: Jeff Scott Soto / One Night In Madrid CD2
––––––––––––––––––––––––––––––––––––––––

DR Peak RMS Duration Track
––––––––––––––––––––––––––––––––––––––––
DR6 0.00 dB -7.67 dB 3:57 01-Hey
DR6 -0.01 dB -8.28 dB 7:39 02-Frozen/Crazy
DR8 0.00 dB -9.38 dB 7:35 03-Piano Medley
DR7 -0.01 dB -8.01 dB 4:01 04-Gin & Tonic Sky
DR8 -0.23 dB -9.70 dB 2:29 05-JSS/Jorge workshop
DR7 0.00 dB -8.12 dB 4:34 06-I'll Be Waiting
DR6 0.00 dB -7.77 dB 5:19 07-Stand Up
DR7 0.00 dB -8.21 dB 12:53 08-Funky Medley
––––––––––––––––––––––––––––––––––––––––

Number of tracks: 8
Official DR value: DR7

Samplerate: 44100 Hz
Channels: 2
Bits per sample: 16
Bitrate: 990 kbps
Codec: FLAC
================================================================================

[CUETools log; Date: 13.11.2017 12:07:42; Version: 2.1.5]
[CTDB TOCID: ML_b846EKCdtPAsa3AW3Zkwl6Uo-] database access error: В документе XML (1, 1) присутствует ошибка..
[AccurateRip ID: 000d9635-005ac2d1-690b5a08] found.
Track [ CRC | V2 ] Status
01 [c5b7d074|f54ff7bb] (0+2/2) Accurately ripped
02 [840648df|1802fd0f] (0+2/2) Accurately ripped
03 [4f0e2788|52ee331c] (0+2/2) Accurately ripped
04 [fe3e9cfa|e24e1d78] (0+2/2) Accurately ripped
05 [31aa191e|9289fd55] (0+2/2) Accurately ripped
06 [94e1bf28|10c854a0] (0+2/2) Accurately ripped
07 [a7a094ed|aefdb1bd] (0+2/2) Accurately ripped
08 [db4c80c2|632d2b6d] (0+2/2) Accurately ripped

Track Peak [ CRC32 ] [W/O NULL] [ LOG ]
– 100,0 [CE0765BD] [B0C029A7] CRC32
01 99,9 [CAABC79A] [669626AE]
02 99,9 [87C28C6D] [2637D029]
03 99,9 [9EE19CBF] [C74BF6CA]
04 99,8 [05E18452] [E566E625]
05 97,4 [2335E6C9] [B077932C]
06 99,9 [F3AFE668] [4A98F6E4]
07 100,0 [F2ED639A] [470CCB29]
08 100,0 [25B66DF5] [EC33E3B7]

Personnel:
Jeff Scott Soto - lead vocals
Jorge Salan - leag guitar, vocals
Fernando Mainer - bass
Edu Cominato - drums
BJ - guitars, keyboards, vocals

Jeff Scott Soto - One Night In Madrid (2009) {2010, Japanese Edition}

See also:
Jeff Scott Soto - Lost In The Translation (2004) {Japanese Edition}
Jeff Scott Soto - Beautiful Mess (2009) {Japanese Edition}
Jeff Scott Soto - Retribution (2017) {Japanese Edition}

All thanks go to kolushew

>>> My Blog <<<

Download from icerbox.com: