Subcategories
Tags
Language
Tags

Jeff von der Schmidt, Elissa Johnston, Kathleen Roland - Chinary Ung: Aura, Oracle, Still Life After Death (2007)

Posted By: tirexiss
Jeff von der Schmidt, Elissa Johnston, Kathleen Roland - Chinary Ung: Aura, Oracle, Still Life After Death (2007)

Jeff von der Schmidt, Elissa Johnston, Kathleen Roland - Chinary Ung: Aura, Oracle, Still Life After Death (2007)
EAC FLAC (image+.cue, log) | Covers Included | 01:07:00 | 308 MB
Genre: Classical | Label: Cambria Master Recordings | Catalog: 8854

Cambodian composer Chinary Ung was an extreme disadvantage in terms of his musical background; the only Western instrument he was able to study in his native Cambodia was the E flat clarinet, which he learned well enough to enter the Manhattan School of Music in 1964. Since earning his doctorate in music composition at Columbia in 1974, Ung has largely made his career in the United States as a teacher and, partly owing to that, missed the genocide conducted in his home country, although most of his family was not so fortunate. After taking most of the 1980s off to retrieve what he could of Cambodia's seriously endangered traditional music, Ung returned to the United States, his music and perspective forever changed. Prior to October 2007, Ung's highest profile CD release had been the inclusion of his Inner Voices on an Argo disc conducted by Dennis Russell Davies. Jeff von der Schmidt's expert group Southwest Chamber Music, which has already done so much on behalf of Mexican composer Carlos Chávez, now turn its attention to Ung on the Cambria disc Chinary Ung: Aura, Oracle, Still Life After Death.
In the three works mentioned in the front title, composed between 1995 and 2006, Ung creates a seamless merger between the capabilities of Western instruments, contemporary techniques, and the influence of the traditional music of his homeland. The pieces are highly theatrical, with Still Life After Death described as "a small theater work […] inspired by an ancient Cambodian ritual." Such rituals are closely tied with Buddhism; Aura utilizes two sopranos, singing high-flying passages in Pali and Khmer, floating over a chamber orchestra in which nearly everyone is required to play additional percussion instruments, including bowed crotales, little cymbals common to the ancient world. Current events figure into Ung's texts and music as well; a portion of Aura is a commemoration of the devastation left by Hurricane Katrina, whereas the oracles consulted by the Dalai Lama before his final departure from Tibet is a significant element in the second work, Oracle.
In preparation for his work with Ung, Jeff von der Schmidt himself traveled to Cambodia and Vietnam and toured Angkor Wat; Southwest Chamber Music was the first professional ensemble to perform Ung's music in Cambodia for Cambodians. Its polished, dedicated performances here well-represent Ung's music, and as with the Chávez issues, Cambria's recording here is top quality. There is every reason to support Cambodian culture; at least 3,000 years old, Pol Pot and the Khmer Rouge nearly wiped it off the face of the earth. Nevertheless, that is not the only reason to listen to the music of Chinary Ung; he is an excellent, visionary composer, and his work speaks eloquently about his people and the need to rebuild.

Jeff von der Schmidt, Elissa Johnston, Kathleen Roland - Chinary Ung: Aura, Oracle, Still Life After Death (2007)

Track List:

01-08. Aura

Elissa Johnston, soprano
Kathleen Roland, soprano
Lawrence Kaplan, piccolo & alto flutes
Paul Sherman, oboe & English horn
Jim Foschia, clarinet & bass clarinet
Lynn Vartan, percussion
Lorenz Gamma, violin
Lisa Dondlinger, violin
Jan Karlin, viola
Susan Ung, viola
Peter Jacobson, cello
Tom Peters, double bass
Jeff von der Schmidt, conductor

09-11. Oracle

Lawrence Kaplan, piccolo & alto flutes
Jim Foschia, clarinet & bass clarinet
Lisa Dondlinger, violin
Peter Jacobson, cello
Lynn Vartan, percussion
Tom Peters, voice
Jeff von der Schmidt, conductor

12. Still Life After Death

Kathleen Roland, soprano
Chinary Ung, bass
Lawrence Kaplan, flute
Jim Foschia, clarinet
Lisa Dondlinger, violin
Peter Jacobson, cello
Ming Tsu, piano
Lynn Vartan, percussion
Jeff von der Schmidt, conductor

Exact Audio Copy V1.0 beta 1 from 15. November 2010

EAC extraction logfile from 6. July 2013, 13:55

Chinary Ung / Aura, Oracle, Still Life After Death

Used drive : Optiarc DVD RW AD-7203A Adapter: 4 ID: 1

Read mode : Secure
Utilize accurate stream : Yes
Defeat audio cache : Yes
Make use of C2 pointers : No

Read offset correction : 48
Overread into Lead-In and Lead-Out : No
Fill up missing offset samples with silence : Yes
Delete leading and trailing silent blocks : No
Null samples used in CRC calculations : Yes
Used interface : Native Win32 interface for Win NT & 2000

Used output format : User Defined Encoder
Selected bitrate : 128 kBit/s
Quality : High
Add ID3 tag : No
Command line compressor : C:\Program Files\FLAC\flac.exe
Additional command line options : -T "COMMENT=Ripped by GFox" -8 -V %s


TOC of the extracted CD

Track | Start | Length | Start sector | End sector
––––––––––––––––––––––––––––-
1 | 0:00.00 | 3:56.26 | 0 | 17725
2 | 3:56.26 | 7:33.70 | 17726 | 51770
3 | 11:30.21 | 5:54.59 | 51771 | 78379
4 | 17:25.05 | 2:55.06 | 78380 | 91510
5 | 20:20.11 | 8:27.67 | 91511 | 129602
6 | 28:48.03 | 1:03.51 | 129603 | 134378
7 | 29:51.54 | 10:08.19 | 134379 | 179997
8 | 39:59.73 | 2:29.32 | 179998 | 191204
9 | 42:29.30 | 5:32.12 | 191205 | 216116
10 | 48:01.42 | 4:38.51 | 216117 | 237017
11 | 52:40.18 | 5:09.20 | 237018 | 260212
12 | 57:49.38 | 9:11.19 | 260213 | 301556


Range status and errors

Selected range

Filename D:\EAC\Chinary Ung - Aura, Oracle, Still Life After Death.wav

Peak level 100.0 %
Extraction speed 0.4 X
Range quality 100.0 %
Test CRC 99DF6129
Copy CRC 99DF6129
Copy OK

No errors occurred


AccurateRip summary

Track 1 not present in database
Track 2 not present in database
Track 3 not present in database
Track 4 not present in database
Track 5 not present in database
Track 6 not present in database
Track 7 not present in database
Track 8 not present in database
Track 9 not present in database
Track 10 not present in database
Track 11 not present in database
Track 12 not present in database

None of the tracks are present in the AccurateRip database

End of status report

==== Log checksum 31FBB8912755D2B285EFF8333521E400C50ADCB04E4C1C888DC0CDD76A40F882 ====

[CUETools log; Date: 28.04.2018 17:25:25; Version: 2.1.5]
[CTDB TOCID: A7qhmoXVgTh0R0TkHsyMKBe2l.s-] disk not present in database.
[AccurateRip ID: 001cd4c6-010d598a-960fb40c] found.
Track [ CRC | V2 ] Status
01 [82d15f26|5e86eb00] (0+1/1) Accurately ripped
02 [15d449cf|ecce00c1] (0+1/1) Accurately ripped
03 [f3ed785f|ee07d62c] (0+1/1) Accurately ripped
04 [c712c864|91550246] (0+1/1) Accurately ripped
05 [d9b85e15|093a13d6] (0+1/1) Accurately ripped
06 [d563b58c|2381e9b9] (0+1/1) Accurately ripped
07 [ef959d3f|9656e1ff] (0+1/1) Accurately ripped
08 [d14f9bf3|8bf26aa5] (0+1/1) Accurately ripped
09 [ffa1f031|2516e79c] (0+1/1) Accurately ripped
10 [d4a6f3c6|8717b7cb] (0+1/1) Accurately ripped
11 [9c6d2fa6|8dd6daa4] (0+1/1) Accurately ripped
12 [e18a85e9|9d7e7d22] (0+1/1) Accurately ripped

Track Peak [ CRC32 ] [W/O NULL] [ LOG ]
– 100,0 [99DF6129] [76F5E31D] CRC32
01 96,2 [DB070D67] [E6015D17]
02 92,8 [E5F8C469] [77D819EC]
03 58,6 [8988FA61] [835B9304]
04 75,1 [7F3501C5] [4649627F]
05 100,0 [6A8A505C] [317F847B]
06 11,9 [3FC29C85] [B602D7CD]
07 85,8 [893CD1E9] [5264777E]
08 100,0 [6CE154C2] [CB236791]
09 63,6 [00FBE05F] [01A4DCE6]
10 94,2 [8125187B] [ED4CDB10]
11 35,6 [03753268] [71336E21]
12 93,7 [EA13A924] [553A6F49]

Thanks to the Original ripper GFox!

Download: