Subcategories

Jeff Lorber - The Jeff Lorber Fusion (1977) {WOU}

Posted By: tiburon
Jeff Lorber - The Jeff Lorber Fusion (1977) {WOU}

Jeff Lorber - The Jeff Lorber Fusion (1977) {WOU}
EAC 1.3 | FLAC tracks level 8 | Cue+Log+M3U | Full Scans 400dpi | 335MB + 5% Recovery
MP3 CBR 320 Kbps | 137MB + 5% Recovery
Genre: Fusion, Smooth Jazz
Jeff Lorber - The Jeff Lorber Fusion (1977) {WOU}

The Jeff Lorber Fusion is the debut album by keyboardist Jeff Lorber as leader of his band "The Jeff Lorber Fusion". Instrumental light jazz set that introduced Lorber as a leader and also featured contributions from a then unknown vocalist who went on to achieve Urban Contemporary success in her own right–Karyn White.
Track List
01. Funky Gospel
02. Glisten
03. Deva Samba
04. Refunk
05. Terry’s Lament
06. Lift Off
07. Chinese Medicinal Herbs
08. Water Music
09. River Winds
10. Cousin Stu
11. Poppin’

musicians
Jeff Lorber - Keyboards
Lester McFarland - Bass
Terry Layne - Saxaphones & Flute
Dennis Bradford - Drums
Ron Young - Percussion
Jeff Uuaitelo - Trombone
Tod Carver - Guitar
Bruce Smith - Percussion

Produced by Jeff Lorber and Harry Callow


Exact Audio Copy V1.3 from 2. September 2016

EAC extraction logfile from 19. May 2017, 16:55

The Jeff Lorber Fusion / The Jeff Lorber Fusion

Used drive : ATAPI eHBU212 2 Adapter: 1 ID: 1

Read mode : Secure
Utilize accurate stream : Yes
Defeat audio cache : Yes
Make use of C2 pointers : No

Read offset correction : 6
Overread into Lead-In and Lead-Out : No
Fill up missing offset samples with silence : Yes
Delete leading and trailing silent blocks : No
Null samples used in CRC calculations : Yes
Used interface : Native Win32 interface for Win NT & 2000
Gap handling : Appended to previous track

Used output format : User Defined Encoder
Selected bitrate : 128 kBit/s
Quality : High
Add ID3 tag : No
Command line compressor : C:\Program Files (x86)\Exact Audio Copy\Flac\flac.exe
Additional command line options : -8 -V -T "ARTIST=%artist%" -T "TITLE=%title%" -T "ALBUM=%albumtitle%" -T "DATE=%year%" -T "TRACKNUMBER=%tracknr%" -T "TOTALTRACKS=%numtracks%" -T "GENRE=%genre%" -T "ALBUMARTIST=%albumartist%" -T "ALBUM ARTIST=%albumartist%" -T "COMMENT=EAC Secure Mode, Test & Copy, AccurateRip, FLAC -8" %source%


TOC of the extracted CD

Track | Start | Length | Start sector | End sector
––––––––––––––––––––––––––––-
1 | 0:00.00 | 5:39.42 | 0 | 25466
2 | 5:39.42 | 6:02.53 | 25467 | 52669
3 | 11:42.20 | 4:29.58 | 52670 | 72902
4 | 16:12.03 | 1:55.73 | 72903 | 81600
5 | 18:08.01 | 6:15.11 | 81601 | 109736
6 | 24:23.12 | 3:10.36 | 109737 | 124022
7 | 27:33.48 | 5:05.24 | 124023 | 146921
8 | 32:38.72 | 4:09.63 | 146922 | 165659
9 | 36:48.60 | 4:22.44 | 165660 | 185353
10 | 41:11.29 | 5:47.73 | 185354 | 211451
11 | 46:59.27 | 4:16.72 | 211452 | 230723


Track 1

Filename G:\Music Place\FLAC & WAV\THE JEFF LORBER FUSION\The Jeff Lorber Fusion - The Jeff Lorber Fusion (1977)[FLAC](WBR 2008)\01 - Funky Gospel.wav

Pre-gap length 0:00:02.00

Peak level 97.2 %
Extraction speed 5.2 X
Track quality 100.0 %
Test CRC 9919A0E3
Copy CRC 9919A0E3
Accurately ripped (confidence 6) [F56779CE] (AR v2)
Copy OK

Track 2

Filename G:\Music Place\FLAC & WAV\THE JEFF LORBER FUSION\The Jeff Lorber Fusion - The Jeff Lorber Fusion (1977)[FLAC](WBR 2008)\02 - Glisten.wav

Peak level 97.2 %
Extraction speed 6.0 X
Track quality 100.0 %
Test CRC AD6786A1
Copy CRC AD6786A1
Accurately ripped (confidence 6) [846E6CCD] (AR v2)
Copy OK

Track 3

Filename G:\Music Place\FLAC & WAV\THE JEFF LORBER FUSION\The Jeff Lorber Fusion - The Jeff Lorber Fusion (1977)[FLAC](WBR 2008)\03 - Deva Samba.wav

Peak level 97.2 %
Extraction speed 6.3 X
Track quality 100.0 %
Test CRC 97967B6F
Copy CRC 97967B6F
Accurately ripped (confidence 6) [4E32FD4F] (AR v2)
Copy OK

Track 4

Filename G:\Music Place\FLAC & WAV\THE JEFF LORBER FUSION\The Jeff Lorber Fusion - The Jeff Lorber Fusion (1977)[FLAC](WBR 2008)\04 - Refunk.wav

Peak level 97.2 %
Extraction speed 5.9 X
Track quality 100.0 %
Test CRC 408A0B53
Copy CRC 408A0B53
Accurately ripped (confidence 6) [75686084] (AR v2)
Copy OK

Track 5

Filename G:\Music Place\FLAC & WAV\THE JEFF LORBER FUSION\The Jeff Lorber Fusion - The Jeff Lorber Fusion (1977)[FLAC](WBR 2008)\05 - Terry's Lament.wav

Peak level 97.2 %
Extraction speed 6.6 X
Track quality 99.9 %
Test CRC A2049E93
Copy CRC A2049E93
Accurately ripped (confidence 6) [8999BCCC] (AR v2)
Copy OK

Track 6

Filename G:\Music Place\FLAC & WAV\THE JEFF LORBER FUSION\The Jeff Lorber Fusion - The Jeff Lorber Fusion (1977)[FLAC](WBR 2008)\06 - Lift Off.wav

Peak level 97.2 %
Extraction speed 7.3 X
Track quality 100.0 %
Test CRC 4185B537
Copy CRC 4185B537
Accurately ripped (confidence 6) [A45849A0] (AR v2)
Copy OK

Track 7

Filename G:\Music Place\FLAC & WAV\THE JEFF LORBER FUSION\The Jeff Lorber Fusion - The Jeff Lorber Fusion (1977)[FLAC](WBR 2008)\07 - Chinese Medicinal Herbs.wav

Peak level 97.2 %
Extraction speed 8.1 X
Track quality 100.0 %
Test CRC 9260BAA0
Copy CRC 9260BAA0
Accurately ripped (confidence 6) [F1D3FFBB] (AR v2)
Copy OK

Track 8

Filename G:\Music Place\FLAC & WAV\THE JEFF LORBER FUSION\The Jeff Lorber Fusion - The Jeff Lorber Fusion (1977)[FLAC](WBR 2008)\08 - Water Music.wav

Peak level 97.2 %
Extraction speed 8.2 X
Track quality 100.0 %
Test CRC 5F0A4829
Copy CRC 5F0A4829
Accurately ripped (confidence 6) [757A9A02] (AR v2)
Copy OK

Track 9

Filename G:\Music Place\FLAC & WAV\THE JEFF LORBER FUSION\The Jeff Lorber Fusion - The Jeff Lorber Fusion (1977)[FLAC](WBR 2008)\09 - River Winds.wav

Peak level 97.2 %
Extraction speed 7.2 X
Track quality 99.9 %
Test CRC EFECD4AD
Copy CRC EFECD4AD
Accurately ripped (confidence 6) [902D1371] (AR v2)
Copy OK

Track 10

Filename G:\Music Place\FLAC & WAV\THE JEFF LORBER FUSION\The Jeff Lorber Fusion - The Jeff Lorber Fusion (1977)[FLAC](WBR 2008)\10 - Cousin Stu.wav

Peak level 97.2 %
Extraction speed 8.9 X
Track quality 100.0 %
Test CRC C8505DB0
Copy CRC C8505DB0
Accurately ripped (confidence 6) [AF443801] (AR v2)
Copy OK

Track 11

Filename G:\Music Place\FLAC & WAV\THE JEFF LORBER FUSION\The Jeff Lorber Fusion - The Jeff Lorber Fusion (1977)[FLAC](WBR 2008)\11 - Poppin'.wav

Peak level 97.2 %
Extraction speed 7.6 X
Track quality 99.9 %
Test CRC AC85CC68
Copy CRC AC85CC68
Accurately ripped (confidence 6) [B8F112A3] (AR v2)
Copy OK


All tracks accurately ripped

No errors occurred

End of status report

–– CUETools DB Plugin V2.1.6

[CTDB TOCID: PlSO2DG61HQeenlh7EjJ0bEPhPc-] found
Submit result: PlSO2DG61HQeenlh7EjJ0bEPhPc- has been confirmed
Track | CTDB Status
1 | (2/2) Accurately ripped
2 | (2/2) Accurately ripped
3 | (2/2) Accurately ripped
4 | (2/2) Accurately ripped
5 | (2/2) Accurately ripped
6 | (2/2) Accurately ripped
7 | (2/2) Accurately ripped
8 | (2/2) Accurately ripped
9 | (2/2) Accurately ripped
10 | (2/2) Accurately ripped
11 | (2/2) Accurately ripped


==== Log checksum 2AF2F398B057F970542DD600D9448B82D336204D12A55D7AC27BAE47E05EB07E ====

Jeff Lorber - The Jeff Lorber Fusion (1977) {WOU}
Jeff Lorber - The Jeff Lorber Fusion (1977) {WOU}


Thanks to the original ripper