Subcategories

Jeff Parker - The Relatives (2005)

Posted By: tiburon
Jeff Parker - The Relatives (2005)

Jeff Parker - The Relatives (2005)
EAC 1.0b3 | FLAC tracks level 8 | Cue+Log+M3U | Full Scans 300dpi | 272MB + 5% Recovery
Genre: Jazz, Post-Bop, Fusion
Jeff Parker - The Relatives (2005)

Jeff Parker's second session as a leader, The Relatives, surprises by taking easygoing mainstream flavors and, stirring with spice, manages to honor the forms while tweaking them. Parker's regular rhythm section, Chris Lopes on bass and NY-Chicago drum machine Chad Taylor on percussion, keep the momentum crisp. Parker's earnest and deliberate delivery plays off space, often adding the right pinch of Grant Green.
Track List
01. Istanbul 3:25
02. Mannerisms 6:06
03. Sea Change 3:31
04. When Did You Stop Loving Me, When Did I Stop Loving You 6:26
05. Beanstalk 3:26
06. The Relative 5:55
07. Toy Boat 5:00
08. Rang 6:58

musicians
Jeff Parker - electric guitars
Sam Barsheshed - Fender Rhodes and Wurlitzer electric pianos
Chris Lopes - acoustic bass, electric and acoustic guitars, C flute, percussion
Chad Taylor - drums, percussion


Exact Audio Copy V1.0 beta 3 from 29. August 2011

EAC extraction logfile from 19. February 2013, 15:47

Jeff Parker / The Relatives

Used drive : HL-DT-STDVDRAM GH20NS10 Adapter: 2 ID: 1

Read mode : Secure
Utilize accurate stream : Yes
Defeat audio cache : Yes
Make use of C2 pointers : No

Read offset correction : 667
Overread into Lead-In and Lead-Out : No
Fill up missing offset samples with silence : Yes
Delete leading and trailing silent blocks : No
Null samples used in CRC calculations : Yes
Used interface : Native Win32 interface for Win NT & 2000
Gap handling : Appended to previous track

Used output format : User Defined Encoder
Selected bitrate : 1024 kBit/s
Quality : High
Add ID3 tag : No
Command line compressor : C:\Program Files\Exact Audio Copy\Flac\flac.exe
Additional command line options : -8 -V -T "ARTIST=%artist%" -T "TITLE=%title%" -T "ALBUM=%albumtitle%" -T "DATE=%year%" -T "TRACKNUMBER=%tracknr%" -T "TOTALTRACKS=%numtracks%" -T "GENRE=%genre%" -T "ALBUMARTIST=%albumartist%" -T "ALBUM ARTIST=%albumartist%" -T "COMMENT=EAC Secure Mode, Test & Copy, AccurateRip, FLAC -8" %source%


TOC of the extracted CD

Track | Start | Length | Start sector | End sector
––––––––––––––––––––––––––––-
1 | 0:00.00 | 3:25.50 | 0 | 15424
2 | 3:25.50 | 6:06.30 | 15425 | 42904
3 | 9:32.05 | 3:31.10 | 42905 | 58739
4 | 13:03.15 | 6:26.45 | 58740 | 87734
5 | 19:29.60 | 3:26.05 | 87735 | 103189
6 | 22:55.65 | 5:55.67 | 103190 | 129881
7 | 28:51.57 | 5:00.50 | 129882 | 152431
8 | 33:52.32 | 6:58.10 | 152432 | 183791


Track 1

Filename D:\Jeff Parker - The Relatives (2005) [FLAC]\01 - Istanbul.wav

Pre-gap length 0:00:02.00

Peak level 99.0 %
Extraction speed 4.5 X
Track quality 100.0 %
Test CRC 224287D3
Copy CRC 224287D3
Accurately ripped (confidence 3) [5C90B58E] (AR v1)
Copy OK

Track 2

Filename D:\Jeff Parker - The Relatives (2005) [FLAC]\02 - Mannerisms.wav

Pre-gap length 0:00:03.00

Peak level 99.2 %
Extraction speed 5.3 X
Track quality 100.0 %
Test CRC 1E53D2DC
Copy CRC 1E53D2DC
Accurately ripped (confidence 3) [7558D6B2] (AR v1)
Copy OK

Track 3

Filename D:\Jeff Parker - The Relatives (2005) [FLAC]\03 - Sea Change.wav

Pre-gap length 0:00:02.23

Peak level 95.7 %
Extraction speed 4.4 X
Track quality 99.9 %
Test CRC 8522F0CE
Copy CRC 8522F0CE
Accurately ripped (confidence 3) [40863590] (AR v1)
Copy OK

Track 4

Filename D:\Jeff Parker - The Relatives (2005) [FLAC]\04 - When Did You Stop Loving Me, When Did I Stop Loving You.wav

Pre-gap length 0:00:03.30

Peak level 99.1 %
Extraction speed 6.3 X
Track quality 100.0 %
Test CRC CFE53227
Copy CRC CFE53227
Accurately ripped (confidence 3) [A2964174] (AR v1)
Copy OK

Track 5

Filename D:\Jeff Parker - The Relatives (2005) [FLAC]\05 - Beanstalk.wav

Pre-gap length 0:00:01.73

Peak level 98.9 %
Extraction speed 6.0 X
Track quality 100.0 %
Test CRC 6129E0E8
Copy CRC 6129E0E8
Accurately ripped (confidence 2) [FF9A00E6] (AR v1)
Copy OK

Track 6

Filename D:\Jeff Parker - The Relatives (2005) [FLAC]\06 - The Relative.wav

Pre-gap length 0:00:03.70

Peak level 99.0 %
Extraction speed 5.1 X
Track quality 99.9 %
Test CRC 9F54A953
Copy CRC 9F54A953
Accurately ripped (confidence 3) [A595D2CF] (AR v1)
Copy OK

Track 7

Filename D:\Jeff Parker - The Relatives (2005) [FLAC]\07 - Toy Boat.wav

Peak level 99.0 %
Extraction speed 5.9 X
Track quality 100.0 %
Test CRC 4AFFB771
Copy CRC 4AFFB771
Accurately ripped (confidence 3) [16B9FBAE] (AR v1)
Copy OK

Track 8

Filename D:\Jeff Parker - The Relatives (2005) [FLAC]\08 - Rang.wav

Pre-gap length 0:00:03.17

Peak level 99.0 %
Extraction speed 6.5 X
Track quality 100.0 %
Test CRC EBCE3CA7
Copy CRC EBCE3CA7
Accurately ripped (confidence 2) [A1EFC555] (AR v1)
Copy OK


All tracks accurately ripped

No errors occurred

End of status report

==== Log checksum A4CA88C71A79BA5C9BB57D31DD3D24C11E25170077F95DB05B044C9C97642C47 ====


––––––––––––––––––––––––––––––––––––––––
Analyzed: Jeff Parker / The Relatives
––––––––––––––––––––––––––––––––––––––––

DR Peak RMS Duration Track
––––––––––––––––––––––––––––––––––––––––
DR7 -0.08 dB -11.04 dB 3:26 01-Istanbul
DR7 -0.06 dB -7.72 dB 6:06 02-Mannerisms
DR7 -0.38 dB -8.76 dB 3:31 03-Sea Change
DR6 -0.07 dB -8.68 dB 6:27 04-When Did You Stop Loving Me, When Did I Stop Loving You
DR7 -0.09 dB -8.53 dB 3:26 05-Beanstalk
DR10 -0.09 dB -11.53 dB 5:56 06-The Relative
DR6 -0.09 dB -7.46 dB 5:01 07-Toy Boat
DR6 -0.08 dB -7.44 dB 6:58 08-Rang
––––––––––––––––––––––––––––––––––––––––

Number of tracks: 8
Official DR value: DR7

Samplerate: 44100 Hz
Channels: 2
Bits per sample: 16
Bitrate: 924 kbps
Codec: FLAC
================================================================================

Jeff Parker - The Relatives (2005)
Jeff Parker - The Relatives (2005)
Jeff Parker - The Relatives (2005)


Rip by tiburon