Subcategories

Jeff Parker Trio - Bright Light In Winter (2012)

Posted By: tiburon
Jeff Parker Trio - Bright Light In Winter (2012)

Jeff Parker Trio - Bright Light In Winter (2012)
EAC 1.0b3 | FLAC tracks level 8 | Cue+Log+M3U | Full Scans 300dpi | 272MB + 5% Recovery
Genre: Fusion, Post-Bop

Jeff Parker is arguably the most exciting and thoughtful jazz guitarist of the past two decades, a masterful free improviser who's also fluent in everything from postbop to postrock. Considering his busy schedule, it’s no surprise Bright Light in Winter is only Parker’s third album as a leader. Bassist Chris Lopes and drummer Chad Taylor have almost as much input on this session as their leader, since they wrote two and three pieces, respectively, for the album. The equal participation can be felt throughout their performances, which feel engaging whether Parker is strumming warm jazz chords or bordering on harmolodics.
Track List
01. Mainz 6:32
02. Swept Out To Sea 4:50
03. Change 5:10
04. Freakadelic 5:31
05. The Morning Of The 5th 3:13
06. Occidental Tourist 4:56
07. Bright Light Black Site 6:07
08. Istvan 5:23
09. Good Days (For Lee Anne) 6:38

musicians
Jeff Parker - electric guitar and effects, Korg MS-20 monophonic synth
Chris Lopes - acoustic bass, flute, Korg MS-20 monophonic synth
Chad Taylor - drums, cymbals

Produced by Jeff Parker


Exact Audio Copy V1.0 beta 3 from 29. August 2011

EAC extraction logfile from 7. February 2013, 11:39

Jeff Parker Trio / Bright Light In Winter

Used drive : HL-DT-STDVDRAM GH20NS10 Adapter: 2 ID: 1

Read mode : Secure
Utilize accurate stream : Yes
Defeat audio cache : Yes
Make use of C2 pointers : No

Read offset correction : 667
Overread into Lead-In and Lead-Out : No
Fill up missing offset samples with silence : Yes
Delete leading and trailing silent blocks : No
Null samples used in CRC calculations : Yes
Used interface : Native Win32 interface for Win NT & 2000
Gap handling : Appended to previous track

Used output format : User Defined Encoder
Selected bitrate : 1024 kBit/s
Quality : High
Add ID3 tag : No
Command line compressor : C:\Program Files\Exact Audio Copy\Flac\flac.exe
Additional command line options : -8 -V -T "ARTIST=%artist%" -T "TITLE=%title%" -T "ALBUM=%albumtitle%" -T "DATE=%year%" -T "TRACKNUMBER=%tracknr%" -T "TOTALTRACKS=%numtracks%" -T "GENRE=%genre%" -T "ALBUMARTIST=%albumartist%" -T "ALBUM ARTIST=%albumartist%" -T "COMMENT=EAC Secure Mode, Test & Copy, AccurateRip, FLAC -8" %source%


TOC of the extracted CD

Track | Start | Length | Start sector | End sector
––––––––––––––––––––––––––––-
1 | 0:00.00 | 6:32.00 | 0 | 29399
2 | 6:32.00 | 4:49.40 | 29400 | 51114
3 | 11:21.40 | 5:10.00 | 51115 | 74364
4 | 16:31.40 | 5:31.33 | 74365 | 99222
5 | 22:02.73 | 3:13.06 | 99223 | 113703
6 | 25:16.04 | 5:01.19 | 113704 | 136297
7 | 30:17.23 | 6:06.73 | 136298 | 163820
8 | 36:24.21 | 5:22.54 | 163821 | 188024
9 | 41:47.00 | 6:38.29 | 188025 | 217903


Track 1

Filename D:\Jeff Parker Trio - Bright Light In Winter (2012) [FLAC]\01 - Mainz.wav

Pre-gap length 0:00:02.00

Peak level 98.8 %
Extraction speed 5.1 X
Track quality 100.0 %
Test CRC 0F1BA5F6
Copy CRC 0F1BA5F6
Track not present in AccurateRip database
Copy OK

Track 2

Filename D:\Jeff Parker Trio - Bright Light In Winter (2012) [FLAC]\02 - Swept Out To Sea.wav

Peak level 98.8 %
Extraction speed 5.5 X
Track quality 100.0 %
Test CRC 59A2EBF4
Copy CRC 59A2EBF4
Track not present in AccurateRip database
Copy OK

Track 3

Filename D:\Jeff Parker Trio - Bright Light In Winter (2012) [FLAC]\03 - Change.wav

Peak level 98.8 %
Extraction speed 5.9 X
Track quality 100.0 %
Test CRC 90950DCF
Copy CRC 90950DCF
Track not present in AccurateRip database
Copy OK

Track 4

Filename D:\Jeff Parker Trio - Bright Light In Winter (2012) [FLAC]\04 - Freakadelic.wav

Peak level 98.8 %
Extraction speed 6.5 X
Track quality 100.0 %
Test CRC EBE5EE7A
Copy CRC EBE5EE7A
Track not present in AccurateRip database
Copy OK

Track 5

Filename D:\Jeff Parker Trio - Bright Light In Winter (2012) [FLAC]\05 - The Morning Of The 5th.wav

Peak level 98.8 %
Extraction speed 6.1 X
Track quality 100.0 %
Test CRC E7B8F5E3
Copy CRC E7B8F5E3
Track not present in AccurateRip database
Copy OK

Track 6

Filename D:\Jeff Parker Trio - Bright Light In Winter (2012) [FLAC]\06 - Occidental Tourist.wav

Peak level 98.8 %
Extraction speed 7.1 X
Track quality 100.0 %
Test CRC 9D7E032F
Copy CRC 9D7E032F
Track not present in AccurateRip database
Copy OK

Track 7

Filename D:\Jeff Parker Trio - Bright Light In Winter (2012) [FLAC]\07 - Bright Light Black Site.wav

Peak level 98.8 %
Extraction speed 5.8 X
Track quality 100.0 %
Test CRC B0513994
Copy CRC B0513994
Track not present in AccurateRip database
Copy OK

Track 8

Filename D:\Jeff Parker Trio - Bright Light In Winter (2012) [FLAC]\08 - Istvan.wav

Peak level 98.8 %
Extraction speed 5.7 X
Track quality 99.9 %
Test CRC EC239DFB
Copy CRC EC239DFB
Track not present in AccurateRip database
Copy OK

Track 9

Filename D:\Jeff Parker Trio - Bright Light In Winter (2012) [FLAC]\09 - Good Days (For Lee Anne).wav

Peak level 98.8 %
Extraction speed 7.3 X
Track quality 100.0 %
Test CRC 0FE266AA
Copy CRC 0FE266AA
Track not present in AccurateRip database
Copy OK


None of the tracks are present in the AccurateRip database

No errors occurred

End of status report

==== Log checksum 70F84C7C7BA37BF125806C74F3D18141D501E32B009F7B01C303521DD569B656 ====


––––––––––––––––––––––––––––––––––––––––
Analyzed: Jeff Parker Trio / Bright Light In Winter
––––––––––––––––––––––––––––––––––––––––

DR Peak RMS Duration Track
––––––––––––––––––––––––––––––––––––––––
DR9 -0.10 dB -11.61 dB 6:32 01-Mainz
DR9 -0.10 dB -10.12 dB 4:50 02-Swept Out To Sea
DR7 -0.10 dB -8.93 dB 5:10 03-Change
DR7 -0.10 dB -9.17 dB 5:31 04-Freakadelic
DR10 -0.10 dB -13.42 dB 3:13 05-The Morning Of The 5th
DR9 -0.10 dB -11.24 dB 5:01 06-Occidental Tourist
DR8 -0.10 dB -10.08 dB 6:07 07-Bright Light Black Site
DR6 -0.10 dB -9.23 dB 5:23 08-Istvan
DR9 -0.10 dB -11.71 dB 6:38 09-Good Days (For Lee Anne)
––––––––––––––––––––––––––––––––––––––––

Number of tracks: 9
Official DR value: DR8

Samplerate: 44100 Hz
Channels: 2
Bits per sample: 16
Bitrate: 705 kbps
Codec: FLAC
================================================================================

Jeff Parker Trio - Bright Light In Winter (2012)
Jeff Parker Trio - Bright Light In Winter (2012)
Jeff Parker Trio - Bright Light In Winter (2012)


Rip by tiburon