Subcategories

Jennifer Rush - Movin' (1985)

Posted By: popsakov
Jennifer Rush - Movin' (1985)

Jennifer Rush - Movin' (1985)
EAC Rip | FLAC (Img) + Cue + Log ~ 248 Mb | MP3 CBR320 ~ 89 Mb
Scans (JPG, 400 dpi) ~ 32 Mb | RAR 5% Recovery
Pop, Pop Rock, Synth-pop | CBS #CDCBS 26710

Movin' is the second studio album by American singer Jennifer Rush. Originally released in Germany in late 1985, just as Rush was experiencing worldwide success with "The Power of Love" from her previous album, Movin' became an instant hit there. The album reached No.1 for 14 weeks and went on to be the biggest selling album of 1986. Despite high sales for her previous album, Rush found it harder to follow up in the UK, where the album (released in 1986) only managed to reach No.32, mainly due to the lack of a hit single. The international first release was "Destiny", which charted highly in many countries, but only scraped the bottom of the top 100 in the UK. A second single "If You're Ever Gonna Lose My Love" also sold well in Europe. Other notable tracks included a decidedly electronic working of the Stevie Wonder song "Yester-Me, Yester-You, Yesterday", and "Ave Maria" (an original track), which was released as a single much later in 1991. US success still eluded Rush and so after this album she decided to relocate from Germany in order to secure a wider fanbase for her next album.
~ Wiki

***************

Jennifer Rush - Movin' (1985)

CD Manufactured by CBS/Sony in Japan.

Track List:

01. Destiny [3:38]
02. Live Wire [3:53]
03. Silent Killer [3:36]
04. Automatic [3:32]
05. If You're Ever Gonna Lose My Love [3:53]
06. Ave Maria (Survivors Of A Different Kind) [3:51]
07. Testify With My Heart [3:21]
08. Yesterme, Yesteryou, Yesterday [3:18]
09. The Right Time Has Come Now [4:04]
10. Hero Of A Fool [3:40]

Exact Audio Copy V1.1 from 23. June 2015

EAC extraction logfile from 7. April 2016, 18:01

Jennifer Rush / Movin'

Used drive : HL-DT-STDVDRAM GH22NS40 Adapter: 1 ID: 0

Read mode : Secure
Utilize accurate stream : Yes
Defeat audio cache : Yes
Make use of C2 pointers : No

Read offset correction : 667
Overread into Lead-In and Lead-Out : No
Fill up missing offset samples with silence : Yes
Delete leading and trailing silent blocks : No
Null samples used in CRC calculations : Yes
Used interface : Native Win32 interface for Win NT & 2000

Used output format : User Defined Encoder
Selected bitrate : 896 kBit/s
Quality : High
Add ID3 tag : Yes
Command line compressor : C:\Program Files\Exact Audio Copy\Flac\flac.exe
Additional command line options : -V -8 -T "Date=%year%" -T "Genre=%genre%" %source%


TOC of the extracted CD

Track | Start | Length | Start sector | End sector
––––––––––––––––––––––––––––-
1 | 0:00.00 | 3:38.00 | 0 | 16349
2 | 3:38.00 | 3:52.70 | 16350 | 33819
3 | 7:30.70 | 3:36.00 | 33820 | 50019
4 | 11:06.70 | 3:32.00 | 50020 | 65919
5 | 14:38.70 | 3:53.05 | 65920 | 83399
6 | 18:32.00 | 3:51.00 | 83400 | 100724
7 | 22:23.00 | 3:21.00 | 100725 | 115799
8 | 25:44.00 | 3:18.00 | 115800 | 130649
9 | 29:02.00 | 4:04.10 | 130650 | 148959
10 | 33:06.10 | 3:40.12 | 148960 | 165471


Range status and errors

Selected range

Filename I:\Rips\Jennifer Rush - Movin'.wav

Peak level 100.0 %
Extraction speed 1.5 X
Range quality 100.0 %
Test CRC ADA98A9C
Copy CRC ADA98A9C
Copy OK

No errors occurred


AccurateRip summary

Track 1 accurately ripped (confidence 28) [5F640D68] (AR v2)
Track 2 accurately ripped (confidence 28) [5A39EF53] (AR v2)
Track 3 accurately ripped (confidence 28) [ABAA729A] (AR v2)
Track 4 accurately ripped (confidence 28) [22D76DDC] (AR v2)
Track 5 accurately ripped (confidence 28) [B0C3ADAD] (AR v2)
Track 6 accurately ripped (confidence 28) [3CADF2B9] (AR v2)
Track 7 accurately ripped (confidence 28) [1C995DD1] (AR v2)
Track 8 accurately ripped (confidence 28) [F5CF5767] (AR v2)
Track 9 accurately ripped (confidence 28) [506DE46A] (AR v2)
Track 10 accurately ripped (confidence 28) [70DC7584] (AR v2)

All tracks accurately ripped

End of status report

–– CUETools DB Plugin V2.1.6

[CTDB TOCID: bGTDG1xCe7uvcOotdaHmfUxRdAM-] found
Submit result: already submitted
Track | CTDB Status
1 | (111/112) Accurately ripped
2 | (112/112) Accurately ripped
3 | (111/112) Accurately ripped
4 | (111/112) Accurately ripped
5 | ( 49/112) Accurately ripped, or (60/112) differs in 2 samples @01:41:69
6 | (111/112) Accurately ripped
7 | (110/112) Accurately ripped
8 | (110/112) Accurately ripped
9 | (111/112) Accurately ripped
10 | (110/112) Accurately ripped
If you are sure that your rip contains errors, you can use CUETools to repair it.


==== Log checksum 521D4FDA5A6A2E0C3DCE494887DB55BC001AD92E68CDFCC6CB68835A27303005 ====

foobar2000 1.2.6 / Dynamic Range Meter 1.1.1
log date: 2016-10-03 21:08:41

––––––––––––––––––––––––––––––––––––––––
Analyzed: Jennifer Rush / Movin'
––––––––––––––––––––––––––––––––––––––––

DR Peak RMS Duration Track
––––––––––––––––––––––––––––––––––––––––
DR10 0.00 dB -11.97 dB 3:38 01-Destiny
DR10 0.00 dB -12.49 dB 3:53 02-Live Wire
DR10 0.00 dB -11.33 dB 3:36 03-Silent Killer
DR10 0.00 dB -10.91 dB 3:32 04-Automatic
DR10 0.00 dB -11.09 dB 3:53 05-If You're Ever Gonna Lose My Love
DR10 0.00 dB -11.45 dB 3:51 06-Ave Maria (Survivors Of A Different Kind)
DR11 0.00 dB -12.78 dB 3:21 07-Testify With My Heart
DR11 0.00 dB -12.45 dB 3:18 08-Yesterme, Yesteryou, Yesterday
DR10 0.00 dB -11.97 dB 4:04 09-The Right Time Has Come Now
DR11 -0.21 dB -14.44 dB 3:40 10-Hero Of A Fool
––––––––––––––––––––––––––––––––––––––––

Number of tracks: 10
Official DR value: DR10

Samplerate: 44100 Hz
Channels: 2
Bits per sample: 16
Bitrate: 897 kbps
Codec: FLAC
================================================================================

[CUETools log; Date: 03.10.2016 21:08:43; Version: 2.1.5]
[CTDB TOCID: bGTDG1xCe7uvcOotdaHmfUxRdAM-] found.
Track | CTDB Status
1 | (139/142) Accurately ripped
2 | (142/142) Accurately ripped
3 | (141/142) Accurately ripped
4 | (141/142) Accurately ripped
5 | ( 63/142) Accurately ripped
6 | (141/142) Accurately ripped
7 | (140/142) Accurately ripped
8 | (140/142) Accurately ripped
9 | (141/142) Accurately ripped
10 | (140/142) Accurately ripped
[AccurateRip ID: 000de70d-006f1ace-83089e0a] found.
Track [ CRC | V2 ] Status
01 [29731c37|5f640d68] (033+031/129) Accurately ripped
02 [a1d05125|5a39ef53] (034+031/128) Accurately ripped
03 [15332b28|abaa729a] (034+031/129) Accurately ripped
04 [7e4d8847|22d76ddc] (034+031/130) Accurately ripped
05 [974c5958|b0c3adad] (034+031/131) Accurately ripped
06 [332999e2|3cadf2b9] (034+031/130) Accurately ripped
07 [778a8d76|1c995dd1] (034+031/130) Accurately ripped
08 [2e7195af|f5cf5767] (034+031/130) Accurately ripped
09 [55d2f707|506de46a] (034+031/130) Accurately ripped
10 [4faf36b6|70dc7584] (033+031/129) Accurately ripped
Offsetted by 4:
01 [bbf4ee67] (019/129) Accurately ripped
02 [f44e53a1] (018/128) Accurately ripped
03 [89ce67e8] (018/129) Accurately ripped
04 [ae352c8f] (018/130) Accurately ripped
05 [f02f92e8] (000/131) No match (V2 was not tested)
06 [47e35936] (018/130) Accurately ripped
07 [2b45fd16] (018/130) Accurately ripped
08 [d8c5e8e3] (018/130) Accurately ripped
09 [7943ba5b] (018/130) Accurately ripped
10 [83e57272] (018/129) Accurately ripped

Track Peak [ CRC32 ] [W/O NULL] [ LOG ]
– 100,0 [ADA98A9C] [41E2661E] CRC32
01 100,0 [71754DB0] [84C2B3DE]
02 100,0 [DF8834EC] [959F65A5]
03 100,0 [4614BB74] [EC19E965]
04 100,0 [6DC4E09C] [55AC3BD1]
05 100,0 [D8B0F1DA] [52C756E3]
06 100,0 [DC299C42] [BEDFDAAD]
07 100,0 [E4618C40] [6A737728]
08 100,0 [1DD8C2C3] [B6625400]
09 100,0 [DB947CEC] [C06D74E8]
10 97,6 [4B4F5E1F] [8670CF30]

Jennifer Rush - Movin' (1985)

Jennifer Rush - Movin' (1985)

See also:
Jennifer Rush - The Power Of Love: The Best Of Jennifer Rush (2000)

All thanks go to powermet

> Visit my blog <

Download: