Subcategories

Jennifer Rush - Passion (1988) [Japan]

Posted By: popsakov
Jennifer Rush - Passion (1988) [Japan]

Jennifer Rush - Passion (1988) [Japan]
EAC | FLAC, Img+Cue, Log+Checker | ~ 454 Mb | Covers & Booklet
MP3 CBR320 | ~ 137 Mb | HF, FileServe | 3% Recovery
Genre: Pop, Soft Rock, AOR | Label: CBS / Sony | Catalog#: 25-8P-5175

Passion is the fourth album by American singer Jennifer Rush.
Following on from the success of her previous album, Rush continued working with much of the same team of writers and producers. This album however failed to find the same high level of success and didn't chart at all in the UK. However sales were satisfying in her most successful market, Germany, where the album reached No.3 and was certified platinum. The lead single "You're My One and Only" became a hit, but further releases "Keep All the Fires Burning Bright" and "Love Get Ready" did little to generate interest.
Single success did come a few months later in the UK, when a duet with Placido Domingo, "Till I Loved You" became a hit in the summer of 1989. The record company however failed to capitalise on this by not repromoting the album, and it remains Rush's last appearance on the UK Charts.
Notable tracks on this album include "Same Heart" - a duet with Michael Bolton, although this came a year before his international breakthrough (another opportunity for repromotion), and "Remind My Heart" which was a collaboration with producer Jellybean Benitez who was currently at the peak of his fame.
Track List:

01. Love Get Ready [04:03]
02. You're My One And Only [03:41]
03. Falling In Love [04:00]
04. When I Look In Your Eyes [03:20]
05. Remind My Heart [04:31]
06. Keep All The Fires Burning Bright [04:54]
07. Same Heart (Duet with Michael Bolton) [04:17]
08. My Heart Is Still Young [04:00]
09. You Don't Know What You've Got (Until It's Gone) [04:31]
10. Rain Coming Down On Me [04:06]
11. Now That It's Over [04:03]

Exact Audio Copy V0.99 prebeta 5 from 4. May 2009

EAC extraction logfile from 27. July 2009, 17:03

Jennifer Rush / Passion

Used drive : ASUS DRW-1608P Adapter: 2 ID: 0

Read mode : Secure
Utilize accurate stream : Yes
Defeat audio cache : Yes
Make use of C2 pointers : No

Read offset correction : 48
Overread into Lead-In and Lead-Out : No
Fill up missing offset samples with silence : Yes
Delete leading and trailing silent blocks : No
Null samples used in CRC calculations : Yes
Used interface : Installed external ASPI interface

Used output format : User Defined Encoder
Selected bitrate : 1024 kBit/s
Quality : High
Add ID3 tag : No
Command line compressor : C:\Program Files (x86)\Exact Audio Copy\Flac\flac.exe
Additional command line options : -5 -V -T "ARTIST=%a" -T "TITLE=%t" -T "ALBUM=%g" -T "DATE=%y" -T "TRACKNUMBER=%n" -T "GENRE=%m" -T "COMMENT=EAC FLAC -5" %s


TOC of the extracted CD

Track | Start | Length | Start sector | End sector
––––––––––––––––––––––––––––-
1 | 0:00.00 | 4:03.45 | 0 | 18269
2 | 4:03.45 | 3:40.72 | 18270 | 34841
3 | 7:44.42 | 3:59.50 | 34842 | 52816
4 | 11:44.17 | 3:20.20 | 52817 | 67836
5 | 15:04.37 | 4:30.70 | 67837 | 88156
6 | 19:35.32 | 4:53.43 | 88157 | 110174
7 | 24:29.00 | 4:17.47 | 110175 | 129496
8 | 28:46.47 | 4:00.03 | 129497 | 147499
9 | 32:46.50 | 4:30.45 | 147500 | 167794
10 | 37:17.20 | 4:06.37 | 167795 | 186281
11 | 41:23.57 | 4:02.73 | 186282 | 204504


Range status and errors

Selected range

Filename F:\Jennifer Rush - Passion (Japan) 1988\Jennifer Rush - Passion.wav

Peak level 100.0 %
Range quality 100.0 %
Test CRC F30CEB4F
Copy CRC F30CEB4F
Copy OK

No errors occurred


AccurateRip summary

Track 1 not present in database
Track 2 not present in database
Track 3 not present in database
Track 4 not present in database
Track 5 not present in database
Track 6 not present in database
Track 7 not present in database
Track 8 not present in database
Track 9 not present in database
Track 10 not present in database
Track 11 not present in database

None of the tracks are present in the AccurateRip database

End of status report

AUDIOCHECKER v2.0 beta (build 457) - by Dester - opdester@freemail.hu
~~~~~~~~~~~~~~~~~~~~~~~~~~~~~~~~~~
-=== НЕ РЕДАКТИРУЙТЕ ЭТОТ ФАЙЛ! ===-

Путь: …\Jennifer Rush - Passion (1988) [Japan]

01 -=- 01. Love Get Ready.wav -=- MPEG (95%)
02 -=- 02. You're My One And Only.wav -=- MPEG (79%)
03 -=- 03. Falling In Love.wav -=- CDDA (100%)
04 -=- 04. When I Look In Your Eyes.wav -=- MPEG (95%)
05 -=- 05. Remind My Heart.wav -=- CDDA (100%)
06 -=- 06. Keep All The Fires Burning Bright.wav -=- CDDA (99%)
07 -=- 07. Same Heart (Duet with Michael Bolton).wav -=- CDDA (100%)
08 -=- 08. My Heart Is Still Young.wav -=- CDDA (100%)
09 -=- 09. You Don't Know What You've Got (Until It's Gone).wav -=- CDDA (100%)
10 -=- 10. Rain Coming Down On Me.wav -=- MPEG (95%)
11 -=- 11. Now That It's Over.wav -=- CDDA (100%)

Сводка 66,82% CDDA

187014164

Spectrum:

Jennifer Rush - Passion (1988) [Japan]

Jennifer Rush - Passion (1988) [Japan]

Jennifer Rush - Passion (1988) [Japan]


LOSSLESS

HF:
part 1 | part 2 | part 3 | part 4 | part 5

FileServe:
part 1 | part 2 | part 3 | part 4 | part 5


mp3

HF: part 1 | HF: part 2

FileServe: part 1 | FileServe: part 2

pass: shsv

In case you encounter dead links, please send me a private message!

Visit my blog!