Subcategories

Jennifer Rush - The Power Of Love: The Best Of Jennifer Rush (2000)

Posted By: popsakov
Jennifer Rush - The Power Of Love: The Best Of Jennifer Rush (2000)

Jennifer Rush - The Power Of Love: The Best Of Jennifer Rush (2000)
EAC Rip | FLAC (Img) + Cue + Log ~ 507 Mb | MP3 CBR320 ~ 172 Mb
Scans (JPG, 600 dpi) ~ 51 Mb | RAR 5% Recovery
Pop, Pop Rock, Synth-Pop, Ballad | Columbia #498715 2

Jennifer Rush is an American singer from New York City, best known for the million-selling single "The Power Of Love". She sung with artists like Elton John, Michael Bolton, Placido Domingo, Brian May (Queen) just to name a few. Jennifer Rush has sold worldwide more than 30 million record units. After a 12 years break she announced in march of 2009 to release a new album by the end of the current year. She is signed to Sony/BMG.
~ discogs.com

While virtually unknown in the U.S., pop singer Jennifer Rush achieved superstar status as an expatriate in Europe, selling millions of records and releasing a string of hit singles notable for their booming, dance-rock arrangements and Rush's powerful voice. Born Heidi Stern in New York City, Rush's father was an opera singer and her mother was a pianist. At the age of nine, she moved to Germany with her family, returning in her teens to the States. In 1982, she returned to Germany with her father to pursue a singing career, signing a deal with CBS/Columbia. Changing her name to Jennifer Rush, she released a series of songs that made her a star in Europe, including "Into My Dreams," "Come Give Me Your Hand," "25 Lovers," and "Ring of Ice." In 1985, Rush scored a massive European hit with "The Power of Love," which became one of the longest-running chart-toppers in U.K. history. The song, which she also co-wrote, was packaged with several of her other European hits for her U.S. debut Jennifer Rush. Released as a single, "The Power of Love" failed to duplicate its success upon its stateside release, only reaching number 57. Instead, versions of the song by Laura Branigan and Celine Dion hit the American Top 40 (the latter hitting number one for a month in 1994). It wasn't until her third U.S. release, Heart Over Mind, that Rush reached the Top 40 as an artist with her duet with Elton John, "Flames of Paradise," reaching number 37 in 1987. She continued to retain a large European following throughout the rest of the '80s and '90s, collaborating with writers such as Desmond Child and Diane Warren and performing with high-profile acts like Michael Bolton and Placido Domingo. Despite selling millions of albums abroad, most of her albums have not been released in the U.S.
~ Tom Demalon, All Music

***************

Jennifer Rush - The Power Of Love: The Best Of Jennifer Rush (2000)

Track List:

01. The Power Of Love [04:29]
02. Destiny [03:38]
03. Flames Of Paradise (Duet With Elton John) [04:43]
04. Love Is The Language (Of The Heart) [04:29]
05. I Come Undone [04:07]
06. Ring Of Ice [03:52]
07. Same Heart (Duet With Michael Bolton) [04:18]
08. If You're Ever Gonna Lose My Love [03:48]
09. Hero Of A Fool [03:40]
10. Call My Name [04:15]
11. Now That It's Over [04:03]
12. Keep All The Fires Burning Bright [04:54]
13. Live Wire [03:51]
14. Pleasure [04:03]
15. Angel [04:36]
16. Down To You [04:30]
17. Till I Loved You (Duet With Placido Domingo) [04:24]

Exact Audio Copy V1.0 beta 3 from 29. August 2011

EAC extraction logfile from 23. January 2015, 18:11

Jennifer Rush / The Power Of Love - The Best Of

Used drive : HL-DT-STDVDRAM GH22NS40 Adapter: 4 ID: 0

Read mode : Secure
Utilize accurate stream : Yes
Defeat audio cache : Yes
Make use of C2 pointers : No

Read offset correction : 667
Overread into Lead-In and Lead-Out : No
Fill up missing offset samples with silence : Yes
Delete leading and trailing silent blocks : No
Null samples used in CRC calculations : Yes
Used interface : Native Win32 interface for Win NT & 2000

Used output format : User Defined Encoder
Selected bitrate : 1024 kBit/s
Quality : High
Add ID3 tag : No
Command line compressor : C:\Program Files\FLAC\flac.exe
Additional command line options : -V -8 -T "Date=%year%" -T "Genre=%genre%" %source%


TOC of the extracted CD

Track | Start | Length | Start sector | End sector
––––––––––––––––––––––––––––-
1 | 0:00.00 | 4:28.15 | 0 | 20114
2 | 4:28.15 | 3:37.17 | 20115 | 36406
3 | 8:05.32 | 4:42.70 | 36407 | 57626
4 | 12:48.27 | 4:28.23 | 57627 | 77749
5 | 17:16.50 | 4:06.20 | 77750 | 96219
6 | 21:22.70 | 3:51.52 | 96220 | 113596
7 | 25:14.47 | 4:17.25 | 113597 | 132896
8 | 29:31.72 | 3:48.00 | 132897 | 149996
9 | 33:19.72 | 3:39.30 | 149997 | 166451
10 | 36:59.27 | 4:14.15 | 166452 | 185516
11 | 41:13.42 | 4:02.28 | 185517 | 203694
12 | 45:15.70 | 4:53.10 | 203695 | 225679
13 | 50:09.05 | 3:51.00 | 225680 | 243004
14 | 54:00.05 | 4:02.50 | 243005 | 261204
15 | 58:02.55 | 4:35.10 | 261205 | 281839
16 | 62:37.65 | 4:29.15 | 281840 | 302029
17 | 67:07.05 | 4:23.07 | 302030 | 321761


Range status and errors

Selected range

Filename I:\Rips\Jennifer Rush - The Power Of Love - The Best Of.wav

Peak level 100.0 %
Extraction speed 2.1 X
Range quality 100.0 %
Test CRC 86430027
Copy CRC 86430027
Copy OK

No errors occurred


AccurateRip summary

Track 1 accurately ripped (confidence 4) [161622B9] (AR v2)
Track 2 accurately ripped (confidence 4) [5A8F111A] (AR v2)
Track 3 accurately ripped (confidence 4) [1D3F7EAF] (AR v2)
Track 4 accurately ripped (confidence 4) [B698B4BF] (AR v2)
Track 5 accurately ripped (confidence 4) [A2869204] (AR v2)
Track 6 accurately ripped (confidence 4) [DE2CD7FC] (AR v2)
Track 7 accurately ripped (confidence 4) [1D8048AB] (AR v2)
Track 8 accurately ripped (confidence 4) [EB6EFDC4] (AR v2)
Track 9 accurately ripped (confidence 4) [761DD089] (AR v2)
Track 10 accurately ripped (confidence 4) [98531C06] (AR v2)
Track 11 accurately ripped (confidence 4) [E9A518A9] (AR v2)
Track 12 accurately ripped (confidence 4) [A87EB837] (AR v2)
Track 13 accurately ripped (confidence 4) [131BD1C1] (AR v2)
Track 14 accurately ripped (confidence 4) [3EFC6638] (AR v2)
Track 15 accurately ripped (confidence 4) [D60A4033] (AR v2)
Track 16 accurately ripped (confidence 4) [28752C38] (AR v2)
Track 17 accurately ripped (confidence 4) [60E94D77] (AR v2)

All tracks accurately ripped

End of status report

==== Log checksum 6263D810B5F45F9904433691F49889A633B6E14CBC8A09625152F2972ECD88A8 ====

foobar2000 1.2.6 / Dynamic Range Meter 1.1.1
log date: 2015-12-04 16:47:56

––––––––––––––––––––––––––––––––––––––––
Analyzed: Jennifer Rush / The Power Of Love - The Best Of
––––––––––––––––––––––––––––––––––––––––

DR Peak RMS Duration Track
––––––––––––––––––––––––––––––––––––––––
DR8 -0.12 dB -11.30 dB 4:28 01-The Power Of Love
DR10 -0.50 dB -12.15 dB 3:37 02-Destiny
DR9 -0.01 dB -10.74 dB 4:43 03-Flames Of Paradise (Duet With Elton John)
DR9 0.00 dB -10.58 dB 4:28 04-Love Is The Language (Of The Heart)
DR9 -0.01 dB -10.45 dB 4:06 05-I Come Undone
DR9 -0.08 dB -11.10 dB 3:52 06-Ring Of Ice
DR9 0.00 dB -10.68 dB 4:17 07-Same Heart (Duet With Michael Bolton)
DR9 -0.22 dB -10.03 dB 3:48 08-If You're Ever Gonna Lose My Love
DR8 -0.26 dB -11.14 dB 3:39 09-Hero Of A Fool
DR9 -0.01 dB -11.28 dB 4:14 10-Call My Name
DR9 -0.10 dB -11.37 dB 4:02 11-Now That It's Over
DR8 0.00 dB -11.50 dB 4:53 12-Keep All The Fires Burning Bright
DR8 -0.03 dB -9.91 dB 3:51 13-Live Wire
DR10 -0.43 dB -12.74 dB 4:03 14-Pleasure
DR10 0.00 dB -11.93 dB 4:35 15-Angel
DR10 -0.08 dB -11.94 dB 4:29 16-Down To You
DR8 0.00 dB -10.57 dB 4:23 17-Till I Loved You (Duet With Placido Domingo)
––––––––––––––––––––––––––––––––––––––––

Number of tracks: 17
Official DR value: DR9

Samplerate: 44100 Hz
Channels: 2
Bits per sample: 16
Bitrate: 944 kbps
Codec: FLAC
================================================================================

[CUETools log; Date: 04.12.2015 16:48:04; Version: 2.1.5]
[CTDB TOCID: 7c2K7q9eFZJCPMZ3C9VNwl9bUvA-] found.
Track | CTDB Status
1 | (19/19) Accurately ripped
2 | (19/19) Accurately ripped
3 | (19/19) Accurately ripped
4 | (19/19) Accurately ripped
5 | (19/19) Accurately ripped
6 | (19/19) Accurately ripped
7 | (19/19) Accurately ripped
8 | (19/19) Accurately ripped
9 | (19/19) Accurately ripped
10 | (19/19) Accurately ripped
11 | (19/19) Accurately ripped
12 | (19/19) Accurately ripped
13 | (19/19) Accurately ripped
14 | (19/19) Accurately ripped
15 | (19/19) Accurately ripped
16 | (19/19) Accurately ripped
17 | (19/19) Accurately ripped
[AccurateRip ID: 002be194-022b5254-dd10c211] found.
Track [ CRC | V2 ] Status
01 [f9705c0e|161622b9] (02+05/21) Accurately ripped
02 [d863e560|5a8f111a] (02+05/21) Accurately ripped
03 [3ccfb05e|1d3f7eaf] (02+05/21) Accurately ripped
04 [653ef1f5|b698b4bf] (02+05/21) Accurately ripped
05 [faae128b|a2869204] (02+05/21) Accurately ripped
06 [3d6c28e9|de2cd7fc] (02+05/21) Accurately ripped
07 [992623c8|1d8048ab] (02+05/21) Accurately ripped
08 [0013264e|eb6efdc4] (02+05/21) Accurately ripped
09 [a2aae30d|761dd089] (02+05/21) Accurately ripped
10 [ea747c0e|98531c06] (02+05/21) Accurately ripped
11 [9770a96b|e9a518a9] (02+05/21) Accurately ripped
12 [334b053a|a87eb837] (02+05/21) Accurately ripped
13 [c3a80477|131bd1c1] (02+05/21) Accurately ripped
14 [44acdcce|3efc6638] (02+05/21) Accurately ripped
15 [ab4524ea|d60a4033] (02+05/21) Accurately ripped
16 [5b04a428|28752c38] (02+05/21) Accurately ripped
17 [4c1e4496|60e94d77] (02+05/21) Accurately ripped
Offsetted by -748:
01 [0aa1e842] (00/21) No match (V2 was not tested)
02 [5184e1f8] (00/21) No match (V2 was not tested)
03 [d4d300d5] (00/21) No match (V2 was not tested)
04 [5b9fc210] (00/21) No match (V2 was not tested)
05 [540eaf51] (00/21) No match (V2 was not tested)
06 [8a621432] (00/21) No match (V2 was not tested)
07 [2641df13] (00/21) No match (V2 was not tested)
08 [122d1f5a] (00/21) No match (V2 was not tested)
09 [ea001dc1] (00/21) No match (V2 was not tested)
10 [2aa93261] (00/21) No match (V2 was not tested)
11 [5f37a843] (00/21) No match (V2 was not tested)
12 [af2e3faf] (00/21) No match (V2 was not tested)
13 [b073391f] (00/21) No match (V2 was not tested)
14 [2583bb6c] (00/21) No match (V2 was not tested)
15 [096a366e] (00/21) No match (V2 was not tested)
16 [4cba6209] (00/21) No match (V2 was not tested)
17 [bed5c63f] (00/21) No match (V2 was not tested)
Offsetted by -635:
01 [1925b75b] (00/21) No match (V2 was not tested)
02 [b5fac406] (00/21) No match (V2 was not tested)
03 [aed5b189] (00/21) No match (V2 was not tested)
04 [d6f11b80] (00/21) No match (V2 was not tested)
05 [de650d7a] (00/21) No match (V2 was not tested)
06 [c33231d2] (00/21) No match (V2 was not tested)
07 [23f7d83f] (00/21) No match (V2 was not tested)
08 [82c4e515] (00/21) No match (V2 was not tested)
09 [25e9a4ae] (00/21) No match (V2 was not tested)
10 [d88f4261] (00/21) No match (V2 was not tested)
11 [e1ea4351] (00/21) No match (V2 was not tested)
12 [df7bb405] (00/21) No match (V2 was not tested)
13 [c4f07674] (00/21) No match (V2 was not tested)
14 [f99ef5b0] (00/21) No match (V2 was not tested)
15 [137454ff] (00/21) No match (V2 was not tested)
16 [12f22952] (00/21) No match (V2 was not tested)
17 [f3c65a55] (00/21) No match (V2 was not tested)

Track Peak [ CRC32 ] [W/O NULL] [ LOG ]
– 100,0 [86430027] [0B5D7F90] CRC32
01 98,5 [5D8788D1] [C947ADBF]
02 94,4 [8BEFA917] [192A92D4]
03 99,9 [90C2749E] [1131FE5B]
04 100,0 [BD5ADD18] [25F83D5E]
05 99,9 [B34E08FD] [FF9372CC]
06 99,1 [8E9C8BBC] [B284D157]
07 99,9 [2D5551CD] [EE8647D8]
08 97,4 [46C6232C] [4A99957D]
09 97,0 [0867255C] [CA3162AE]
10 99,8 [21C9DD66] [2A0C881C]
11 98,8 [BFEB9BA3] [E079375D]
12 99,9 [ED137440] [CC3289EC]
13 99,6 [05F3F3E0] [F79D018B]
14 95,1 [9B4A3BC1] [3C8B11EF]
15 100,0 [9B4A932E] [0FD4F999]
16 99,0 [094EF953] [75459BA8]
17 99,9 [AF9AB13C] [69A522FB]

Jennifer Rush - The Power Of Love: The Best Of Jennifer Rush (2000)

Jennifer Rush - The Power Of Love: The Best Of Jennifer Rush (2000)

All thanks go to powermet

Visit my blog!

No mirrors, please!

Download:
Nitroflare: FLAC | Scans | mp3