Subcategories

Jermaine Jackson - Let's Get Serious (1980) [2012, Japanese SHM-CD]

Posted By: BlondStyle
Jermaine Jackson - Let's Get Serious (1980) [2012, Japanese SHM-CD]

Jermaine Jackson - Let's Get Serious (1980) [2012, Japanese SHM-CD]
R&B, Funk/Soul, Motown, Disco | EAC Rip | FLAC, Img+CUE+LOG+Scans (PNG) | 42:25 | 512,93 Mb
Label: Motown/USM Japan (Japan) | Cat.# UICY-25333 | Released: 2012-10-17 (1980-03-18)

"Let's Get Serious" is the 6th studio album by Jermaine Jackson, released in 1980. It reached #6 on the Billboard album chart and logged five weeks at #1 on the Top R&B chart. It achieved sales of 900,000 copies in the United States. The title track was 1980's biggest Soul hit of the year and a Top 10 Pop hit as well. This is the most successful album of Jermaine's career.
~Wikipedia

Jermaine Jackson - Let's Get Serious (1980) [2012, Japanese SHM-CD]

The best of his Motown albums features Stevie Wonder's brilliant songs and production. For once Jermaine sounded inspired, and that feeling is sustained throughtout. One of the high points in his career, and the effort was worth it.
~Review by John Lowe

Jermaine Jackson - Let's Get Serious (1980) [2012, Japanese SHM-CD]

Jermaine Jackson - Let's Get Serious (1980) [2012, Japanese SHM-CD]




Release of the album: 1980, March, 18 [LP Motown, Cat.# M7-928R1, USA]
Release of this CD: 2012, October, 17 [CD Motown/USM Japan (Japan), Cat.# UICY-25333 / EAN: 4988005724823]
℗ & © 1980 Motown Records.
USM JAPAN, A UNIVERSAL MUSIC COMPANY.
Manufactured, Marketed & Distributed by UNIVERSAL MUSIC LLC, Japan
Made in Japan


Notes: Japanese SHM-CD, Remastered reissue comes with a fold out sheet providing Japanese liner notes, song writing credits and lyrics in both English and Japanese.

Credits:

Drums: Stevie Wonder, Dennis Davis, Ed Greene, Ollie E. Brown
Percussion: Emil Radocchia, Gary Coleman, Gene Estes, Paul Jackson, Jermaine Jackson, Earl DeRouen
Bass: Nathan Watts, Eddie Watkins, Scott Edwards, Jermaine Jackson
Synth Bass: Gary Scott
Keyboards: Stevie Wonder, Greg Phillinganes, Joe Sample, Kevin Bassinson, Jermaine Jackson
Clavinet: Isaiah Sanders
Guitars: Stevie Wonder, Ben Bridges, Rick Zunigar, Paul Jackson, Tim May
Trumpet: Larry Gittens
Handclaps: Nathan Watts, Earl DeRouen, Abdoulaye Soumare, Keith Harris, Reggie Wiggins, Dick Rudolph
Arrangements: Stevie Wonder, Jermaine Jackson & Don Peake


Produced by: Stevie Wonder (Tracks 1, 2, 6) & Jermaine Jackson (the rest)
Executive Producers: Berry Gordy Jr., Hazel Jackson

Tracklist:

01. "Let's Get Serious" (feat. Stevie Wonder) (07:59)
(Lee Garrett, Stevie Wonder)
02. "Where Are You Now" (03:51)
(Renee Hardaway, Stevie Wonder)
03. "You Got To Hurry Girl" (04:16)
(Jermaine Jackson, Maureen Bailey, Paul M. Jackson, Jr.)
04. "We Can Put It Back Together" (05:10)
(Hazel G. Jackson, Jermaine Jackson, Maureen Bailey)
05. "Burnin' Hot" (07:53)
(Jermaine Jackson, Jim Foelber, Phyllis Molinary)
06. "You're Supposed To Keep Your Love For Me" (05:37)
(Stevie Wonder)
07. "Feelin' Free" (07:40)
(Hazel G. Jackson, Jermaine Jackson, Maureen Bailey)

Recorded at Motown Recording Studios, Crystal Studios, Whitney Studios & Kendun Recorders

Exact Audio Copy V1.0 beta 3 from 29. August 2011

EAC extraction logfile from 29. December 2012, 16:19

Jermaine Jackson / Let's Get Serious

Used drive : ATAPI DVD DW 8X16X8X16 Adapter: 0 ID: 2

Read mode : Secure
Utilize accurate stream : Yes
Defeat audio cache : Yes
Make use of C2 pointers : No

Read offset correction : 618
Overread into Lead-In and Lead-Out : No
Fill up missing offset samples with silence : Yes
Delete leading and trailing silent blocks : No
Null samples used in CRC calculations : Yes
Used interface : Native Win32 interface for Win NT & 2000

Used output format : Internal WAV Routines
Sample format : 44.100 Hz; 16 Bit; Stereo


TOC of the extracted CD

Track | Start | Length | Start sector | End sector
––––––––––––––––––––––––––––-
1 | 0:00.00 | 7:58.42 | 0 | 35891
2 | 7:58.42 | 3:50.40 | 35892 | 53181
3 | 11:49.07 | 4:16.05 | 53182 | 72386
4 | 16:05.12 | 5:10.03 | 72387 | 95639
5 | 21:15.15 | 7:52.60 | 95640 | 131099
6 | 29:08.00 | 5:36.55 | 131100 | 156354
7 | 34:44.55 | 7:40.20 | 156355 | 190874


Range status and errors

Selected range

Filename C:\BlondStyle\Jermaine Jackson - Let's Get Serious.wav

Peak level 97.7 %
Extraction speed 7.8 X
Range quality 100.0 %
Test CRC 68BE3333
Copy CRC 68BE3333
Copy OK

No errors occurred


AccurateRip summary

Track 1 not present in database
Track 2 not present in database
Track 3 not present in database
Track 4 not present in database
Track 5 not present in database
Track 6 not present in database
Track 7 not present in database

None of the tracks are present in the AccurateRip database

End of status report

==== Log checksum D8EAAF30CB050092BB0A703E905F45E3FEA9BDE340CE48918CAD351A98768628 ====

––––––––––––––––––––––––––––––––––––––––
Analyzed: Jermaine Jackson / Let's Get Serious
––––––––––––––––––––––––––––––––––––––––

DR Peak RMS Duration Track
––––––––––––––––––––––––––––––––––––––––
DR13 -0.24 dB -14.74 dB 7:59 01-Let's Get Serious
DR14 -0.20 dB -15.56 dB 3:51 02-Where Are You Now
DR13 -0.30 dB -15.07 dB 4:16 03-You Got To Hurry Girl
DR14 -0.20 dB -17.91 dB 5:10 04-We Can Put It Back Together
DR13 -0.44 dB -14.67 dB 7:53 05-Burnin' Hot
DR15 -0.71 dB -17.75 dB 5:37 06-You're Supposed To Keep Your Love For Me
DR14 -0.40 dB -16.36 dB 7:40 07-Feelin' Free
––––––––––––––––––––––––––––––––––––––––

Number of tracks: 7
Official DR value: DR14

Samplerate: 44100 Hz
Channels: 2
Bits per sample: 16
Bitrate: 897 kbps
Codec: FLAC
================================================================================

♫~Welcome To My Blog~♫

password: BlondStyle