Jerry Corbitt & Charlie Daniels ‎– Corbitt & Daniels Live I (1970) [Remastered 2011]

Posted By: hill0
Jerry Corbitt & Charlie Daniels ‎– Corbitt & Daniels Live I (1970) [Remastered 2011]

Jerry Corbitt & Charlie Daniels ‎– Corbitt & Daniels Live I (1970) [Remastered 2011]
EAC Rip | FLAC (image & cue & log) | 271 MB | MP3 CBR 320 kbps | 112 MB | Scans | 42:10
Genre: Folk Rock / Country Rock | Country: USA | Label: Big Pink | BIG PINK 146

Jerry Corbitt (ex Youngbloods) and Charlie Daniels' live recording in the mid 70's released on Tiger Lily. Both of 'Live I' and 'Live II' received critical acclaim. The albums contain classics like 'Stormy Monday' and 'Till You Come Back Home Again.' First time on CD! Paper Sleeve Mini Vinyl LP Replica with OBI.
Jerry Corbitt & Charlie Daniels ‎– Corbitt & Daniels Live I (1970) [Remastered 2011]




Tracklist:

1. Great Big Bunches Of Love (C. Daniels) - 3:44
2. Sweet, Gentle Lovin' (J. Corbltt) - 3:40
3. Till You Come Back Home Again (Jessie Collin-Young) - 3:30
4. Thirteenth Hour (C. Daniels) - 5:28
5. Caldonia (C. Daniels) - 4:39
6. Stormy Monday (Part 1) (Louis Armstrong) - 10:06
7. Orange Blossom Special (Ervint Rouse) - 3:12
8. Thirty-Nine Miles From Mobile (C. Daniels) - 4:55

Exact Audio Copy V0.99 prebeta 5 from 4. May 2009

EAC extraction logfile from 14. January 2012, 11:12

Jerry Corbitt & Charlie Daniels / Live 1

Used drive : TSSTcorpCD/DVDW TS-L632D Adapter: 0 ID: 0

Read mode : Secure
Utilize accurate stream : Yes
Defeat audio cache : No
Make use of C2 pointers : Yes

Read offset correction : 6
Overread into Lead-In and Lead-Out : No
Fill up missing offset samples with silence : Yes
Delete leading and trailing silent blocks : No
Null samples used in CRC calculations : No
Used interface : Native Win32 interface for Win NT & 2000

Used output format : User Defined Encoder
Selected bitrate : 768 kBit/s
Quality : High
Add ID3 tag : No
Command line compressor : C:\Program Files\Exact Audio Copy\FLAC\FLAC.EXE


TOC of the extracted CD

Track | Start | Length | Start sector | End sector
––––––––––––––––––––––––––––-
1 | 0:00.00 | 3:55.22 | 0 | 17646
2 | 3:55.22 | 4:07.37 | 17647 | 36208
3 | 8:02.59 | 3:49.60 | 36209 | 53443
4 | 11:52.44 | 5:23.10 | 53444 | 77678
5 | 17:15.54 | 4:39.52 | 77679 | 98655
6 | 21:55.31 | 10:27.15 | 98656 | 145695
7 | 32:22.46 | 4:14.72 | 145696 | 164817
8 | 36:37.43 | 5:31.22 | 164818 | 189664


Range status and errors

Selected range



Peak level 98.8 %
Range quality 100.0 %
Copy CRC 528EF0D6
Copy OK

No errors occurred


AccurateRip summary

Track 1 not present in database
Track 2 not present in database
Track 3 not present in database
Track 4 not present in database
Track 5 not present in database
Track 6 not present in database
Track 7 not present in database
Track 8 not present in database

None of the tracks are present in the AccurateRip database

End of status report


Personnel

*Charlie Daniels – Fiddles, Lead Guitar
*Jerry Corbitt - Rhythm Guitar, Harmonica, Vocals
*Joe Roman - Keyboards
*Jeffrey Meyer - Drums
*Earl Grimsby - Bass Guitar

All thanks go to the original releaser

Jerry Corbitt & Charlie Daniels ‎– Corbitt & Daniels Live I (1970) [Remastered 2011]


=====