Subcategories

Jessy Martens and Band - Brand New Ride (2012)

Posted By: gribovar
Jessy Martens and Band - Brand New Ride (2012)

Jessy Martens and Band - Brand New Ride (2012)
EAC Rip | WavPack (image+.cue+log) - 299 MB | MP3 CBR 320 kbps (LAME 3.93) - 99 MB | Covers - 93 MB
Genre: Blues, Blues Rock | RAR 3% Rec. | Label: Moon Sound Records (1315-1514-68)

Comparisons with Amy Winehouse, Bette Midler, Tina Turner, Janis Joplin or whoever may flatter the singer from Hamburg. A hefty dose of rock, blues, soul and soulful ballads.
Pressure in solid blues rock-soulful sound brings the end of 2010, newly formed band on stage. It shines beside Jessy Martens. The 22-year-old guitarist Werner novel with tremendous enthusiasm, virtuosity and feeling. Roman Werner (guitar), Jan Fischer (keyboards), Tom Rohloff (bass) and Christian Kolf (drums) provide the necessary foundation Jessy, a groove and shine as soloists. Already on their first concerts, the response was tremendous. The Kieler Nachrichten are convinced after the Blues Festival 2011: "This crew is the future!" And this, the band at a fast pace in attack: two CDs with the best reviews have been created in 2011.
Tracklist:
01. Brand New Ride
02. One Minute Love
03. Touch My Blues Away
04. Little Mama Don't Play
05. Hey Mister
06. Undone
07. Forever Mine
08. Marry Me
09. Hands Up
10. Fool 4U

Total time: 42:05

Exact Audio Copy V1.0 beta 3 from 29. August 2011

EAC extraction logfile from 16. April 2012, 14:35

Jessy Martens & Band / Brand New Ride

Used drive : Optiarc DVD RW AD-7200S Adapter: 2 ID: 1

Read mode : Secure
Utilize accurate stream : Yes
Defeat audio cache : Yes
Make use of C2 pointers : No

Read offset correction : 48
Overread into Lead-In and Lead-Out : No
Fill up missing offset samples with silence : Yes
Delete leading and trailing silent blocks : No
Null samples used in CRC calculations : Yes
Used interface : Installed external ASPI interface

Used output format : User Defined Encoder
Selected bitrate : 1024 kBit/s
Quality : High
Add ID3 tag : No
Command line compressor : C:\Program Files\Exact Audio Copy\wavpack.exe
Additional command line options : -hlmx2 %source% %dest%


TOC of the extracted CD

Track | Start | Length | Start sector | End sector
––––––––––––––––––––––––––––-
1 | 0:00.00 | 4:20.60 | 0 | 19559
2 | 4:20.60 | 4:20.64 | 19560 | 39123
3 | 8:41.49 | 5:10.05 | 39124 | 62378
4 | 13:51.54 | 4:00.33 | 62379 | 80411
5 | 17:52.12 | 4:06.56 | 80412 | 98917
6 | 21:58.68 | 3:59.13 | 98918 | 116855
7 | 25:58.06 | 3:34.32 | 116856 | 132937
8 | 29:32.38 | 4:24.69 | 132938 | 152806
9 | 33:57.32 | 3:46.64 | 152807 | 169820
10 | 37:44.21 | 4:20.61 | 169821 | 189381


Range status and errors

Selected range

Filename C:\lossless\Jessy Martens & Band\Jessy Martens & Band - Brand New Ride.wav

Peak level 100.0 %
Extraction speed 3.5 X
Range quality 100.0 %
Test CRC 4EFEFE41
Copy CRC 4EFEFE41
Copy OK

No errors occurred


AccurateRip summary

Track 1 not present in database
Track 2 not present in database
Track 3 not present in database
Track 4 not present in database
Track 5 not present in database
Track 6 not present in database
Track 7 not present in database
Track 8 not present in database
Track 9 not present in database
Track 10 not present in database

None of the tracks are present in the AccurateRip database

End of status report

–– CUETools DB Plugin V2.1.3

[CTDB TOCID: tZx2vCLifH3ufdpXe5w7Egq02aU-] found, Submit result: tZx2vCLifH3ufdpXe5w7Egq02aU- has been confirmed
[337379d8] (1/1) Accurately ripped


==== Log checksum BA5A75AA9A16A9D623385642C6D99E627E1E2EB6075ADBC1C4A5A74E92DC9A23 ====

[CUETools log; Date: 08.11.2019 18:09:00; Version: 2.1.4]
[CTDB TOCID: tZx2vCLifH3ufdpXe5w7Egq02aU-] found.
Track | CTDB Status
1 | (19/20) Accurately ripped
2 | (19/20) Accurately ripped
3 | (19/20) Accurately ripped
4 | (19/20) Accurately ripped
5 | (19/20) Accurately ripped
6 | (19/20) Accurately ripped
7 | (19/20) Accurately ripped
8 | (17/20) Accurately ripped
9 | (17/20) Accurately ripped
10 | (17/20) Accurately ripped
[AccurateRip ID: 00103535-0080c7c4-7309dd0a] found.
Track [ CRC | V2 ] Status
01 [15ee07e5|7f8df140] (02+13/15) Accurately ripped
02 [f54bdbe4|2bebaedd] (02+13/15) Accurately ripped
03 [1506e49f|ce62b365] (02+13/15) Accurately ripped
04 [28effc1e|b2095b43] (02+13/15) Accurately ripped
05 [f6da163f|f5c49e00] (02+13/15) Accurately ripped
06 [115748f8|49e6d6a6] (02+13/15) Accurately ripped
07 [9c971248|eceb4aee] (02+13/15) Accurately ripped
08 [59216776|a53dc2a9] (02+13/15) Accurately ripped
09 [cac8e007|e374d121] (02+13/15) Accurately ripped
10 [f34a98e7|52bf0079] (02+13/15) Accurately ripped

Track Peak [ CRC32 ] [W/O NULL] [ LOG ]
– 100,0 [4EFEFE41] [EBC57478] CRC32
01 100,0 [5B9AD463] [3DE1B2AC]
02 100,0 [95889829] [082CC8FF]
03 100,0 [2AE0EE0D] [2CE2A2DB]
04 100,0 [16B58B2C] [D8CE31E7]
05 100,0 [48F7B737] [0BB1B248]
06 100,0 [3A1404E0] [A9C1EA64]
07 100,0 [5CF662CB] [9C225C1C]
08 100,0 [AF1BAF50] [5ECCD3E6]
09 100,0 [AE882338] [0DFC012A]
10 100,0 [BBF069A9] [25DB4ACD]

Thanks to taurus66