Subcategories

Andrew Lloyd Webber & Tim Rice - Jesus Christ Superstar (1970)

Posted By: v3122
Andrew Lloyd Webber & Tim Rice - Jesus Christ Superstar (1970)

Andrew Lloyd Webber & Tim Rice - Jesus Christ Superstar (1970)
EAC | Flac(Image) + Cue + Log & MP3 CBR 320Kbps
2CD | 1991 | BMG Ariola, MCD 00501 | ~ 515 or 206 Mb | Scans(png) -> 100 Mb
Rock Opera / Art Rock

Jesus Christ Superstar is a 1970 rock opera by Andrew Lloyd Webber and Tim Rice. The album musical is a musical dramatisation of the last week of the life of Jesus Christ, beginning with his entry into Jerusalem and ending with the Crucifixion. It was originally banned by the BBC on grounds of being "sacrilegious."…

~ wiki
Andrew Lloyd Webber & Tim Rice - Jesus Christ Superstar (1970):

Andrew Lloyd Webber & Tim Rice - Jesus Christ Superstar (1970)

Tracklist CD1:

01. Overture [3:59]
02. Heaven On Their Minds [4:22]
03. What's The Buzz / Strange Thing Mystifying [4:14]
04. Everything's Alright [5:14]
05. This Jesus Must Die [3:37]
06. Hosanna [2:09]
07. Simon Zealotes / Poor Jerusalem [4:47]
08. Pilate's Dream [1:29]
09. The Temple [4:43]
10. Everything's Alright (Reprise) [0:32]
11. I Don't Know How To Love Him [3:38]
12. Damned For All Time / Blood Money [5:09]

Exact Audio Copy V1.3 from 2. September 2016

EAC extraction logfile from 1. April 2017, 13:53

Webber & Rice / «JESUS CHRIST SUPERSTAR» (W.Germany, BMG, MCD 00501-1)

Used drive : ASUS DRW-24B3ST Adapter: 1 ID: 2

Read mode : Secure
Utilize accurate stream : Yes
Defeat audio cache : Yes
Make use of C2 pointers : No

Read offset correction : 6
Overread into Lead-In and Lead-Out : No
Fill up missing offset samples with silence : Yes
Delete leading and trailing silent blocks : No
Null samples used in CRC calculations : Yes
Used interface : Native Win32 interface for Win NT & 2000

Used output format : User Defined Encoder
Selected bitrate : 1024 kBit/s
Quality : High
Add ID3 tag : No
Command line compressor : C:\Program Files\EAC(v.1.3)\WV\wavpack.exe
Additional command line options : -h -hh -m %source%


TOC of the extracted CD

Track | Start | Length | Start sector | End sector
––––––––––––––––––––––––––––-
1 | 0:00.43 | 3:59.17 | 43 | 17984
2 | 3:59.60 | 4:22.03 | 17985 | 37637
3 | 8:21.63 | 4:13.42 | 37638 | 56654
4 | 12:35.30 | 5:14.23 | 56655 | 80227
5 | 17:49.53 | 3:36.70 | 80228 | 96497
6 | 21:26.48 | 2:08.67 | 96498 | 106164
7 | 23:35.40 | 4:47.33 | 106165 | 127722
8 | 28:22.73 | 1:28.40 | 127723 | 134362
9 | 29:51.38 | 4:43.02 | 134363 | 155589
10 | 34:34.40 | 0:32.08 | 155590 | 157997
11 | 35:06.48 | 3:37.60 | 157998 | 174332
12 | 38:44.33 | 5:09.10 | 174333 | 197517


Range status and errors

Selected range

Filename F:\Andrew Lloyd Webber & Tim Rice «JESUS CHRIST SUPERSTAR» (1970) (DE 2 x CD 1991 BMG Ariola GmbH • MCD 00501)\Webber & Rice - «JESUS CHRIST SUPERSTAR» (W.Germany, BMG, MCD 00501-1).wav

Peak level 97.7 %
Extraction speed 7.3 X
Range quality 100.0 %
Test CRC 718DD884
Copy CRC 718DD884
Copy OK

No errors occurred


AccurateRip summary

Track 1 accurately ripped (confidence 44) [86D007D1] (AR v2)
Track 2 accurately ripped (confidence 47) [006E0D77] (AR v2)
Track 3 accurately ripped (confidence 47) [DCB1160B] (AR v2)
Track 4 accurately ripped (confidence 47) [7D09EDE8] (AR v2)
Track 5 accurately ripped (confidence 46) [E852DE0E] (AR v2)
Track 6 accurately ripped (confidence 46) [D1692411] (AR v2)
Track 7 accurately ripped (confidence 46) [DC02A252] (AR v2)
Track 8 accurately ripped (confidence 46) [4FE213DE] (AR v2)
Track 9 accurately ripped (confidence 46) [73ED8195] (AR v2)
Track 10 accurately ripped (confidence 46) [153298B9] (AR v2)
Track 11 accurately ripped (confidence 46) [6FC07D18] (AR v2)
Track 12 accurately ripped (confidence 45) [C7A7BDA9] (AR v2)

All tracks accurately ripped

End of status report

==== Log checksum C5925B0DD9AEA8F6EB69E5389B371F4B70F35AC062FF1772018666CD7367D13C ====

foobar2000 1.2.9 / Dynamic Range Meter 1.1.1
log date: 2017-04-03 13:07:17

––––––––––––––––––––––––––––––––––––––––
Analyzed: Webber & Rice / В«JESUS CHRIST SUPERSTARВ» (W.Germany, BMG, MCD 00501-1)
––––––––––––––––––––––––––––––––––––––––

DR Peak RMS Duration Track
––––––––––––––––––––––––––––––––––––––––
DR11 -0.20 dB -15.45 dB 3:59 01-Overture
DR11 -0.20 dB -14.94 dB 4:22 02-Heaven On Their Minds
DR11 -1.63 dB -15.60 dB 4:14 03-What's The Buzz / Strange Thing Mystifying
DR12 -0.20 dB -16.54 dB 5:14 04-Everything's Alright
DR11 -2.68 dB -17.94 dB 3:37 05-This Jesus Must Die
DR11 -2.32 dB -15.84 dB 2:09 06-Hosanna
DR11 -3.61 dB -17.90 dB 4:47 07-Simon Zealotes / Poor Jerusalem
DR12 -2.81 dB -17.82 dB 1:29 08-Pilate's Dream
DR10 -2.08 dB -16.92 dB 4:43 09-The Temple
DR10 -6.65 dB -20.16 dB 0:32 10-Everything's Alright (Reprise)
DR11 -0.25 dB -14.48 dB 3:38 11-I Don't Know How To Love Him
DR13 -1.26 dB -17.00 dB 5:09 12-Damned For All Time / Blood Money
––––––––––––––––––––––––––––––––––––––––

Number of tracks: 12
Official DR value: DR11

Samplerate: 44100 Hz
Channels: 2
Bits per sample: 16
Bitrate: 808 kbps
Codec: FLAC

[CUETools log; Date: 03.04.2017 13:07:09; Version: 2.1.4]
Pregap length 00:00:43.
[CTDB TOCID: RwPmetoA2AmCAGKJ2wHwxO5eA.A-] found.
Track | CTDB Status
1 | (64/65) Accurately ripped
2 | (65/65) Accurately ripped
3 | (65/65) Accurately ripped
4 | (65/65) Accurately ripped
5 | (65/65) Accurately ripped
6 | (65/65) Accurately ripped
7 | (65/65) Accurately ripped
8 | (65/65) Accurately ripped
9 | (65/65) Accurately ripped
10 | (65/65) Accurately ripped
11 | (65/65) Accurately ripped
12 | (65/65) Accurately ripped
[AccurateRip ID: 00147d11-00bb6e61-940a490c] found.
Track [ CRC | V2 ] Status
01 [be2c19f0|86d007d1] (052+044/096) Accurately ripped
02 [2ce0c467|006e0d77] (055+047/104) Accurately ripped
03 [7beeab74|dcb1160b] (054+047/103) Accurately ripped
04 [6f450886|7d09ede8] (054+047/103) Accurately ripped
05 [65c97f0a|e852de0e] (055+046/101) Accurately ripped
06 [f471b49c|d1692411] (054+046/102) Accurately ripped
07 [70ae8400|dc02a252] (050+046/098) Accurately ripped
08 [f81d2242|4fe213de] (054+046/102) Accurately ripped
09 [6011f74e|73ed8195] (053+046/101) Accurately ripped
10 [ecdb9942|153298b9] (053+046/101) Accurately ripped
11 [9bce29fe|6fc07d18] (053+046/099) Accurately ripped
12 [fbb9c7ac|c7a7bda9] (032+045/097) Accurately ripped
Offsetted by -106:
01 [23119016] (000/096) No match (V2 was not tested)
02 [d74d3899] (000/104) No match (V2 was not tested)
03 [9e5a734c] (000/103) No match (V2 was not tested)
04 [0c5207a1] (000/103) No match (V2 was not tested)
05 [878c9de6] (000/101) No match (V2 was not tested)
06 [5f993514] (000/102) No match (V2 was not tested)
07 [3e98d74c] (000/098) No match (V2 was not tested)
08 [3cba5441] (000/102) No match (V2 was not tested)
09 [efee5ed8] (000/101) No match (V2 was not tested)
10 [5fba9453] (000/101) No match (V2 was not tested)
11 [46dcaa5e] (000/099) No match (V2 was not tested)
12 [2804ad57] (000/097) No match (V2 was not tested)

Track Peak [ CRC32 ] [W/O NULL] [ LOG ]
– 97,7 [718DD884] [0EB0FBE1] CRC32
01 97,7 [A3D559F2] [4E22CEFB]
02 97,7 [BF81FD03] [75C3C7EF]
03 82,9 [44359D14] [B25782CD]
04 97,7 [5E6588B2] [5D635943]
05 73,4 [9E5BF55B] [C4A163B1]
06 76,5 [59CA6F6C] [020FEC36]
07 65,9 [F32BC72F] [19896488]
08 72,3 [F918EAC8] [E335105A]
09 78,7 [4BE79DE9] [557070E8]
10 46,4 [C60AF577] [80889259]
11 97,1 [1ED24A93] [32BD2AE6]
12 86,4 [C757A265] [B7670E60]

Andrew Lloyd Webber & Tim Rice - Jesus Christ Superstar (1970)

Tracklist CD2:

01. The Last Supper [7:08]
02. Gethsemane (I Only Want To Say) [5:33]
03. The Arrest [3:21]
04. Peter's Denial [1:29]
05. Pilate And Christ [2:44]
06. King Herod's Song (Try It And See) [3:03]
07. Judas' Death [4:15]
08. Trial Before Pilate (Including The 39 Lashes) [5:13]
09. Superstar [4:16]
10. Crucifixion [4:06]
11. John Nineteen Forty-One [2:09]

Exact Audio Copy V1.3 from 2. September 2016

EAC extraction logfile from 1. April 2017, 14:17

Webber & Rice / «JESUS CHRIST SUPERSTAR» (W.Germany, BMG, MCD 00501-2)

Used drive : ASUS DRW-24B3ST Adapter: 1 ID: 2

Read mode : Secure
Utilize accurate stream : Yes
Defeat audio cache : Yes
Make use of C2 pointers : No

Read offset correction : 6
Overread into Lead-In and Lead-Out : No
Fill up missing offset samples with silence : Yes
Delete leading and trailing silent blocks : No
Null samples used in CRC calculations : Yes
Used interface : Native Win32 interface for Win NT & 2000

Used output format : User Defined Encoder
Selected bitrate : 1024 kBit/s
Quality : High
Add ID3 tag : No
Command line compressor : C:\Program Files\EAC(v.1.3)\WV\wavpack.exe
Additional command line options : -h -hh -m %source%


TOC of the extracted CD

Track | Start | Length | Start sector | End sector
––––––––––––––––––––––––––––-
1 | 0:00.43 | 7:08.15 | 43 | 32157
2 | 7:08.58 | 5:33.02 | 32158 | 57134
3 | 12:41.60 | 3:20.60 | 57135 | 72194
4 | 16:02.45 | 1:28.38 | 72195 | 78832
5 | 17:31.08 | 2:43.67 | 78833 | 91124
6 | 20:15.00 | 3:02.65 | 91125 | 104839
7 | 23:17.65 | 4:15.08 | 104840 | 123972
8 | 27:32.73 | 5:12.70 | 123973 | 147442
9 | 32:45.68 | 4:16.02 | 147443 | 166644
10 | 37:01.70 | 4:05.70 | 166645 | 185089
11 | 41:07.65 | 2:09.03 | 185090 | 194767


Range status and errors

Selected range

Filename F:\Andrew Lloyd Webber & Tim Rice «JESUS CHRIST SUPERSTAR» (1970) (DE 2 x CD 1991 BMG Ariola GmbH • MCD 00501)\Webber & Rice - «JESUS CHRIST SUPERSTAR» (W.Germany, BMG, MCD 00501-2).wav

Peak level 97.7 %
Extraction speed 7.2 X
Range quality 99.9 %
Test CRC AFB9137F
Copy CRC AFB9137F
Copy OK

No errors occurred


AccurateRip summary

Track 1 accurately ripped (confidence 60) [5A61CE21] (AR v2)
Track 2 accurately ripped (confidence 58) [9FED3EEA] (AR v2)
Track 3 accurately ripped (confidence 58) [B40AE93B] (AR v2)
Track 4 accurately ripped (confidence 58) [FBE452BC] (AR v2)
Track 5 accurately ripped (confidence 58) [0989F8A8] (AR v2)
Track 6 accurately ripped (confidence 58) [508EB4A7] (AR v2)
Track 7 accurately ripped (confidence 58) [F51DFECD] (AR v2)
Track 8 accurately ripped (confidence 58) [114F5E13] (AR v2)
Track 9 accurately ripped (confidence 59) [8565E086] (AR v2)
Track 10 accurately ripped (confidence 59) [0EFADA9C] (AR v2)
Track 11 accurately ripped (confidence 60) [DD047CF2] (AR v2)

All tracks accurately ripped

End of status report

==== Log checksum 1F4CA3FC49A936860A374C32AD8201152A9F3A61D8A9E361AB6A30E5C20B1452 ====

foobar2000 1.2.9 / Dynamic Range Meter 1.1.1
log date: 2017-04-03 13:07:01

––––––––––––––––––––––––––––––––––––––––
Analyzed: Webber & Rice / В«JESUS CHRIST SUPERSTARВ» (W.Germany, BMG, MCD 00501-2)
––––––––––––––––––––––––––––––––––––––––

DR Peak RMS Duration Track
––––––––––––––––––––––––––––––––––––––––
DR13 -0.78 dB -18.09 dB 7:08 01-The Last Supper
DR11 -0.20 dB -14.19 dB 5:33 02-Gethsemane (I Only Want To Say)
DR13 -0.20 dB -18.76 dB 3:21 03-The Arrest
DR12 -2.63 dB -18.84 dB 1:29 04-Peter's Denial
DR12 -3.79 dB -19.31 dB 2:44 05-Pilate And Christ
DR12 -1.81 dB -16.97 dB 3:03 06-King Herod's Song (Try It And See)
DR11 -2.11 dB -17.13 dB 4:15 07-Judas' Death
DR14 -0.20 dB -17.47 dB 5:13 08-Trial Before Pilate (Including The 39 Lashes)
DR9 -4.56 dB -16.33 dB 4:16 09-Superstar
DR12 -2.26 dB -19.46 dB 4:06 10-Crucifixion
DR11 -5.71 dB -22.96 dB 2:09 11-John Nineteen Forty-One
––––––––––––––––––––––––––––––––––––––––

Number of tracks: 11
Official DR value: DR12

Samplerate: 44100 Hz
Channels: 2
Bits per sample: 16
Bitrate: 797 kbps
Codec: FLAC

[CUETools log; Date: 03.04.2017 13:06:55; Version: 2.1.4]
Pregap length 00:00:43.
[CTDB TOCID: .vK6kWOyvnJrJ.rHYK7c2LtRKpk-] found.
Track | CTDB Status
1 | (117/122) Accurately ripped
2 | (121/122) Accurately ripped
3 | (122/122) Accurately ripped
4 | (122/122) Accurately ripped
5 | (122/122) Accurately ripped
6 | (122/122) Accurately ripped
7 | (122/122) Accurately ripped
8 | (122/122) Accurately ripped
9 | (122/122) Accurately ripped
10 | (121/122) Accurately ripped
11 | (122/122) Accurately ripped
[AccurateRip ID: 00132368-00a11946-9b0a240b] found.
Track [ CRC | V2 ] Status
01 [594535f1|5a61ce21] (062+060/167) Accurately ripped
02 [8cf74954|9fed3eea] (060+058/163) Accurately ripped
03 [01ed882c|b40ae93b] (059+058/162) Accurately ripped
04 [10bbabb6|fbe452bc] (063+058/167) Accurately ripped
05 [1acf9143|0989f8a8] (063+058/167) Accurately ripped
06 [d7d73ada|508eb4a7] (062+058/166) Accurately ripped
07 [5ab37509|f51dfecd] (060+058/164) Accurately ripped
08 [619e9452|114f5e13] (061+058/165) Accurately ripped
09 [acd405cd|8565e086] (061+059/166) Accurately ripped
10 [9037a562|0efada9c] (062+059/167) Accurately ripped
11 [d156376a|dd047cf2] (061+060/167) Accurately ripped
Offsetted by -664:
01 [ab71b67a] (010/167) Accurately ripped
02 [a133cf93] (009/163) Accurately ripped
03 [b3baf18a] (010/162) Accurately ripped
04 [d0ce667b] (010/167) Accurately ripped
05 [fc2ce4aa] (010/167) Accurately ripped
06 [6f221a8a] (010/166) Accurately ripped
07 [93511275] (010/164) Accurately ripped
08 [f3400764] (010/165) Accurately ripped
09 [47a611ba] (010/166) Accurately ripped
10 [912f07c4] (010/167) Accurately ripped
11 [c7802a13] (010/167) Accurately ripped
Offsetted by -594:
01 [04089677] (002/167) Accurately ripped
02 [414fa882] (002/163) Accurately ripped
03 [fb19286a] (002/162) Accurately ripped
04 [95ff4e68] (002/167) Accurately ripped
05 [bdff382a] (002/167) Accurately ripped
06 [9d8f309b] (002/166) Accurately ripped
07 [16909d61] (002/164) Accurately ripped
08 [f54acc88] (002/165) Accurately ripped
09 [f0658272] (002/166) Accurately ripped
10 [7786d01c] (002/167) Accurately ripped
11 [9c7d1ab3] (002/167) Accurately ripped
Offsetted by -1328:
01 [c4528497] (000/167) No match (V2 was not tested)
02 [99b2a11d] (000/163) No match (V2 was not tested)
03 [a19f92b1] (000/162) No match (V2 was not tested)
04 [5235774e] (000/167) No match (V2 was not tested)
05 [e0412d65] (000/167) No match (V2 was not tested)
06 [76d60a5e] (000/166) No match (V2 was not tested)
07 [6e5bbe83] (000/164) No match (V2 was not tested)
08 [fa0af56d] (000/165) No match (V2 was not tested)
09 [1ccac38b] (000/166) No match (V2 was not tested)
10 [54b21149] (000/167) No match (V2 was not tested)
11 [160e8852] (000/167) No match (V2 was not tested)
Offsetted by -564:
01 [99969e6f] (000/167) No match (V2 was not tested)
02 [60adca80] (000/163) No match (V2 was not tested)
03 [cf53d4d5] (000/162) No match (V2 was not tested)
04 [e51a908e] (000/167) No match (V2 was not tested)
05 [4162e092] (000/167) No match (V2 was not tested)
06 [014f8d1b] (000/166) No match (V2 was not tested)
07 [c8bd970c] (000/164) No match (V2 was not tested)
08 [6e0a3b2e] (000/165) No match (V2 was not tested)
09 [06700920] (000/166) No match (V2 was not tested)
10 [0bb661c2] (000/167) No match (V2 was not tested)
11 [5a5cdc09] (000/167) No match (V2 was not tested)
Offsetted by -110:
01 [3b74dbce] (000/167) No match (V2 was not tested)
02 [ecb8ab9c] (000/163) No match (V2 was not tested)
03 [f285b5e6] (000/162) No match (V2 was not tested)
04 [37d571e1] (000/167) No match (V2 was not tested)
05 [650c1814] (000/167) No match (V2 was not tested)
06 [1298b860] (000/166) No match (V2 was not tested)
07 [4a52991b] (000/164) No match (V2 was not tested)
08 [afadbae5] (000/165) No match (V2 was not tested)
09 [85927bb7] (000/166) No match (V2 was not tested)
10 [7596f7af] (000/167) No match (V2 was not tested)
11 [d20452e7] (000/167) No match (V2 was not tested)

Track Peak [ CRC32 ] [W/O NULL] [ LOG ]
– 97,7 [AFB9137F] [71985F37] CRC32
01 91,4 [49FBCBCE] [AFB0095D]
02 97,7 [6DF5FB22] [11EFDEA3]
03 97,7 [82E33D15] [645192DD]
04 73,8 [2ECABC14] [66D6DA6B]
05 64,6 [744B6208] [A0114EE3]
06 81,2 [E0FB94A2] [8CFEC5AF]
07 78,4 [6393FAF7] [81BBA7A0]
08 97,7 [D79B3BA8] [AC66B5D7]
09 59,1 [9EEC0CF7] [1402DBCA]
10 77,1 [1998D5BD] [742EB677]
11 51,8 [5C7E2BE2] [855EBA7E]

Andrew Lloyd Webber & Tim Rice - Jesus Christ Superstar (1970)

All thanks go to the original releaser

Ian Gillan in my Blog

Download Andrew Lloyd Webber & Tim Rice - Jesus Christ Superstar (1970):