Tags
Language
Tags

Jesus Jones - Perverse (Remastered Deluxe Edition) (1993/2014)

Posted By: Rtax
Jesus Jones - Perverse (Remastered Deluxe Edition) (1993/2014)

Jesus Jones - Perverse (Remastered Deluxe Edition) (1993/2014)
EAC Rip | FLAC (tracks, cue, log, scans) - 1.1 GB | MP3 CBR 320 kbps - 392 MB
2:37:43 | Alternative Rock, Indie Rock, Synth-pop | Label: Edsel/Rhino

Digitally remastered and expanded three disc (two CDs + NTSC/Region 0 DVD) edition of this 1993 album from the British band. This casebound book edition of the album is expanded to feature rare tracks, a radio session, demos and sought-after mixes plus a DVD featuring promo videos and live footage. The 24-page book features photos, memorabilia and extensive annotation by Iain Baker of the band. PERRVERSE features the hit singles 'Zeroes And Ones', 'The Right Decision' and Top 10 hit 'The Devil You Know', Incorporating elements of electronic music styles such as House and Techno to an Indie Rock format, along with fellow British groups such as the Shamen, Pop Will Eat Itself and EMF, Jesus Jones were one of the leading purveyors of the early 1990s Indie Dance scene.

Tracklist
Perverse
CD1-1 Zeroes And Ones 3:24
CD1-2 The Devil You Know 4:31
CD1-3 Get A Good Thing 3:23
CD1-4 From Love To War 3:49
CD1-5 Yellow Brown 3:23
CD1-6 Magazine 2:46
CD1-7 The Right Decision 3:36
CD1-8 Your Crusade 3:30
CD1-9 Don't Believe It 3:45
CD1-10 Tongue Tied 3:16
CD1-11 Spiral 4:30
CD1-12 Idiot Stare 5:10

Singles B-Sides, Remixes
CD1-13 Zeroes And Ones (The Prodigy Versus Jesus Jones Mix) 5:41
CD1-14 The Devil You Know (Kidney Mix) 5:06
CD1-15 The Right Decision (Klanger Mix) 4:35
CD1-16 Phoenix 4:38
CD1-17 Zeroes And Ones (Aphex Twin Reconstruction (1) Mix) 7:59
CD1-18 Zeroes And Ones (Aphex Twin Reconstruction (2) Mix) 5:50

More Singles B-Sides, Remixes
CD2-1 The Right Decision (Edit) 3:26
CD2-2 Want To Know (Knowledge Mix) 4:00
CD2-3 Zeroes And Ones (Central Nervous System Mix) 4:34
CD2-4 The Right Decision (Moody Reconstruction Mix) 6:36
CD2-5 The Devil You Know (Satellite Over Tehran Mix) 5:42
CD2-6 Starting From Scratch 3:05
CD2-7 The Right Decision (Acid Confusion Mix) 6:12

BBC Radio 1 Session 19/12/92
CD2-8 Idiot Stare 5:14
CD2-9 Zeroes And Ones 3:32
CD2-10 The Devil You Know 4:32
CD2-11 Magazine 2:49

Previously Unreleased
CD2-12 Magazine (Demo) 3:03
CD2-13 Get A Good Thing (Demo) 3:33
CD2-14 St Louis 4:36
CD2-15 Krexa 3:45
CD2-16 15-11-91 - Meteor Boy (Demo) 3:40
CD2-17 As Good As It Gets (Demo) 3:14
CD2-18 Time Of Our Own (Demo) 3:07
CD2-19 Every Little Bit (Version 2 Demo) 3:39
Exact Audio Copy V1.3 from 2. September 2016

EAC extraction logfile from 11. December 2017, 19:27

Jesus Jones / Perverse

Used drive : HL-DT-STDVD+-RW GU90N Adapter: 1 ID: 0

Read mode : Secure
Utilize accurate stream : Yes
Defeat audio cache : Yes
Make use of C2 pointers : No

Read offset correction : 102
Overread into Lead-In and Lead-Out : No
Fill up missing offset samples with silence : Yes
Delete leading and trailing silent blocks : No
Null samples used in CRC calculations : Yes
Used interface : Native Win32 interface for Win NT & 2000
Gap handling : Appended to previous track

Used output format : User Defined Encoder
Selected bitrate : 896 kBit/s
Quality : High
Add ID3 tag : No
Command line compressor : E:\Exact Audio Copy\Flac\flac.exe
Additional command line options : -V -8 -T "Genre=%genre%" -T "Artist=%artist%" -T "Title=%title%" -T "Album=%albumtitle%" -T "Date=%year%" -T "Tracknumber=%tracknr%" -T "Comment=%comment%" %source%


TOC of the extracted CD

Track | Start | Length | Start sector | End sector
––––––––––––––––––––––––––––-
1 | 0:00.00 | 3:26.11 | 0 | 15460
2 | 3:26.11 | 4:32.64 | 15461 | 35924
3 | 7:59.00 | 3:23.46 | 35925 | 51195
4 | 11:22.46 | 3:48.44 | 51196 | 68339
5 | 15:11.15 | 3:24.56 | 68340 | 83695
6 | 18:35.71 | 2:45.73 | 83696 | 96143
7 | 21:21.69 | 3:37.24 | 96144 | 112442
8 | 24:59.18 | 3:30.18 | 112443 | 128210
9 | 28:29.36 | 3:46.15 | 128211 | 145175
10 | 32:15.51 | 3:16.21 | 145176 | 159896
11 | 35:31.72 | 4:30.33 | 159897 | 180179
12 | 40:02.30 | 5:11.53 | 180180 | 203557
13 | 45:14.08 | 5:43.06 | 203558 | 229288
14 | 50:57.14 | 5:04.20 | 229289 | 252108
15 | 56:01.34 | 4:34.42 | 252109 | 272700
16 | 60:36.01 | 4:39.42 | 272701 | 293667
17 | 65:15.43 | 7:59.57 | 293668 | 329649
18 | 73:15.25 | 5:50.64 | 329650 | 355963


Track 1

Filename D:\MyRips\Jesus Jones - 1993 - Perverse\CD1\01. Zeroes And Ones.wav

Pre-gap length 0:00:02.00

Peak level 95.3 %
Extraction speed 2.4 X
Track quality 99.9 %
Test CRC 3CC2221F
Copy CRC 3CC2221F
Accurately ripped (confidence 5) [0577DC01] (AR v2)
Copy OK

Track 2

Filename D:\MyRips\Jesus Jones - 1993 - Perverse\CD1\02. The Devil You Know.wav

Pre-gap length 0:00:01.13

Peak level 88.5 %
Extraction speed 2.8 X
Track quality 99.9 %
Test CRC F804A6BF
Copy CRC F804A6BF
Accurately ripped (confidence 5) [0BDC6FAB] (AR v2)
Copy OK

Track 3

Filename D:\MyRips\Jesus Jones - 1993 - Perverse\CD1\03. Get A Good Thing.wav

Pre-gap length 0:00:01.38

Peak level 93.3 %
Extraction speed 3.3 X
Track quality 100.0 %
Test CRC D0A61B9A
Copy CRC D0A61B9A
Accurately ripped (confidence 5) [021F542B] (AR v2)
Copy OK

Track 4

Filename D:\MyRips\Jesus Jones - 1993 - Perverse\CD1\04. From Love To War.wav

Pre-gap length 0:00:01.09

Peak level 99.4 %
Extraction speed 3.4 X
Track quality 100.0 %
Test CRC 02CB1B50
Copy CRC 02CB1B50
Accurately ripped (confidence 5) [C71F3157] (AR v2)
Copy OK

Track 5

Filename D:\MyRips\Jesus Jones - 1993 - Perverse\CD1\05. Yellow Brown.wav

Peak level 99.4 %
Extraction speed 3.6 X
Track quality 100.0 %
Test CRC 5D46D9A8
Copy CRC 5D46D9A8
Accurately ripped (confidence 5) [083BD96D] (AR v2)
Copy OK

Track 6

Filename D:\MyRips\Jesus Jones - 1993 - Perverse\CD1\06. Magazine.wav

Pre-gap length 0:00:00.59

Peak level 99.4 %
Extraction speed 3.0 X
Track quality 99.9 %
Test CRC 484B8C8F
Copy CRC 484B8C8F
Accurately ripped (confidence 5) [067A6BB9] (AR v2)
Copy OK

Track 7

Filename D:\MyRips\Jesus Jones - 1993 - Perverse\CD1\07. The Right Decision.wav

Pre-gap length 0:00:00.49

Peak level 99.4 %
Extraction speed 3.7 X
Track quality 100.0 %
Test CRC 08AADECF
Copy CRC 08AADECF
Accurately ripped (confidence 5) [B6A4B056] (AR v2)
Copy OK

Track 8

Filename D:\MyRips\Jesus Jones - 1993 - Perverse\CD1\08. Your Crusade.wav

Pre-gap length 0:00:00.60

Peak level 99.4 %
Extraction speed 3.9 X
Track quality 100.0 %
Test CRC 5C85D620
Copy CRC 5C85D620
Accurately ripped (confidence 5) [63AEACFC] (AR v2)
Copy OK

Track 9

Filename D:\MyRips\Jesus Jones - 1993 - Perverse\CD1\09. Don't Believe It.wav

Pre-gap length 0:00:00.69

Peak level 88.6 %
Extraction speed 4.0 X
Track quality 100.0 %
Test CRC 34423FF0
Copy CRC 34423FF0
Accurately ripped (confidence 5) [19CAD858] (AR v2)
Copy OK

Track 10

Filename D:\MyRips\Jesus Jones - 1993 - Perverse\CD1\10. Tongue Tied.wav

Pre-gap length 0:00:00.36

Peak level 89.6 %
Extraction speed 4.1 X
Track quality 100.0 %
Test CRC 7F56CB83
Copy CRC 7F56CB83
Accurately ripped (confidence 5) [AFA646DF] (AR v2)
Copy OK

Track 11

Filename D:\MyRips\Jesus Jones - 1993 - Perverse\CD1\11. Spiral.wav

Pre-gap length 0:00:00.35

Peak level 98.4 %
Extraction speed 3.9 X
Track quality 100.0 %
Test CRC B9209BEC
Copy CRC B9209BEC
Accurately ripped (confidence 5) [16423ED7] (AR v2)
Copy OK

Track 12

Filename D:\MyRips\Jesus Jones - 1993 - Perverse\CD1\12. Idiot Stare.wav

Peak level 83.1 %
Extraction speed 2.5 X
Track quality 100.0 %
Test CRC 982373E7
Copy CRC 982373E7
Accurately ripped (confidence 5) [A8199685] (AR v2)
Copy OK

Track 13

Filename D:\MyRips\Jesus Jones - 1993 - Perverse\CD1\13. Zeroes And Ones (The Prodigy Versus Jesus Jones Mix).wav

Pre-gap length 0:00:02.47

Peak level 99.4 %
Extraction speed 3.0 X
Track quality 100.0 %
Test CRC EC4300B7
Copy CRC EC4300B7
Accurately ripped (confidence 5) [635135D6] (AR v2)
Copy OK

Track 14

Filename D:\MyRips\Jesus Jones - 1993 - Perverse\CD1\14. The Devil You Know (Kidney Mix).wav

Pre-gap length 0:00:00.14

Peak level 99.4 %
Extraction speed 5.0 X
Track quality 100.0 %
Test CRC 8B5B4F8B
Copy CRC 8B5B4F8B
Accurately ripped (confidence 5) [11459430] (AR v2)
Copy OK

Track 15

Filename D:\MyRips\Jesus Jones - 1993 - Perverse\CD1\15. The Right Decision (Klanger Mix).wav

Pre-gap length 0:00:00.39

Peak level 99.4 %
Extraction speed 4.5 X
Track quality 99.9 %
Test CRC 02F0C47D
Copy CRC 02F0C47D
Accurately ripped (confidence 5) [F9365EB9] (AR v2)
Copy OK

Track 16

Filename D:\MyRips\Jesus Jones - 1993 - Perverse\CD1\16. Phoenix.wav

Pre-gap length 0:00:00.46

Peak level 99.4 %
Extraction speed 5.1 X
Track quality 100.0 %
Test CRC 68891ABE
Copy CRC 68891ABE
Accurately ripped (confidence 5) [24E3AE13] (AR v2)
Copy OK

Track 17

Filename D:\MyRips\Jesus Jones - 1993 - Perverse\CD1\17. Zeroes And Ones (Aphex Twin Reconstruction (1) Mix).wav

Pre-gap length 0:00:00.69

Peak level 99.4 %
Extraction speed 5.1 X
Track quality 100.0 %
Test CRC 62B460A3
Copy CRC 62B460A3
Accurately ripped (confidence 5) [470D704E] (AR v2)
Copy OK

Track 18

Filename D:\MyRips\Jesus Jones - 1993 - Perverse\CD1\18. Zeroes And Ones (Aphex Twin Reconstruction (2) Mix).wav

Pre-gap length 0:00:00.66

Peak level 99.4 %
Extraction speed 3.2 X
Track quality 100.0 %
Test CRC 056F10E9
Copy CRC 056F10E9
Accurately ripped (confidence 5) [3362B6C6] (AR v2)
Copy OK


All tracks accurately ripped

No errors occurred

End of status report

–– CUETools DB Plugin V2.1.6

[CTDB TOCID: tiy0hNBLpggO0pm542lmJy1OKuU-] found
Submit result: tiy0hNBLpggO0pm542lmJy1OKuU- has been confirmed
Track | CTDB Status
1 | (11/11) Accurately ripped
2 | (11/11) Accurately ripped
3 | (11/11) Accurately ripped
4 | (11/11) Accurately ripped
5 | (11/11) Accurately ripped
6 | (11/11) Accurately ripped
7 | (11/11) Accurately ripped
8 | (11/11) Accurately ripped
9 | (11/11) Accurately ripped
10 | (11/11) Accurately ripped
11 | (11/11) Accurately ripped
12 | (11/11) Accurately ripped
13 | (11/11) Accurately ripped
14 | (11/11) Accurately ripped
15 | (11/11) Accurately ripped
16 | (11/11) Accurately ripped
17 | (11/11) Accurately ripped
18 | (11/11) Accurately ripped


==== Log checksum 99ABF18C9F26BF64B8523F553FBED136FB5575F6B26CB5B8216A8ED1919C6456 ====


Exact Audio Copy V1.3 from 2. September 2016

EAC extraction logfile from 11. December 2017, 20:13

Jesus Jones / Perverse

Used drive : HL-DT-STDVD+-RW GU90N Adapter: 1 ID: 0

Read mode : Secure
Utilize accurate stream : Yes
Defeat audio cache : Yes
Make use of C2 pointers : No

Read offset correction : 102
Overread into Lead-In and Lead-Out : No
Fill up missing offset samples with silence : Yes
Delete leading and trailing silent blocks : No
Null samples used in CRC calculations : Yes
Used interface : Native Win32 interface for Win NT & 2000
Gap handling : Appended to previous track

Used output format : User Defined Encoder
Selected bitrate : 896 kBit/s
Quality : High
Add ID3 tag : No
Command line compressor : E:\Exact Audio Copy\Flac\flac.exe
Additional command line options : -V -8 -T "Genre=%genre%" -T "Artist=%artist%" -T "Title=%title%" -T "Album=%albumtitle%" -T "Date=%year%" -T "Tracknumber=%tracknr%" -T "Comment=%comment%" %source%


TOC of the extracted CD

Track | Start | Length | Start sector | End sector
––––––––––––––––––––––––––––-
1 | 0:00.00 | 3:28.12 | 0 | 15611
2 | 3:28.12 | 4:01.37 | 15612 | 33723
3 | 7:29.49 | 4:35.68 | 33724 | 54416
4 | 12:05.42 | 6:37.72 | 54417 | 84263
5 | 18:43.39 | 5:42.36 | 84264 | 109949
6 | 24:26.00 | 3:06.40 | 109950 | 123939
7 | 27:32.40 | 6:14.02 | 123940 | 151991
8 | 33:46.42 | 5:12.68 | 151992 | 175459
9 | 38:59.35 | 3:33.66 | 175460 | 191500
10 | 42:33.26 | 4:33.42 | 191501 | 212017
11 | 47:06.68 | 2:48.70 | 212018 | 224687
12 | 49:55.63 | 3:01.38 | 224688 | 238300
13 | 52:57.26 | 3:33.04 | 238301 | 254279
14 | 56:30.30 | 4:37.07 | 254280 | 275061
15 | 61:07.37 | 3:44.53 | 275062 | 291914
16 | 64:52.15 | 3:41.04 | 291915 | 308493
17 | 68:33.19 | 3:14.30 | 308494 | 323073
18 | 71:47.49 | 3:07.47 | 323074 | 337145
19 | 74:55.21 | 3:41.06 | 337146 | 353726


Track 1

Filename D:\MyRips\Jesus Jones - 1993 - Perverse\CD2\01. The Right Decision (Edit).wav

Pre-gap length 0:00:02.00

Peak level 99.0 %
Extraction speed 2.4 X
Track quality 99.9 %
Test CRC 2746F031
Copy CRC 2746F031
Accurately ripped (confidence 5) [50D6AD1C] (AR v2)
Copy OK

Track 2

Filename D:\MyRips\Jesus Jones - 1993 - Perverse\CD2\02. Want To Know (Knowledge Mix).wav

Pre-gap length 0:00:01.11

Peak level 92.7 %
Extraction speed 3.1 X
Track quality 100.0 %
Test CRC 2995ED30
Copy CRC 2995ED30
Accurately ripped (confidence 5) [0CFC5198] (AR v2)
Copy OK

Track 3

Filename D:\MyRips\Jesus Jones - 1993 - Perverse\CD2\03. Zeroes And Ones (Central Nervous System Mix).wav

Pre-gap length 0:00:00.74

Peak level 99.4 %
Extraction speed 3.0 X
Track quality 99.9 %
Test CRC F31EE631
Copy CRC F31EE631
Accurately ripped (confidence 5) [24239C22] (AR v2)
Copy OK

Track 4

Filename D:\MyRips\Jesus Jones - 1993 - Perverse\CD2\04. The Right Decision (Moody Reconstruction Mix).wav

Pre-gap length 0:00:01.15

Peak level 99.4 %
Extraction speed 3.8 X
Track quality 100.0 %
Test CRC 8962E03F
Copy CRC 8962E03F
Accurately ripped (confidence 5) [B1E7E01F] (AR v2)
Copy OK

Track 5

Filename D:\MyRips\Jesus Jones - 1993 - Perverse\CD2\05. The Devil You Know (Satellite Over Tehran Mix).wav

Pre-gap length 0:00:01.13

Peak level 89.6 %
Extraction speed 4.0 X
Track quality 100.0 %
Test CRC 0881DB3D
Copy CRC 0881DB3D
Accurately ripped (confidence 5) [1C326FE3] (AR v2)
Copy OK

Track 6

Filename D:\MyRips\Jesus Jones - 1993 - Perverse\CD2\06. Starting From Scratch.wav

Pre-gap length 0:00:00.63

Peak level 99.4 %
Extraction speed 3.3 X
Track quality 99.9 %
Test CRC CAB0AC2B
Copy CRC CAB0AC2B
Accurately ripped (confidence 5) [73EE2042] (AR v2)
Copy OK

Track 7

Filename D:\MyRips\Jesus Jones - 1993 - Perverse\CD2\07. The Right Decision (Acid Confusion Mix).wav

Pre-gap length 0:00:01.07

Peak level 96.0 %
Extraction speed 4.2 X
Track quality 100.0 %
Test CRC 03360F95
Copy CRC 03360F95
Accurately ripped (confidence 5) [58211444] (AR v2)
Copy OK

Track 8

Filename D:\MyRips\Jesus Jones - 1993 - Perverse\CD2\08. Idiot Stare.wav

Pre-gap length 0:00:01.03

Peak level 99.4 %
Extraction speed 4.3 X
Track quality 100.0 %
Test CRC 38BE9CC5
Copy CRC 38BE9CC5
Accurately ripped (confidence 5) [C3044176] (AR v2)
Copy OK

Track 9

Filename D:\MyRips\Jesus Jones - 1993 - Perverse\CD2\09. Zeroes And Ones.wav

Pre-gap length 0:00:00.26

Peak level 96.7 %
Extraction speed 4.3 X
Track quality 100.0 %
Test CRC 198CD353
Copy CRC 198CD353
Accurately ripped (confidence 5) [1A09CB1B] (AR v2)
Copy OK

Track 10

Filename D:\MyRips\Jesus Jones - 1993 - Perverse\CD2\10. The Devil You Know.wav

Pre-gap length 0:00:01.24

Peak level 99.4 %
Extraction speed 4.1 X
Track quality 99.9 %
Test CRC 13607341
Copy CRC 13607341
Accurately ripped (confidence 5) [8996E1A1] (AR v2)
Copy OK

Track 11

Filename D:\MyRips\Jesus Jones - 1993 - Perverse\CD2\11. Magazine.wav

Pre-gap length 0:00:01.24

Peak level 99.4 %
Extraction speed 4.3 X
Track quality 100.0 %
Test CRC 42691757
Copy CRC 42691757
Accurately ripped (confidence 5) [272B3C92] (AR v2)
Copy OK

Track 12

Filename D:\MyRips\Jesus Jones - 1993 - Perverse\CD2\12. Magazine (Demo).wav

Pre-gap length 0:00:01.15

Peak level 99.4 %
Extraction speed 4.4 X
Track quality 100.0 %
Test CRC 23409BE5
Copy CRC 23409BE5
Accurately ripped (confidence 5) [CBAE8281] (AR v2)
Copy OK

Track 13

Filename D:\MyRips\Jesus Jones - 1993 - Perverse\CD2\13. Get A Good Thing (Demo).wav

Pre-gap length 0:00:00.62

Peak level 99.4 %
Extraction speed 4.6 X
Track quality 100.0 %
Test CRC 39CA55C9
Copy CRC 39CA55C9
Accurately ripped (confidence 5) [8F33BB49] (AR v2)
Copy OK

Track 14

Filename D:\MyRips\Jesus Jones - 1993 - Perverse\CD2\14. St Louis.wav

Pre-gap length 0:00:01.07

Peak level 99.4 %
Extraction speed 5.0 X
Track quality 100.0 %
Test CRC 59260747
Copy CRC 59260747
Accurately ripped (confidence 5) [229AB5A5] (AR v2)
Copy OK

Track 15

Filename D:\MyRips\Jesus Jones - 1993 - Perverse\CD2\15. Krexa.wav

Pre-gap length 0:00:00.63

Peak level 97.1 %
Extraction speed 4.9 X
Track quality 100.0 %
Test CRC 509EA21D
Copy CRC 509EA21D
Accurately ripped (confidence 5) [E7E9E786] (AR v2)
Copy OK

Track 16

Filename D:\MyRips\Jesus Jones - 1993 - Perverse\CD2\16. 15-11-91 - Meteor Boy (Demo).wav

Pre-gap length 0:00:00.58

Peak level 96.3 %
Extraction speed 5.0 X
Track quality 100.0 %
Test CRC C6576518
Copy CRC C6576518
Accurately ripped (confidence 5) [A029F22F] (AR v2)
Copy OK

Track 17

Filename D:\MyRips\Jesus Jones - 1993 - Perverse\CD2\17. As Good As It Gets (Demo).wav

Pre-gap length 0:00:00.41

Peak level 99.4 %
Extraction speed 5.0 X
Track quality 100.0 %
Test CRC 8DC5B524
Copy CRC 8DC5B524
Accurately ripped (confidence 5) [215C4017] (AR v2)
Copy OK

Track 18

Filename D:\MyRips\Jesus Jones - 1993 - Perverse\CD2\18. Time Of Our Own (Demo).wav

Pre-gap length 0:00:00.50

Peak level 99.4 %
Extraction speed 5.1 X
Track quality 100.0 %
Test CRC 8981366F
Copy CRC 8981366F
Accurately ripped (confidence 5) [2EEC890B] (AR v2)
Copy OK

Track 19

Filename D:\MyRips\Jesus Jones - 1993 - Perverse\CD2\19. Every Little Bit (Version 2 Demo).wav

Pre-gap length 0:00:01.45

Peak level 97.1 %
Extraction speed 4.7 X
Track quality 99.9 %
Test CRC 393C0F64
Copy CRC 393C0F64
Accurately ripped (confidence 5) [DB63E856] (AR v2)
Copy OK


All tracks accurately ripped

No errors occurred

End of status report

–– CUETools DB Plugin V2.1.6

[CTDB TOCID: 270_wrBKm5e9HOlSZf5pHUuK.Tg-] found
Submit result: 270_wrBKm5e9HOlSZf5pHUuK.Tg- has been confirmed
Track | CTDB Status
1 | (10/10) Accurately ripped
2 | (10/10) Accurately ripped
3 | (10/10) Accurately ripped
4 | (10/10) Accurately ripped
5 | (10/10) Accurately ripped
6 | (10/10) Accurately ripped
7 | (10/10) Accurately ripped
8 | (10/10) Accurately ripped
9 | (10/10) Accurately ripped
10 | (10/10) Accurately ripped
11 | (10/10) Accurately ripped
12 | (10/10) Accurately ripped
13 | (10/10) Accurately ripped
14 | (10/10) Accurately ripped
15 | (10/10) Accurately ripped
16 | (10/10) Accurately ripped
17 | (10/10) Accurately ripped
18 | (10/10) Accurately ripped
19 | (10/10) Accurately ripped


==== Log checksum F05D44AF6CB170EE33637CA89A2187D8C1BFBB2E7EA468126AD58045C607D411 ====