Subcategories

Jethro Tull - 20 Years Of J. T. The Definitive Collection (1988) [Vinyl Rip 16/44 & mp3-320]

Posted By: v3122
Jethro Tull - 20 Years Of J. T. The Definitive Collection (1988) [Vinyl Rip 16/44 & mp3-320]

Jethro Tull - 20 Years Of J. T. The Definitive Collection (1988)
5 x Vinyl Rip 16/44 | Flac(Image + Cue) > 1435 Mb
MP3 CBR 320Kbps > 557 Mb | Artwork(jpg) > 26 Mb
1988 | Chrysalis #T BOX 1 | 5LP Box Set
Progressive Rock / Classic Rock

20 Years of Jethro Tull is a 1988 boxed set which spans the first twenty years of Jethro Tull. It was issued as five LPs: Radio Archives, Rare Tracks, Flawed Gems, Other Sides of Tull, and The Essential Tull. It was simultaneously released as both a 3CD and a 3-cassette set, titled 20 Years of Jethro Tull: The Definitive Collection.

All three versions were housed in a 12x12inch cardboard-box, with 24-page booklet, the CD and cassette versions having a black plastic tray.

A single CD sampler and a double LP album were also created, titled 20 Years of Jethro Tull: Highlights…

~ wiki
Jethro Tull - 20 Years Of J. T. The Definitive Collection (1988):

Jethro Tull - 20 Years Of J. T. The Definitive Collection (1988) [Vinyl Rip 16/44 & mp3-320]

Tracklist VNL01 - :

01. - Song For Jeffrey [02:51]
02. - Love Story [02:49]
03. - Fat Man [02:57]
04. - Bouree [04:04]
05. - Stormy Monday Blues [04:06]
06. - A New Day Yesterday [04:15]
07. - Cold Wind To Valhalla [01:35]
08. - Minstrel In The Gallery [02:10]
09. - Velvet Green [05:53]
10. - Grace [00:40]
11. - The Clasp [03:30]
12. - Pibroch (Pee Break) - Black Satin Dancer (Instrumental) [04:01]
13. - Fallen On Hard Times [03:58]

foobar2000 1.2.9 / Dynamic Range Meter 1.1.1
log date: 2017-12-04 09:59:56

––––––––––––––––––––––––––––––––––––––––
Analyzed: Jethro Tull / 20 Years Of Jethro Tull
––––––––––––––––––––––––––––––––––––––––

DR Peak RMS Duration Track
––––––––––––––––––––––––––––––––––––––––
DR11 -2.97 dB -15.90 dB 2:51 01-Song For Jeffrey
DR11 -2.95 dB -16.57 dB 2:49 02-Love Story
DR13 -2.76 dB -18.31 dB 2:58 03-Fat Man
DR11 -2.38 dB -18.57 dB 4:04 04-Bouree
DR11 -4.84 dB -18.48 dB 4:06 05-Stormy Monday Blues
DR11 -3.66 dB -18.03 dB 4:15 06-A New Day Yesterday
DR12 -2.24 dB -18.48 dB 1:35 07-Cold Wind To Valhalla
DR12 -4.63 dB -18.83 dB 2:11 08-Minstrel In The Gallery
DR12 -4.35 dB -19.53 dB 5:53 09-Velvet Green
DR11 -8.05 dB -23.48 dB 0:41 10-Grace
DR12 -2.75 dB -18.15 dB 3:30 11-The Clasp
DR12 -3.24 dB -17.61 dB 4:02 12-Pibroch (Pee Break) - Black Satin Dancer (Instrumental)
DR12 -1.99 dB -17.68 dB 3:59 13-Fallen On Hard Times
––––––––––––––––––––––––––––––––––––––––

Number of tracks: 13
Official DR value: DR12

Samplerate: 44100 Hz
Channels: 2
Bits per sample: 16
Bitrate: 817 kbps
Codec: FLAC
================================================================================



Jethro Tull - 20 Years Of J. T. The Definitive Collection (1988) [Vinyl Rip 16/44 & mp3-320]

Tracklist VNL02 - The Rare Tracks (Released But Only Just):

01. - Jack Frost And The Hooded Crow [03:20]
02. - I'm Your Gun [03:17]
03. - Down At The End Of Your Road [03:32]
04. - Coronach [03:50]
05. - Summerday Sands [03:47]
06. - Too Many Too [03:26]
07. - March The Mad Scientist [01:47]
08. - Pan Dance [03:26]
09. - Strip Cartoon [03:18]
10. - King Henry's Madrigal [02:58]
11. - A Stitch In Time [03:36]
12. - 17 [03:06]
13. - One For John Gee [02:06]
14. - Aeroplane [02:14]
15. - Sunshine Day [02:24]

foobar2000 1.2.9 / Dynamic Range Meter 1.1.1
log date: 2017-12-04 10:00:13

––––––––––––––––––––––––––––––––––––––––
Analyzed: Jethro Tull / 20 Years Of Jethro Tull
––––––––––––––––––––––––––––––––––––––––

DR Peak RMS Duration Track
––––––––––––––––––––––––––––––––––––––––
DR14 -1.17 dB -18.84 dB 3:21 01-Jack Frost And The Hooded Crow
DR14 -3.10 dB -18.87 dB 3:18 02-I'm Your Gun
DR13 -4.07 dB -20.29 dB 3:33 03-Down At The End Of Your Road
DR14 -1.59 dB -21.11 dB 3:50 04-Coronach
DR12 -4.38 dB -19.60 dB 3:47 05-Summerday Sands
DR14 -4.45 dB -20.64 dB 3:26 06-Too Many Too
DR14 -5.05 dB -24.34 dB 1:48 07-March The Mad Scientist
DR12 -5.37 dB -22.09 dB 3:27 08-Pan Dance
DR13 -2.46 dB -19.60 dB 3:19 09-Strip Cartoon
DR12 -3.75 dB -18.82 dB 2:58 10-King Henry's Madrigal
DR13 -2.73 dB -18.91 dB 3:37 11-A Stitch In Time
DR12 -4.98 dB -19.01 dB 3:07 12-17
DR12 -6.90 dB -21.96 dB 2:06 13-One For John Gee
DR11 -6.21 dB -19.79 dB 2:14 14-Aeroplane
DR11 -6.06 dB -17.88 dB 2:25 15-Sunshine Day
––––––––––––––––––––––––––––––––––––––––

Number of tracks: 15
Official DR value: DR13

Samplerate: 44100 Hz
Channels: 2
Bits per sample: 16
Bitrate: 772 kbps
Codec: FLAC
================================================================================



Jethro Tull - 20 Years Of J. T. The Definitive Collection (1988) [Vinyl Rip 16/44 & mp3-320]

Tracklist VNL03 - Flawed Gems (Dusted Down):

01. - Lick Your Fingers Clean [02:46]
02. - The Chateau D'Isaster Tapes [11:04]
03. - Beltane [05:15]
04. - Crossword [03:34]
05. - Saturation [04:20]
06. - Jack-A-Lynn [04:38]
07. - Motoreyes [03:38]
08. - Blues Instrumental (Untitled) [05:12]
09. - Rhythm In Gold [03:06]

foobar2000 1.2.9 / Dynamic Range Meter 1.1.1
log date: 2017-12-04 10:00:27

––––––––––––––––––––––––––––––––––––––––
Analyzed: Jethro Tull / 20 Years Of Jethro Tull
––––––––––––––––––––––––––––––––––––––––

DR Peak RMS Duration Track
––––––––––––––––––––––––––––––––––––––––
DR13 -3.41 dB -19.52 dB 2:46 01-Lick Your Fingers Clean
DR13 -2.22 dB -18.35 dB 11:04 02-The Chateau D'Isaster Tapes
DR13 -1.97 dB -19.07 dB 5:15 03-Beltane
DR13 -3.30 dB -19.55 dB 3:35 04-Crossword
DR13 -3.46 dB -19.02 dB 4:20 05-Saturation
DR12 -1.50 dB -19.27 dB 4:39 06-Jack-A-Lynn
DR13 -3.31 dB -17.66 dB 3:38 07-Motoreyes
DR13 -3.78 dB -19.65 dB 5:12 08-Blues Instrumental (Untitled)
DR14 -3.20 dB -18.73 dB 3:07 09-Rhythm In Gold
––––––––––––––––––––––––––––––––––––––––

Number of tracks: 9
Official DR value: DR13

Samplerate: 44100 Hz
Channels: 2
Bits per sample: 16
Bitrate: 831 kbps
Codec: FLAC
================================================================================



Jethro Tull - 20 Years Of J. T. The Definitive Collection (1988) [Vinyl Rip 16/44 & mp3-320]

Tracklist VNL04 - The Other Sides Of Tull:

01. - Part Of The Machine [06:50]
02. - Mayhem, Maybe [03:03]
03. - Overhang [04:26]
04. - Kelpie [03:30]
05. - Living In These Hard Times [03:09]
06. - Under Wraps [02:13]
07. - Only Solitaire [01:32]
08. - Cheap Day Return [01:21]
09. - Wond'ring Aloud [01:52]
10. - Dun Ringill [03:03]
11. - Salamander [02:49]
12. - Moths [03:23]
13. - Nursie [01:34]
14. - Life's A Long Song [03:16]
15. - One White Duck - O12 Nothing At All [04:33]

foobar2000 1.2.9 / Dynamic Range Meter 1.1.1
log date: 2017-12-04 10:00:45

––––––––––––––––––––––––––––––––––––––––
Analyzed: Jethro Tull / 20 Years Of Jethro Tull
––––––––––––––––––––––––––––––––––––––––

DR Peak RMS Duration Track
––––––––––––––––––––––––––––––––––––––––
DR15 -1.63 dB -19.47 dB 6:50 01-Part Of The Machine
DR15 -1.93 dB -18.66 dB 3:03 02-Mayhem, Maybe
DR14 -0.94 dB -18.08 dB 4:26 03-Overhang
DR13 -3.75 dB -18.34 dB 3:30 04-Kelpie
DR14 -3.56 dB -18.98 dB 3:10 05-Living In These Hard Times
DR14 -3.48 dB -19.96 dB 2:14 06-Under Wraps
DR11 -5.25 dB -21.35 dB 1:33 07-Only Solitaire
DR15 -2.27 dB -23.08 dB 1:22 08-Cheap Day Return
DR13 -4.32 dB -21.28 dB 1:53 09-Wond'ring Aloud
DR13 -2.15 dB -18.59 dB 3:04 10-Dun Ringill
DR14 -4.02 dB -22.30 dB 2:50 11-Salamander
DR14 -2.05 dB -19.51 dB 3:24 12-Moths
DR15 -2.41 dB -22.18 dB 1:35 13-Nursie
DR14 -3.82 dB -20.82 dB 3:16 14-Life's A Long Song
DR14 -3.14 dB -21.71 dB 4:34 15-One White Duck - O12 Nothing At All
––––––––––––––––––––––––––––––––––––––––

Number of tracks: 15
Official DR value: DR14

Samplerate: 44100 Hz
Channels: 2
Bits per sample: 16
Bitrate: 835 kbps
Codec: FLAC
================================================================================



Jethro Tull - 20 Years Of J. T. The Definitive Collection (1988) [Vinyl Rip 16/44 & mp3-320]

Tracklist VNL05 - The Essential Tull:

01. - Songs From The Wood [04:30]
02. - Living In The Past [04:04]
03. - Teacher [04:48]
04. - Aqualung [07:39]
05. - Locomotive Breath [05:57]
06. - Witch's Promise [03:51]
07. - Bungle In The Jungle [03:34]
08. - Farm On The Freeway [06:44]
09. - Thick As A Brick [06:34]
10. - Sweet Dream [04:34]

foobar2000 1.2.9 / Dynamic Range Meter 1.1.1
log date: 2017-12-04 10:01:00

––––––––––––––––––––––––––––––––––––––––
Analyzed: Jethro Tull / 20 Years Of Jethro Tull
––––––––––––––––––––––––––––––––––––––––

DR Peak RMS Duration Track
––––––––––––––––––––––––––––––––––––––––
DR13 -3.13 dB -17.85 dB 4:30 01-Songs From The Wood
DR13 -2.89 dB -19.21 dB 4:04 02-Living In The Past
DR12 -4.19 dB -18.51 dB 4:48 03-Teacher
DR12 -3.23 dB -18.89 dB 7:39 04-Aqualung
DR12 -5.41 dB -19.60 dB 5:58 05-Locomotive Breath
DR12 -4.75 dB -20.22 dB 3:52 06-Witch's Promise
DR13 -4.49 dB -19.39 dB 3:35 07-Bungle In The Jungle
DR14 -1.79 dB -19.75 dB 6:45 08-Farm On The Freeway
DR12 -3.40 dB -19.27 dB 6:35 09-Thick As A Brick
DR12 -3.98 dB -18.36 dB 4:34 10-Sweet Dream
––––––––––––––––––––––––––––––––––––––––

Number of tracks: 10
Official DR value: DR12

Samplerate: 44100 Hz
Channels: 2
Bits per sample: 16
Bitrate: 864 kbps
Codec: FLAC
================================================================================




Original ripper: LeddZepp
Original format: 24/96
Vinyl Condition: Ex+
Cleaning:
Direct Drive Turntable: Dual CS505-4
Cartridge: Sure V15 Type III LM
Amplifier: Creec OBH-15
ADC: E-MU 0404 USB
Postprocessing:

Downsampled to 16/44

Jethro Tull - 20 Years Of J. T. The Definitive Collection (1988) [Vinyl Rip 16/44 & mp3-320]

Rod Stewart: Collection (1969 - 1988) [Vinyl Rip 16/44 & mp3-320]
Kraftwerk: Collection (1974 - 1991) [Vinyl Rip 16/44 & mp3-320]
Roger Waters: Vinyl Collection (1970 - 1992) [Vinyl Rip 16/44 & mp3-320] [Vinyl Rip 16/44 & MP3-320]



Rare Earth: Collection (1969 - 1978) [Vinyl Rip 16/44 & mp3-320]
David Gilmour - Rattle That Lock (2015) [Vinyl Rip 16/44 & mp3-320]

Depeche Mode: Collection (1981 - 2013) [Vinyl Rip 16/44 & mp3-320]
Pink Floyd: Remastered Collection (1967 - 2016) [Vinyl Rip 16/44 & mp3-320]
Sade: Discography (1984 - 2010) [Vinyl Rip 16/44 & MP3-320]
Deep Purple: Collection (1968 - 2017) [Vinyl Rip 16/44 & mp3-320]
Queen: Collection (1973 - 1995) [Vinyl Rip 16/44 & MP3-320]
The Cars: Collection (1978 - 1987) [Vinyl Rip 16/44 & mp3-320]
Metallica: Discography (1983 - 2016) [Vinyl Rip 16/44 & mp3-320]
Bon Jovi - The Albums (2017) [Vinyl Rip 16/44 & mp3-320, Limited Edition Box set]
The Doors: Collection (1967 - 1971) [Vinyl Rip 16/44 & mp3-320]
Black Sabbath: Collection (1970 - 2013) [Vinyl Rip 16/44 & mp3-320]
The Beatles: Discography (1963 - 1988) [Vinyl Rip 16/44 & mp3-320]
Joe Cocker: Collection (1969 - 1991) [Vinyl Rip 16/44 & mp3-320]
Frank Zappa: Collection (1969 - 1981) [Vinyl Rip 16/44 & mp3-320]
Ten Years After: Collection (1967 - 1974) [Vinyl Rip 16/44 & mp3-320]
Dire Straits: Discography (1978 - 1991) [Vinyl Rip 16/44 & mp3-320]
Bonnie Tyler: Collection (1977 - 1986) [Vinyl Rip 16/44 & mp3-320]
The Beatles: Stereo Vinyl Box Set (2012) [Vinyl Rip 16/44 & mp3-320]
Wolfgang Amadeus Mozart - Die Violin Konzerte (1968) [Vinyl Rip 16/44 & mp3-320]
Eagles - The Studio Albums 1972-1979 (2013) [Vinyl Rip 16/44 & mp3-320]
Pink Floyd: Discography (1967 - 2014) [Vinyl Rip 16/44 & mp3-320]
Led Zeppelin: Discography (1969 - 1982) [Vinyl Rip 16/44 & mp3-320]
Manowar: Collection (1982 - 2012) [Vinyl Rip 16/44 & mp3-320]
A-HA: Collection (1985-2015) [Vinyl Rip 16/44 & mp3-320]
Decca, Wiener Philharmoniker - 6 Classic Analogue LPs (2014) [Vinyl Rip 16/44]
Beethoven - Chicago Symphony Orchestra / Sir Georg Solti ‎– The Nine Symphonies (1975) [Vinyl Rip 16/44 & mp3-320]
Scorpions: Collection (1974 - 2015) [Vinyl Rip 16/44 & mp3-320]
Pink Floyd - Echoes: The Best Of Pink Floyd (2001) [Vinyl Rip 16/44]
Alice Cooper - Paranormal (2017) [Vinyl Rip 16/44 & mp3-320]
Manfred Mann's Earth Band: Collection (1967 - 2014) [Vinyl Rip 16/44 & mp3-320]
Rainbow: Discography (1975 - 1986) [Vinyl Rip 16/44 & mp3-320]
Amanda Lear: Collection (1978 - 1986) [Vinyl Rip 16/44 & mp3-320]
Space & Didier Marouani: Collection (1977 - 1987) [Vinyl Rip 16/44 & mp3-320]

Jethro Tull or Jethro Tull in my Blog

Download Jethro Tull - 20 Years Of J. T. The Definitive Collection (1988):