Tags
Language
Tags

Jethro Tull - Aqualung Live (2005) {Special Collectors' Edition}

Posted By: popsakov
Jethro Tull - Aqualung Live (2005) {Special Collectors' Edition}

Jethro Tull - Aqualung Live (2005) {Special Collectors' Edition}
EAC Rip | WavPack (Img) + Cue + Log ~ 361 Mb | MP3 CBR320 ~ 144 Mb
Full Scans ~ 46 Mb | RAR 5% Recovery
Art Rock, Progressive Rock | Fuel 2000 Records #302 061 509 2

Each era of rock music has had its own craftily marketed phenomenon – it was the "live album" in the '70s, "unplugged" recordings in the '90s, and since the late '80s through the present day, the "tribute album." But the early 21st century saw another addition – veteran bands revisiting classic albums and performing them in their entirety. Jethro Tull's most enduring release is largely agreed to be 1971's classic Aqualung, and in late 2004 Ian Anderson, Martin Barre, and their latest Tull mates dusted off the album once more in front of a small audience for XM Radio's Then Again Live series. Since 33 years had passed between the original and the re-reading, the performances on Aqualung Live are slightly more restrained. And while some of Barre's mighty riffs can still be spotted blaring away – most notably the middle bit of "My God" – other songs get an overhauling, such as the barely recognizable "Hymn 43." In addition to revisiting the full album, several interview segments are tacked on at the end of the disc, including some interesting bits about the original recording (it turns out that Led Zeppelin were also recording nearby) and the fact that, despite popular belief, Aqualung was not a concept album. Aqualung Live proves that Anderson and Barre are still at the top of their game, unlike some other "classic rock" acts whose playing abilities have diminished over the years.
~ Greg Prato, All Music

***************

Jethro Tull - Aqualung Live (2005) {Special Collectors' Edition}

Jethro Tull - Aqualung Live (2005) {Special Collectors' Edition}

Track List:

01. Aqualung [7:56]
02. Cross-Eyed Mary [4:35]
03. Cheap Day Return [1:43]
04. Mother Goose [5:39]
05. Wond'ring Aloud [2:00]
06. Up To Me [3:36]
07. My God [8:27]
08. Hymn 43 [4:22]
09. Slipstream [1:00]
10. Locomotive Breath [5:20]
11. Wind-Up [6:41]
12. Riffs - Another Monkey [1:27]
13. Recording The Original [2:06]
14. Choosing My Words With Care [1:18]
15. Hummmmmm 43 [0:35]
16. A Different Kettle Of Very Different Fish [1:02]
17. But Is It Any Good [1:43]

Personnel:
Ian Anderson - Flute, Vocals, Acoustic Guitar
Martin Barre - Electric Guitar
Doane Perry - Drums And Percussion
Andrew Giddings - Piano, Organ And Keyboards
Jonathan Noyce - Bass Guitar

Exact Audio Copy V1.3 from 2. September 2016

EAC extraction logfile from 25. August 2018, 13:17

Jethro Tull / Aqualung Live

Used drive : HL-DT-STBD-RE WH16NS40 Adapter: 1 ID: 0

Read mode : Secure
Utilize accurate stream : Yes
Defeat audio cache : Yes
Make use of C2 pointers : No

Read offset correction : 6
Overread into Lead-In and Lead-Out : No
Fill up missing offset samples with silence : Yes
Delete leading and trailing silent blocks : No
Null samples used in CRC calculations : Yes
Used interface : Native Win32 interface for Win NT & 2000

Used output format : User Defined Encoder
Selected bitrate : 768 kBit/s
Quality : High
Add ID3 tag : No
Command line compressor : C:\Program Files (x86)\Exact Audio Copy\Wavpack\wavpack.exe
Additional command line options : -hm %source% %dest%


TOC of the extracted CD

Track | Start | Length | Start sector | End sector
––––––––––––––––––––––––––––-
1 | 0:00.00 | 7:56.10 | 0 | 35709
2 | 7:56.10 | 4:34.52 | 35710 | 56311
3 | 12:30.62 | 1:43.17 | 56312 | 64053
4 | 14:14.04 | 5:39.13 | 64054 | 89491
5 | 19:53.17 | 2:00.08 | 89492 | 98499
6 | 21:53.25 | 3:35.71 | 98500 | 114695
7 | 25:29.21 | 8:27.18 | 114696 | 152738
8 | 33:56.39 | 4:22.30 | 152739 | 172418
9 | 38:18.69 | 0:59.70 | 172419 | 176913
10 | 39:18.64 | 5:19.44 | 176914 | 200882
11 | 44:38.33 | 6:40.70 | 200883 | 230952
12 | 51:19.28 | 1:27.30 | 230953 | 237507
13 | 52:46.58 | 2:05.44 | 237508 | 246926
14 | 54:52.27 | 1:17.61 | 246927 | 252762
15 | 56:10.13 | 0:35.02 | 252763 | 255389
16 | 56:45.15 | 1:02.08 | 255390 | 260047
17 | 57:47.23 | 1:42.60 | 260048 | 267757


Range status and errors

Selected range

Filename E:\_NL+_\_CD\Jethro Tull - Aqualung Live.wav

Peak level 100.0 %
Extraction speed 3.7 X
Range quality 99.9 %
Test CRC 6446CFC8
Copy CRC 6446CFC8
Copy OK

No errors occurred


AccurateRip summary

Track 1 accurately ripped (confidence 34) [B8E91702] (AR v2)
Track 2 accurately ripped (confidence 34) [6628F4FF] (AR v2)
Track 3 accurately ripped (confidence 35) [F0ECC4FB] (AR v2)
Track 4 accurately ripped (confidence 34) [8CAE0EEB] (AR v2)
Track 5 accurately ripped (confidence 35) [9BD9F3E7] (AR v2)
Track 6 accurately ripped (confidence 34) [CA04FE9B] (AR v2)
Track 7 accurately ripped (confidence 34) [1AD94C22] (AR v2)
Track 8 accurately ripped (confidence 33) [637425A6] (AR v2)
Track 9 accurately ripped (confidence 35) [664BD3F6] (AR v2)
Track 10 accurately ripped (confidence 34) [6E82EE1C] (AR v2)
Track 11 accurately ripped (confidence 33) [B0637C9B] (AR v2)
Track 12 accurately ripped (confidence 35) [EF06CCBA] (AR v2)
Track 13 accurately ripped (confidence 35) [47C011B5] (AR v2)
Track 14 accurately ripped (confidence 34) [FBCCFED6] (AR v2)
Track 15 accurately ripped (confidence 34) [5FD24BCA] (AR v2)
Track 16 accurately ripped (confidence 35) [9AE4AA2D] (AR v2)
Track 17 accurately ripped (confidence 34) [5894BAF9] (AR v2)

All tracks accurately ripped

End of status report

–– CUETools DB Plugin V2.1.6

[CTDB TOCID: 5hDsxADxg29hfG.GdBPm1y5xVXg-] found
Submit result: 5hDsxADxg29hfG.GdBPm1y5xVXg- has been confirmed
Track | CTDB Status
1 | (163/167) Accurately ripped
2 | (162/167) Accurately ripped
3 | (166/167) Accurately ripped
4 | (164/167) Accurately ripped
5 | (164/167) Accurately ripped
6 | (164/167) Accurately ripped
7 | (164/167) Accurately ripped
8 | (165/167) Accurately ripped
9 | (164/167) Accurately ripped
10 | (160/167) Accurately ripped
11 | (159/167) Accurately ripped
12 | (163/167) Accurately ripped
13 | (163/167) Accurately ripped
14 | (163/167) Accurately ripped
15 | (165/167) Accurately ripped
16 | (163/167) Accurately ripped
17 | (160/167) Accurately ripped


==== Log checksum DB6D3E3FB3377CE02409A0EBC1747B9F9BCAF137A94AC09A6F41F468CF5F7194 ====

foobar2000 1.3.16 / Dynamic Range Meter 1.1.1
log date: 2018-11-15 00:28:37

––––––––––––––––––––––––––––––––––––––––
Analyzed: Jethro Tull / Aqualung Live
––––––––––––––––––––––––––––––––––––––––

DR Peak RMS Duration Track
––––––––––––––––––––––––––––––––––––––––
DR12 0.00 dB -14.11 dB 7:56 01-Aqualung
DR11 0.00 dB -12.80 dB 4:35 02-Cross-Eyed Mary
DR14 -3.77 dB -24.45 dB 1:43 03-Cheap Day Return
DR15 -0.12 dB -19.04 dB 5:39 04-Mother Goose
DR13 -3.63 dB -23.02 dB 2:00 05-Wond'ring Aloud
DR13 -0.03 dB -15.31 dB 3:36 06-Up To Me
DR12 0.00 dB -14.59 dB 8:27 07-My God
DR10 0.00 dB -12.17 dB 4:22 08-Hymn 43
DR13 -7.05 dB -22.89 dB 1:00 09-Slipstream
DR11 0.00 dB -14.23 dB 5:20 10-Locomotive Breath
DR12 0.00 dB -14.98 dB 6:41 11-Wind-Up
DR16 -5.24 dB -23.84 dB 1:27 12-Riffs - Another Monkey
DR15 -6.97 dB -24.81 dB 2:06 13-Recording The Original
DR16 -5.44 dB -25.85 dB 1:18 14-Choosing My Words With Care
DR14 -6.39 dB -24.74 dB 0:35 15-Hummmmmm 43
DR14 -7.89 dB -25.00 dB 1:02 16-A Different Kettle Of Very Different Fish
DR21 0.00 dB -25.55 dB 1:43 17-But Is It Any Good
––––––––––––––––––––––––––––––––––––––––

Number of tracks: 17
Official DR value: DR14

Samplerate: 44100 Hz
Channels: 2
Bits per sample: 16
Bitrate: 805 kbps
Codec: WavPack
================================================================================

[CUETools log; Date: 15.11.2018 0:27:35; Version: 2.1.6]
[CTDB TOCID: 5hDsxADxg29hfG.GdBPm1y5xVXg-] found.
Track | CTDB Status
1 | (171/175) Accurately ripped
2 | (170/175) Accurately ripped
3 | (174/175) Accurately ripped
4 | (172/175) Accurately ripped
5 | (172/175) Accurately ripped
6 | (172/175) Accurately ripped
7 | (172/175) Accurately ripped
8 | (173/175) Accurately ripped
9 | (172/175) Accurately ripped
10 | (168/175) Accurately ripped
11 | (167/175) Accurately ripped
12 | (171/175) Accurately ripped
13 | (171/175) Accurately ripped
14 | (171/175) Accurately ripped
15 | (173/175) Accurately ripped
16 | (171/175) Accurately ripped
17 | (168/175) Accurately ripped
[AccurateRip ID: 002c732a-021e0ffc-ea0df211] found.
Track [ CRC | V2 ] Status
01 [128eb846|b8e91702] (027+037/158) Accurately ripped
02 [b3bde782|6628f4ff] (027+037/159) Accurately ripped
03 [0681994b|f0ecc4fb] (027+038/159) Accurately ripped
04 [50a80d45|8cae0eeb] (027+037/159) Accurately ripped
05 [4d828156|9bd9f3e7] (027+038/159) Accurately ripped
06 [cc4665de|ca04fe9b] (027+037/158) Accurately ripped
07 [837df5bb|1ad94c22] (027+037/158) Accurately ripped
08 [984c8cc0|637425a6] (027+036/157) Accurately ripped
09 [72953fdb|664bd3f6] (027+038/159) Accurately ripped
10 [0a00266e|6e82ee1c] (027+035/153) Accurately ripped
11 [6dc19b79|b0637c9b] (027+036/155) Accurately ripped
12 [c928dad4|ef06ccba] (025+038/153) Accurately ripped
13 [c025b9c6|47c011b5] (025+038/153) Accurately ripped
14 [eae47a05|fbccfed6] (026+037/154) Accurately ripped
15 [722cb88c|5fd24bca] (025+037/152) Accurately ripped
16 [f7321ed7|9ae4aa2d] (026+038/154) Accurately ripped
17 [42d1fb4c|5894baf9] (023+037/143) Accurately ripped
Offsetted by -80:
01 [e91dd64a] (006/158) Accurately ripped
02 [ab96221a] (006/159) Accurately ripped
03 [d2037fc9] (006/159) Accurately ripped
04 [68815dc0] (006/159) Accurately ripped
05 [4fec51e4] (006/159) Accurately ripped
06 [37f5b929] (006/158) Accurately ripped
07 [3cb8a380] (006/158) Accurately ripped
08 [734d7c75] (006/157) Accurately ripped
09 [234ffc54] (006/159) Accurately ripped
10 [19b22cb3] (006/153) Accurately ripped
11 [79d2ea29] (006/155) Accurately ripped
12 [b501b33a] (006/153) Accurately ripped
13 [0a41dcb2] (006/153) Accurately ripped
14 [36e2a3a9] (006/154) Accurately ripped
15 [1dbb69d8] (005/152) Accurately ripped
16 [8ab2c80f] (005/154) Accurately ripped
17 [a92242af] (005/143) Accurately ripped
Offsetted by -30:
01 [976005f6] (002/158) Accurately ripped
02 [1a2c9ae5] (002/159) Accurately ripped
03 [5fdedc53] (002/159) Accurately ripped
04 [a0f92287] (002/159) Accurately ripped
05 [a884a417] (002/159) Accurately ripped
06 [2ad54d66] (002/158) Accurately ripped
07 [c5175096] (002/158) Accurately ripped
08 [182b5029] (002/157) Accurately ripped
09 [552b6316] (002/159) Accurately ripped
10 [5aa20a61] (002/153) Accurately ripped
11 [97a0231b] (002/155) Accurately ripped
12 [ea5659cd] (002/153) Accurately ripped
13 [8a2b764b] (002/153) Accurately ripped
14 [1b3068de] (002/154) Accurately ripped
15 [957cf545] (002/152) Accurately ripped
16 [aab87ba5] (002/154) Accurately ripped
17 [e623c17f] (002/143) Accurately ripped
Offsetted by 578:
01 [9d49fe8e] (005/158) Accurately ripped
02 [da1fdbc1] (005/159) Accurately ripped
03 [dddb06e6] (005/159) Accurately ripped
04 [d43ad811] (005/159) Accurately ripped
05 [11382cad] (005/159) Accurately ripped
06 [1d5828a9] (005/158) Accurately ripped
07 [31b5f9e0] (005/158) Accurately ripped
08 [95dac8b9] (005/157) Accurately ripped
09 [8a5cc528] (005/159) Accurately ripped
10 [1e736a17] (005/153) Accurately ripped
11 [d958a7e2] (005/155) Accurately ripped
12 [1cb836ea] (004/153) Accurately ripped
13 [974a1326] (004/153) Accurately ripped
14 [4b0b726b] (004/154) Accurately ripped
15 [87d3794e] (004/152) Accurately ripped
16 [89a8462b] (004/154) Accurately ripped
17 [b1155dc6] (004/143) Accurately ripped
Offsetted by 584:
01 [990a7d14] (019/158) Accurately ripped
02 [522a3dcb] (020/159) Accurately ripped
03 [bda9051b] (019/159) Accurately ripped
04 [8b53df03] (020/159) Accurately ripped
05 [0be6d794] (020/159) Accurately ripped
06 [47a98756] (020/158) Accurately ripped
07 [85d6f9d8] (020/158) Accurately ripped
08 [b7111e2b] (020/157) Accurately ripped
09 [59ee7b88] (020/159) Accurately ripped
10 [28d69fae] (019/153) Accurately ripped
11 [e0e0d723] (019/155) Accurately ripped
12 [03bdf6fc] (020/153) Accurately ripped
13 [8b71d6e9] (020/153) Accurately ripped
14 [99e659b8] (020/154) Accurately ripped
15 [6c4c394b] (020/152) Accurately ripped
16 [cb4f830a] (020/154) Accurately ripped
17 [ab97d8dc] (018/143) Accurately ripped
Offsetted by -664:
01 [b361244b] (000/158) No match (V2 was not tested)
02 [35929e8c] (000/159) No match (V2 was not tested)
03 [b49b83e2] (000/159) No match (V2 was not tested)
04 [6dfd62e2] (000/159) No match (V2 was not tested)
05 [bf05daed] (000/159) No match (V2 was not tested)
06 [f88ce4d5] (000/158) No match (V2 was not tested)
07 [dee970c8] (000/158) No match (V2 was not tested)
08 [a19c42f9] (000/157) No match (V2 was not tested)
09 [23a17fd1] (000/159) No match (V2 was not tested)
10 [d83fe8e2] (000/153) No match (V2 was not tested)
11 [8d21b51b] (000/155) No match (V2 was not tested)
12 [e53e88df] (000/153) No match (V2 was not tested)
13 [113baab7] (000/153) No match (V2 was not tested)
14 [dd4e47b2] (000/154) No match (V2 was not tested)
15 [87b88e8d] (000/152) No match (V2 was not tested)
16 [35be795c] (000/154) No match (V2 was not tested)
17 [2e13d130] (000/143) No match (V2 was not tested)
Offsetted by -92:
01 [af22efd6] (000/158) No match (V2 was not tested)
02 [ca43fc62] (000/159) No match (V2 was not tested)
03 [00e09706] (000/159) No match (V2 was not tested)
04 [ebfb8a70] (000/159) No match (V2 was not tested)
05 [fc3da17f] (000/159) No match (V2 was not tested)
06 [02f2bb63] (000/158) No match (V2 was not tested)
07 [390ca38e] (000/158) No match (V2 was not tested)
08 [c4301b04] (000/157) No match (V2 was not tested)
09 [7f163f1d] (000/159) No match (V2 was not tested)
10 [ec58b2a4] (000/153) No match (V2 was not tested)
11 [c7865fe2] (000/155) No match (V2 was not tested)
12 [20d152fc] (000/153) No match (V2 was not tested)
13 [2dab6265] (000/153) No match (V2 was not tested)
14 [dbdcee62] (000/154) No match (V2 was not tested)
15 [d56949a1] (000/152) No match (V2 was not tested)
16 [26fb6aea] (000/154) No match (V2 was not tested)
17 [a9ead26c] (000/143) No match (V2 was not tested)
Offsetted by -83:
01 [1b471caf] (000/158) No match (V2 was not tested)
02 [2cc3215a] (000/159) No match (V2 was not tested)
03 [bb0e3262] (000/159) No match (V2 was not tested)
04 [a296bbfb] (000/159) No match (V2 was not tested)
05 [db68b80c] (000/159) No match (V2 was not tested)
06 [630739b9] (000/158) No match (V2 was not tested)
07 [4010f78a] (000/158) No match (V2 was not tested)
08 [1aa8891a] (000/157) No match (V2 was not tested)
09 [0f66cd00] (000/159) No match (V2 was not tested)
10 [7438a659] (000/153) No match (V2 was not tested)
11 [129c68b0] (000/155) No match (V2 was not tested)
12 [8fdd3325] (000/153) No match (V2 was not tested)
13 [90a7fcf9] (000/153) No match (V2 was not tested)
14 [fd1e64f6] (000/154) No match (V2 was not tested)
15 [550462d1] (000/152) No match (V2 was not tested)
16 [caec6f6c] (000/154) No match (V2 was not tested)
17 [699d480a] (000/143) No match (V2 was not tested)
Offsetted by -56:
01 [af23ce21] (000/158) No match (V2 was not tested)
02 [6dfc9556] (000/159) No match (V2 was not tested)
03 [117f3e58] (000/159) No match (V2 was not tested)
04 [00e914fb] (000/159) No match (V2 was not tested)
05 [caa756f7] (000/159) No match (V2 was not tested)
06 [8fdc73af] (000/158) No match (V2 was not tested)
07 [43314fc1] (000/158) No match (V2 was not tested)
08 [d1176421] (000/157) No match (V2 was not tested)
09 [6e7c1fd6] (000/159) No match (V2 was not tested)
10 [d5ac8f14] (000/153) No match (V2 was not tested)
11 [917494c6] (000/155) No match (V2 was not tested)
12 [1c0f33ac] (000/153) No match (V2 was not tested)
13 [ce7fdefa] (000/153) No match (V2 was not tested)
14 [86c16056] (000/154) No match (V2 was not tested)
15 [baf7acf0] (000/152) No match (V2 was not tested)
16 [493978b6] (000/154) No match (V2 was not tested)
17 [64942363] (000/143) No match (V2 was not tested)

Track Peak [ CRC32 ] [W/O NULL] [ LOG ]
– 100,0 [6446CFC8] [FD717355] CRC32
01 100,0 [02A6F401] [C2BE5201]
02 100,0 [2FFB6217] [42DDA5AB]
03 64,7 [59119691] [4AD1CC2D]
04 98,6 [8C998518] [7E85F9D9]
05 65,8 [2605384E] [19E8F0E2]
06 99,6 [70E95643] [AB5CC36D]
07 100,0 [0D28315E] [FE532D72]
08 100,0 [06C3BD40] [5E3C9CD1]
09 44,4 [5B59433D] [952EA6B3]
10 100,0 [3A0B8AE5] [EC648683]
11 100,0 [5F76362E] [2EA02DE2]
12 54,7 [A21D9445] [395D6C7D]
13 44,8 [C8DF08CC] [6E2226D5]
14 53,4 [40C86E9D] [7041C4CB]
15 47,8 [C0E1A8E8] [CC321755]
16 40,3 [DE80A251] [3778BD6E]
17 99,9 [48F7031F] [ECB434E3]

Jethro Tull - Aqualung Live (2005) {Special Collectors' Edition}

All thanks go to tatuk

>>> Jethro Tull in my Blog <<<

Download from icerbox.com: