Subcategories

Jethro Tull - Broadsword And The Beast (1982) {1993, Japan 1st press}

Posted By: popsakov
Jethro Tull - Broadsword And The Beast (1982) {1993, Japan 1st press}

Jethro Tull - Broadsword And The Beast (1982) {1993, Japan 1st press}
EAC Rip | WV (Img) + Cue + Log ~ 231 Mb | MP3 CBR320 ~ 98 Mb
Scans Included (JPG, 300 dpi) | RAR 5% Recovery
Progressive Rock, Folk Rock | Chrysalis / Toshiba-EMI #TOCP-7818

The Broadsword and the Beast is the 14th studio album by Jethro Tull, released on 10 April 1982 and according to Ian Anderson in the liner notes of the remastered CD, contains some of Jethro Tull's best music. It mixes electronic sound, provided by Peter-John Vettese (a characteristic that would be explored further on the next album Under Wraps), with acoustic instruments. The album is a cross between the synthesiser sound of the 1980s and the folk-influenced style that Tull had in the previous decade. The Broadsword and the Beast is one of Steve Hackett's favorite albums.
~ Wiki

***************

Jethro Tull - Broadsword And The Beast (1982) {1993, Japan 1st press}

Track List:

01. Beastie [0:04:00.52]
02. Clasp [0:04:19.03]
03. Fallen On Hard Times [0:03:14.05]
04. Flying Colours [0:04:41.00]
05. Slow Marching Band [0:03:42.00]
06. Broadsword [0:05:03.07]
07. Pussy Willow [0:03:55.73]
08. Watching Me Watching You [0:03:41.65]
09. Seal Driver [0:05:12.72]
10. Cheerio [0:01:11.00]

Personnel:
Ian Anderson – vocals, flute, Fairlight CMI, acoustic guitar
Martin Barre – electric & acoustic guitars
Peter Vettese – keyboards, piano, synthesizer, vocals
Dave Pegg – bass guitar, mandolin, vocals
Gerry Conway – drums and percussion

Exact Audio Copy V1.2 from 12. August 2016

EAC extraction logfile from 23. March 2017, 16:33

Jethro Tull / Broadsword and the Beast [TOCP-7818]

Used drive : HL-DT-STBD-RE BH10LS38 Adapter: 1 ID: 1

Read mode : Secure
Utilize accurate stream : Yes
Defeat audio cache : Yes
Make use of C2 pointers : No

Read offset correction : 667
Overread into Lead-In and Lead-Out : No
Fill up missing offset samples with silence : Yes
Delete leading and trailing silent blocks : No
Null samples used in CRC calculations : Yes
Used interface : Installed external ASPI interface

Used output format : User Defined Encoder
Selected bitrate : 128 kBit/s
Quality : High
Add ID3 tag : No
Command line compressor : C:\Program Files (x86)\Exact Audio Copy\wavpack-4.60.1\wavpack.exe
Additional command line options : -hm -w "Year=%year%" -w "Genre=%genre%" %source% %dest%


TOC of the extracted CD

Track | Start | Length | Start sector | End sector
––––––––––––––––––––––––––––-
1 | 0:00.00 | 4:00.52 | 0 | 18051
2 | 4:00.52 | 4:19.03 | 18052 | 37479
3 | 8:19.55 | 3:14.05 | 37480 | 52034
4 | 11:33.60 | 4:41.00 | 52035 | 73109
5 | 16:14.60 | 3:42.00 | 73110 | 89759
6 | 19:56.60 | 5:03.07 | 89760 | 112491
7 | 24:59.67 | 3:55.73 | 112492 | 130189
8 | 28:55.65 | 3:41.65 | 130190 | 146829
9 | 32:37.55 | 5:12.72 | 146830 | 170301
10 | 37:50.52 | 1:11.00 | 170302 | 175626


Range status and errors

Selected range

Filename G:\Rips by Alder\Jethro Tull - Broadsword and the Beast [TOCP-7818].wav

Peak level 100.0 %
Extraction speed 7.0 X
Range quality 100.0 %
Test CRC 6FB53212
Copy CRC 6FB53212
Copy OK

No errors occurred


AccurateRip summary

Track 1 not present in database
Track 2 not present in database
Track 3 not present in database
Track 4 not present in database
Track 5 not present in database
Track 6 not present in database
Track 7 not present in database
Track 8 not present in database
Track 9 not present in database
Track 10 not present in database

None of the tracks are present in the AccurateRip database

End of status report

–– CUETools DB Plugin V2.1.6

[CTDB TOCID: tdMQeYKP.UVncyd.0qTL9lVVaxY-] disk not present in database
Submit result: tdMQeYKP.UVncyd.0qTL9lVVaxY- has been uploaded


==== Log checksum D3D70D0C8ED803002B10B2B508DD44C9E67D9F04C5DF46E81533B050094B196F ====

foobar2000 1.2.6 / Dynamic Range Meter 1.1.1
log date: 2017-03-25 19:26:11

––––––––––––––––––––––––––––––––––––––––
Analyzed: Jethro Tull / Broadsword and the Beast [TOCP-7818]
––––––––––––––––––––––––––––––––––––––––

DR Peak RMS Duration Track
––––––––––––––––––––––––––––––––––––––––
DR14 0.00 dB -16.79 dB 4:01 01-Beastie
DR14 0.00 dB -16.98 dB 4:19 02-Clasp
DR14 -0.01 dB -17.14 dB 3:14 03-Fallen On Hard Times
DR13 -0.01 dB -16.28 dB 4:41 04-Flying Colours
DR12 -0.64 dB -17.39 dB 3:42 05-Slow Marching Band
DR13 -0.93 dB -17.69 dB 5:03 06-Broadsword
DR14 0.00 dB -18.41 dB 3:56 07-Pussy Willow
DR15 -1.36 dB -18.02 dB 3:42 08-Watching Me Watching You
DR14 0.00 dB -17.18 dB 5:13 09-Seal Driver
DR11 -7.08 dB -25.06 dB 1:11 10-Cheerio
––––––––––––––––––––––––––––––––––––––––

Number of tracks: 10
Official DR value: DR14

Samplerate: 44100 Hz
Channels: 2
Bits per sample: 16
Bitrate: 776 kbps
Codec: WavPack
================================================================================

[CUETools log; Date: 25.03.2017 19:27:33; Version: 2.1.5]
[CTDB TOCID: tdMQeYKP.UVncyd.0qTL9lVVaxY-] found.
Track | CTDB Status
1 | (1/1) Accurately ripped
2 | (1/1) Accurately ripped
3 | (1/1) Accurately ripped
4 | (1/1) Accurately ripped
5 | (1/1) Accurately ripped
6 | (1/1) Accurately ripped
7 | (1/1) Accurately ripped
8 | (1/1) Accurately ripped
9 | (1/1) Accurately ripped
10 | (1/1) Accurately ripped
[AccurateRip ID: 000f5936-007ac642-8b09250a] disk not present in database.

Track Peak [ CRC32 ] [W/O NULL] [ LOG ]
– 100,0 [6FB53212] [DD02E4EB] CRC32
01 99,9 [BEEF204B] [41957AE5]
02 100,0 [DE294313] [250CD4C5]
03 99,9 [D273305F] [26B13A3B]
04 99,9 [1393D705] [F01D95AA]
05 92,9 [5553547E] [B9954F03]
06 89,8 [55EF416F] [CA460EB5]
07 100,0 [7337CE12] [141540CA]
08 85,5 [DB874B29] [40F5889C]
09 100,0 [09C2035D] [8F0BFD9A]
10 44,2 [82FD290B] [8B95F5BC]

Jethro Tull - Broadsword And The Beast (1982) {1993, Japan 1st press}

Jethro Tull - Broadsword And The Beast (1982) {1993, Japan 1st press}

All thanks go to Alder

> Jethro Tull in my blog <