Tags
Language
Tags

Jethro Tull - Live: Bursting Out (1978) Re-Up

Posted By: popsakov
Jethro Tull - Live: Bursting Out (1978) Re-Up

Jethro Tull - Live - Bursting Out (1978)
2CD | EAC Rip | FLAC (Img) + Cue + Log ~ 576 Mb | MP3 CBR320 ~ 224 Mb
Full Scans ~ 31 Mb | RAR 5% Recovery
Progressive Rock, Folk Rock | Chrysalis Records #CCD 1201

Released just as punk was taking hold on the public's imagination in America and making groups like Jethro Tull seem like dinosaurs on their way to extinction, Bursting Out became a seemingly perpetual denizen of the cutout bins for years afterward. However, it happened to be a good album, a more-than-decent capturing of a live Tull concert from Europe. The sound is remarkably good, given the group's arena rock status at the time, and the repertoire is a solid representation of the group's history, going all the way back to "A New Day Yesterday" from their second album and up through 1978's Heavy Horses, with stops along the way for "Bouree," "Aqualung," "Locomotive Breath," "Cross-Eyed Mary," and a compact reprise of Thick as a Brick. Some of these tracks work better than others – the tendency here is to play loud and hard, and sometimes that just doesn't translate well on record; seeing "Locomotive Breath" probably worked better than hearing it.

~ Bruce Eder, All Music Guide

***************

Jethro Tull - Live: Bursting Out (1978) Re-Up

Jethro Tull - Live: Bursting Out (1978) Re-Up

Track List CD1:

01. No Lullaby [05:35]
02. Sweet Dream [04:53]
03. Skating Away On The Thin Ice Of The New Day [05:03]
04. Jack In The Green [03:37]
05. One Brown Mouse [04:08]
06. A New Day Yesterday [03:08]
07. Flute Solo Improvisation/God Rest Yo Merry Gentlemen/Bouree [05:42]
08. Songs From The Wood [02:32]
09. Thick As A Brick [12:31]

Exact Audio Copy V1.0 beta 1 from 15. November 2010

EAC extraction logfile from 9. August 2015, 18:37

Jethro Tull / Live - Bursting Out (Disc 1)

Used drive : MATSHITADVD-RAM UJ8A0AS Adapter: 0 ID: 1

Read mode : Secure
Utilize accurate stream : Yes
Defeat audio cache : Yes
Make use of C2 pointers : No

Read offset correction : 102
Overread into Lead-In and Lead-Out : No
Fill up missing offset samples with silence : Yes
Delete leading and trailing silent blocks : No
Null samples used in CRC calculations : Yes
Used interface : Native Win32 interface for Win NT & 2000

Used output format : Internal WAV Routines
Sample format : 44.100 Hz; 16 Bit; Stereo


TOC of the extracted CD

Track | Start | Length | Start sector | End sector
––––––––––––––––––––––––––––-
1 | 0:00.00 | 5:34.40 | 0 | 25089
2 | 5:34.40 | 4:52.02 | 25090 | 46991
3 | 10:26.42 | 5:02.40 | 46992 | 69681
4 | 15:29.07 | 3:36.55 | 69682 | 85936
5 | 19:05.62 | 4:07.68 | 85937 | 104529
6 | 23:13.55 | 3:07.67 | 104530 | 118621
7 | 26:21.47 | 5:41.30 | 118622 | 144226
8 | 32:03.02 | 2:31.73 | 144227 | 155624
9 | 34:35.00 | 12:31.00 | 155625 | 211949


Range status and errors

Selected range

Filename C:\Users\Alex\Music\Alexharvey\Jethro Tull - Live - Bursting Out (Disc 1).wav

Peak level 89.7 %
Extraction speed 0.3 X
Range quality 100.0 %
Test CRC 0081F19F
Copy CRC 0081F19F
Copy OK

No errors occurred


AccurateRip summary

Track 1 accurately ripped (confidence 8) [534DABF8]
Track 2 accurately ripped (confidence 8) [655396DE]
Track 3 accurately ripped (confidence 8) [F241DB09]
Track 4 accurately ripped (confidence 8) [F3955461]
Track 5 accurately ripped (confidence 8) [FE361863]
Track 6 accurately ripped (confidence 8) [BE4BC4B6]
Track 7 accurately ripped (confidence 8) [3996996B]
Track 8 accurately ripped (confidence 8) [28C2F03F]
Track 9 accurately ripped (confidence 8) [4EAEF6F2]

All tracks accurately ripped

End of status report

==== Log checksum 50662FF69BC7149C17170B4CD9D0149FA22E6AFF9B8CDF55C4F8A96921642FE6 ====

foobar2000 1.2.6 / Dynamic Range Meter 1.1.1
log date: 2015-08-10 14:36:24

––––––––––––––––––––––––––––––––––––––––
Analyzed: Jethro Tull / Live - Bursting Out (Disc 1)
––––––––––––––––––––––––––––––––––––––––

DR Peak RMS Duration Track
––––––––––––––––––––––––––––––––––––––––
DR14 -1.33 dB -18.53 dB 5:35 01-No Lullaby
DR14 -2.46 dB -18.47 dB 4:52 02-Sweet Dream
DR13 -3.96 dB -19.51 dB 5:03 03-Skating Away On The Thin Ice Of The New Day
DR13 -2.26 dB -19.43 dB 3:37 04-Jack In The Green
DR14 -0.93 dB -18.47 dB 4:08 05-One Brown Mouse
DR13 -1.40 dB -17.00 dB 3:08 06-A New Day Yesterday
DR15 -1.54 dB -21.72 dB 5:41 07-Flute Solo Improvisation/God Rest Yo Merry Gentlemen/Bouree
DR13 -2.46 dB -18.30 dB 2:32 08-Songs From The Wood
DR13 -1.40 dB -17.76 dB 12:31 09-Thick As A Brick
––––––––––––––––––––––––––––––––––––––––

Number of tracks: 9
Official DR value: DR14

Samplerate: 44100 Hz
Channels: 2
Bits per sample: 16
Bitrate: 807 kbps
Codec: FLAC
================================================================================

[CUETools log; Date: 10.08.2015 14:36:13; Version: 2.1.5]
[CTDB TOCID: ENReKTqlAzHrxFq3n2J0JxBWV9A-] found.
Track | CTDB Status
1 | (68/71) Accurately ripped
2 | (71/71) Accurately ripped
3 | (70/71) Accurately ripped
4 | (70/71) Accurately ripped
5 | (71/71) Accurately ripped
6 | (70/71) Accurately ripped
7 | (71/71) Accurately ripped
8 | (71/71) Accurately ripped
9 | (71/71) Accurately ripped
[AccurateRip ID: 000eb05f-006b4905-7c0b0a09] found.
Track [ CRC | V2 ] Status
01 [534dabf8|4be48ec2] (009+008/117) Accurately ripped
02 [655396de|8614fa98] (009+008/119) Accurately ripped
03 [f241db09|7201945f] (009+008/118) Accurately ripped
04 [f3955461|82bc0ea0] (009+008/118) Accurately ripped
05 [fe361863|91bf22ac] (009+008/119) Accurately ripped
06 [be4bc4b6|10b08d47] (009+008/120) Accurately ripped
07 [3996996b|3dcff122] (009+008/119) Accurately ripped
08 [28c2f03f|46181c87] (008+008/118) Accurately ripped
09 [4eaef6f2|ab508f17] (009+008/117) Accurately ripped
Offsetted by 216:
01 [74f986f6] (010/117) Accurately ripped
02 [0c64d354] (011/119) Accurately ripped
03 [2d5fca4b] (010/118) Accurately ripped
04 [c797c789] (010/118) Accurately ripped
05 [0eda4286] (010/119) Accurately ripped
06 [83797efc] (011/120) Accurately ripped
07 [e90eec63] (011/119) Accurately ripped
08 [8f1ce9f8] (010/118) Accurately ripped
09 [37e58aa4] (010/117) Accurately ripped
Offsetted by 932:
01 [57c184c1] (012/117) Accurately ripped
02 [eec5d183] (013/119) Accurately ripped
03 [04ef93a4] (013/118) Accurately ripped
04 [f6477861] (012/118) Accurately ripped
05 [3bbd23e9] (013/119) Accurately ripped
06 [8d13374b] (013/120) Accurately ripped
07 [bbd31a7f] (012/119) Accurately ripped
08 [b2038a8d] (013/118) Accurately ripped
09 [07d5b403] (012/117) Accurately ripped
Offsetted by 1055:
01 [002e21c3] (024/117) Accurately ripped
02 [a21cd78e] (024/119) Accurately ripped
03 [f8e5cd7f] (023/118) Accurately ripped
04 [f251b9e4] (024/118) Accurately ripped
05 [d7ca3704] (024/119) Accurately ripped
06 [7e865a75] (024/120) Accurately ripped
07 [54e70352] (024/119) Accurately ripped
08 [352059fa] (024/118) Accurately ripped
09 [79e2f616] (023/117) Accurately ripped

Track Peak [ CRC32 ] [W/O NULL] [ LOG ]
– 89,7 [0081F19F] [0E78DF3E] CRC32
01 85,8 [9D4F94FE] [11A7B97A]
02 75,3 [8F58FE1E] [582AFB5E]
03 63,4 [E0BA66B6] [FE40471A]
04 77,0 [38DFCF9E] [5BB1A41A]
05 89,7 [A3F3BB22] [54BA6233]
06 85,1 [F5658451] [AFB70CD6]
07 83,7 [88C7996E] [578B1CD5]
08 75,3 [D2071A97] [29BA5864]
09 85,1 [396FE282] [64E5551F]

Jethro Tull - Live: Bursting Out (1978) Re-Up

Jethro Tull - Live: Bursting Out (1978) Re-Up

Track List CD1:

01. Hunting Girl [06:01]
02. Too Old To Rock 'N' Roll - Too Young To Die [04:20]
03. Conundrum [06:55]
04. Minstrel In The Gallery [05:48]
05. Cross-Eyed Mary [03:40]
06. Quatrain [01:51]
07. Aqualung [08:35]
08. Locomotive Breath [05:32]
09. The Dambusters March - Medley [03:28]

Exact Audio Copy V1.0 beta 1 from 15. November 2010

EAC extraction logfile from 9. August 2015, 20:37

Jethro Tull / Live - Bursting Out (Disc 2)

Used drive : MATSHITADVD-RAM UJ8A0AS Adapter: 0 ID: 1

Read mode : Secure
Utilize accurate stream : Yes
Defeat audio cache : Yes
Make use of C2 pointers : No

Read offset correction : 102
Overread into Lead-In and Lead-Out : No
Fill up missing offset samples with silence : Yes
Delete leading and trailing silent blocks : No
Null samples used in CRC calculations : Yes
Used interface : Native Win32 interface for Win NT & 2000

Used output format : Internal WAV Routines
Sample format : 44.100 Hz; 16 Bit; Stereo


TOC of the extracted CD

Track | Start | Length | Start sector | End sector
––––––––––––––––––––––––––––-
1 | 0:00.27 | 6:00.38 | 27 | 27064
2 | 6:00.65 | 4:19.02 | 27065 | 46491
3 | 10:19.67 | 6:54.50 | 46492 | 77591
4 | 17:14.42 | 5:47.03 | 77592 | 103619
5 | 23:01.45 | 3:39.27 | 103620 | 120071
6 | 26:40.72 | 1:50.23 | 120072 | 128344
7 | 28:31.20 | 8:34.32 | 128345 | 166926
8 | 37:05.52 | 5:31.65 | 166927 | 191816
9 | 42:37.42 | 3:27.40 | 191817 | 207381


Range status and errors

Selected range

Filename C:\Users\Alex\Music\Alexharvey\Jethro Tull - Live - Bursting Out (Disc 2).wav

Peak level 99.9 %
Extraction speed 0.0 X
Range quality 99.9 %
Test CRC 3FD95812
Copy CRC 3FD95812
Copy OK

No errors occurred


AccurateRip summary

Track 1 accurately ripped (confidence 9) [629E8967]
Track 2 accurately ripped (confidence 9) [A3061F05]
Track 3 accurately ripped (confidence 9) [A68B99D4]
Track 4 accurately ripped (confidence 9) [F263963C]
Track 5 accurately ripped (confidence 9) [0CD56753]
Track 6 accurately ripped (confidence 9) [6AE60826]
Track 7 accurately ripped (confidence 9) [BB759B98]
Track 8 accurately ripped (confidence 9) [809B3BEE]
Track 9 accurately ripped (confidence 9) [53BBE5C7]

All tracks accurately ripped

End of status report

==== Log checksum 78A2F9E9D34B31F9CBF53B720286A37A08DEE44A8B527672DF620D06DFB53315 ====

foobar2000 1.2.6 / Dynamic Range Meter 1.1.1
log date: 2015-08-10 14:35:21

––––––––––––––––––––––––––––––––––––––––
Analyzed: Jethro Tull / Live - Bursting Out (Disc 2)
––––––––––––––––––––––––––––––––––––––––

DR Peak RMS Duration Track
––––––––––––––––––––––––––––––––––––––––
DR13 -0.88 dB -17.52 dB 6:01 01-Hunting Girl
DR12 -1.79 dB -17.29 dB 4:19 02-Too Old To Rock 'N' Roll - Too Young To Die
DR13 -1.54 dB -17.03 dB 6:55 03-Conundrum
DR12 -2.68 dB -17.17 dB 5:47 04-Minstrel In The Gallery
DR12 -2.37 dB -16.23 dB 3:39 05-Cross-Eyed Mary
DR12 -1.66 dB -17.01 dB 1:50 06-Quatrain
DR14 0.00 dB -17.23 dB 8:34 07-Aqualung
DR13 -1.77 dB -16.92 dB 5:32 08-Locomotive Breath
DR12 -1.72 dB -16.96 dB 3:28 09-The Dambusters March - Medley
––––––––––––––––––––––––––––––––––––––––

Number of tracks: 9
Official DR value: DR13

Samplerate: 44100 Hz
Channels: 2
Bits per sample: 16
Bitrate: 838 kbps
Codec: FLAC
================================================================================

[CUETools log; Date: 10.08.2015 14:35:13; Version: 2.1.5]
Pregap length 00:00:27.
[CTDB TOCID: xCkYtYQlNhBBabySdOVUsoOpSxs-] found.
Track | CTDB Status
1 | (29/29) Accurately ripped
2 | (28/29) Accurately ripped
3 | (29/29) Accurately ripped
4 | (29/29) Accurately ripped
5 | (29/29) Accurately ripped
6 | (29/29) Accurately ripped
7 | (29/29) Accurately ripped
8 | (29/29) Accurately ripped
9 | (28/29) Accurately ripped, or (1/29) differs in 1148 samples @01:59:38,01:59:55-01:59:56,01:59:73,02:00:16,02:00:33,02:00:51,02:01:11,02:01:29,02:01:46,02:01:64-02:01:65,02:02:07,02:02:24-02:02:25,02:02:42-02:02:43,02:02:59-02:02:60,02:03:03,02:03:19-02:03:20,02:03:38,02:03:55-02:03:56,02:03:72-02:03:74,02:04:15-02:04:16,02:04:33,02:04:50,02:04:68,02:05:10,02:05:28-02:05:29,02:05:45,02:05:63,02:06:05,02:06:23-02:06:24,02:07:36,02:07:54,02:08:49,02:12:66,02:13:08,02:13:43,02:20:47,02:22:38,02:29:59-02:29:60,02:30:01-02:30:02,02:30:55,02:34:03,02:34:73,02:37:60,02:42:21,02:42:39,02:42:74,02:48:12,02:52:32,02:57:09,03:04:16,03:04:69,03:05:12,03:05:47-03:05:48,03:06:08,03:06:26,03:07:39-03:07:40,03:07:57,03:10:45,03:12:36-03:12:37,03:13:15,03:13:32-03:13:33,03:13:50-03:13:51,03:13:68,03:14:11,03:14:28-03:14:29,03:14:46-03:14:47,03:14:64-03:14:65,03:15:07-03:15:08,03:15:24-03:15:25,03:15:42-03:15:43,03:15:60-03:15:61,03:16:03,03:16:20-03:16:21,03:16:38-03:16:39,03:16:56-03:16:57,03:16:74-03:17:00,03:17:16-03:17:17,03:17:34-03:17:35,03:17:52-03:17:53,03:18:13-03:18:14
[AccurateRip ID: 0010511b-0076a919-660acd09] found.
Track [ CRC | V2 ] Status
01 [629e8967|ccbd69bf] (008+009/114) Accurately ripped
02 [a3061f05|ec52ad9b] (008+009/116) Accurately ripped
03 [a68b99d4|d3ca1ae1] (008+009/116) Accurately ripped
04 [f263963c|8609fba1] (008+009/116) Accurately ripped
05 [0cd56753|e4c5e982] (008+009/116) Accurately ripped
06 [6ae60826|9fd2c993] (008+009/116) Accurately ripped
07 [bb759b98|c816c461] (008+009/115) Accurately ripped
08 [809b3bee|6152e60c] (008+009/115) Accurately ripped
09 [53bbe5c7|35a62e7b] (008+009/115) Accurately ripped
Offsetted by -26:
01 [291022c9] (010/114) Accurately ripped
02 [bb7dc61c] (011/116) Accurately ripped
03 [101d9396] (011/116) Accurately ripped
04 [53458428] (011/116) Accurately ripped
05 [b4d51aaa] (013/116) Accurately ripped
06 [24353ff8] (012/116) Accurately ripped
07 [8792a30b] (010/115) Accurately ripped
08 [c582846b] (012/115) Accurately ripped
09 [6b8a81f8] (012/115) Accurately ripped
Offsetted by 194:
01 [9686314f] (009/114) Accurately ripped
02 [064d20a8] (008/116) Accurately ripped
03 [3cc9d89f] (008/116) Accurately ripped
04 [aa82c75a] (008/116) Accurately ripped
05 [04def8e9] (008/116) Accurately ripped
06 [66209edb] (008/116) Accurately ripped
07 [f34e6d7d] (008/115) Accurately ripped
08 [9660ca2d] (008/115) Accurately ripped
09 [9a02ea65] (008/115) Accurately ripped
Offsetted by 1037:
01 [9e3e0dd6] (024/114) Accurately ripped
02 [e57baf1d] (025/116) Accurately ripped
03 [71845684] (025/116) Accurately ripped
04 [11fa8cd1] (025/116) Accurately ripped
05 [df0300dd] (024/116) Accurately ripped
06 [5efa8e2d] (024/116) Accurately ripped
07 [5b823d91] (025/115) Accurately ripped
08 [8a27b6e2] (024/115) Accurately ripped
09 [3e51df08] (023/115) Accurately ripped
Offsetted by 216:
01 [b6f5991f] (000/114) No match (V2 was not tested)
02 [9dcca091] (000/116) No match (V2 was not tested)
03 [181e2484] (000/116) No match (V2 was not tested)
04 [89a0e876] (000/116) No match (V2 was not tested)
05 [2d8cafa6] (000/116) No match (V2 was not tested)
06 [e3d8078e] (000/116) No match (V2 was not tested)
07 [9195c5a7] (000/115) No match (V2 was not tested)
08 [3eb7796c] (000/115) No match (V2 was not tested)
09 [5c8b5e88] (000/115) No match (V2 was not tested)

Track Peak [ CRC32 ] [W/O NULL] [ LOG ]
– 99,9 [3FD95812] [32281433] CRC32
01 90,3 [90B41002] [55312817]
02 81,4 [F00AB8E6] [62F758FC]
03 83,7 [515648E0] [209A6A0D]
04 73,4 [E64A3CCA] [2EB72BC4]
05 76,1 [44708FC1] [F9774D09]
06 82,6 [D122CCC3] [30708C57]
07 99,9 [198842AA] [9133D0C7]
08 81,5 [69FC94E4] [2B7AE8E8]
09 82,0 [61AC31E2] [21B6C907]

Jethro Tull - Live: Bursting Out (1978) Re-Up

All thanks go to alexharvey

>>> Jethro Tull in my Blog <<<

Download from icerbox.com: