Tags
Language
Tags

Jethro Tull - Living In The Past (1972) {2004, Japanese Reissue, Remastered}

Posted By: popsakov
Jethro Tull - Living In The Past (1972) {2004, Japanese Reissue, Remastered}

Jethro Tull - Living In The Past (1972) {2004, Japanese Reissue, Remastered}
2CD | EAC Rip | FLAC (Img) + Cue + Log ~ 503 Mb | MP3 CBR320 ~ 199 Mb
Scans ~ 30 Mb | 00:40:17 + 00:42:36 | RAR 5% Recovery
Folk Rock, Art Rock, Progressive Rock | Chrysalis / Toshiba-EMI ltd. #TOCP-67369/70

Listen to this collection, put together to capitalize on the explosive growth in the group's audience after Aqualung, and it's easy to understand just how fine a group Jethro Tull was in the early '70s. Most of the songs, apart from a few heavily played album tracks ("Song for Jeffrey," etc.) and a pair of live tracks from a 1970 Carnegie Hall show, came off of singles and EPs that, apart from the title song, were scarcely known in America, and it's all so solid that it needs no apology or explanation. Not only was Ian Anderson writing solid songs every time out, but the group's rhythm section was about the best in progressive rock's pop division. Along with any of the group's first five albums, this collection is seminal and essential to any Tull collection, and the only compilation by the group that is a must-own disc.

~ Bruce Eder, All Music

***************

Jethro Tull - Living In The Past (1972) {2004, Japanese Reissue, Remastered}

Jethro Tull - Living In The Past (1972) {2004, Japanese Reissue, Remastered}

Track List CD1:

01. Song For Jeffrey [0:03:24.37]
02. Love Story [0:03:06.33]
03. Christmas Song [0:03:10.50]
04. Living In The Past [0:03:23.67]
05. Driving Song [0:02:44.55]
06. Bouree [0:03:46.60]
07. Sweet Dream [0:04:06.60]
08. Singing All Day [0:03:07.20]
09. The Witch's Promise [0:03:51.03]
10. Teacher [0:04:10.17]
11. Inside [0:03:48.68]
12. Just Trying To Be [0:01:35.62]

Exact Audio Copy V1.3 from 2. September 2016

EAC extraction logfile from 28. February 2020, 17:23

Jethro Tull / Living In The Past (CD1)[TOCP-67369]

Used drive : HL-DT-STBD-RE BH10LS38 Adapter: 1 ID: 0

Read mode : Secure
Utilize accurate stream : Yes
Defeat audio cache : Yes
Make use of C2 pointers : No

Read offset correction : 667
Overread into Lead-In and Lead-Out : No
Fill up missing offset samples with silence : Yes
Delete leading and trailing silent blocks : No
Null samples used in CRC calculations : Yes
Used interface : Native Win32 interface for Win NT & 2000

Used output format : User Defined Encoder
Selected bitrate : 128 kBit/s
Quality : High
Add ID3 tag : No
Command line compressor : C:\Program Files (x86)\Exact Audio Copy\Flac\flac.exe
Additional command line options : -V -8 -T "Date=%year%" -T "Genre=%genre%" %source%


TOC of the extracted CD

Track | Start | Length | Start sector | End sector
––––––––––––––––––––––––––––-
1 | 0:00.00 | 3:24.37 | 0 | 15336
2 | 3:24.37 | 3:06.33 | 15337 | 29319
3 | 6:30.70 | 3:10.50 | 29320 | 43619
4 | 9:41.45 | 3:23.67 | 43620 | 58911
5 | 13:05.37 | 2:44.55 | 58912 | 71266
6 | 15:50.17 | 3:46.60 | 71267 | 88276
7 | 19:37.02 | 4:06.60 | 88277 | 106786
8 | 23:43.62 | 3:07.20 | 106787 | 120831
9 | 26:51.07 | 3:51.03 | 120832 | 138159
10 | 30:42.10 | 4:10.17 | 138160 | 156926
11 | 34:52.27 | 3:48.68 | 156927 | 174094
12 | 38:41.20 | 1:35.62 | 174095 | 181281


Range status and errors

Selected range

Filename D:\Rips by Alder\Jethro Tull - Living In The Past (CD1)[TOCP-67369].wav

Peak level 99.9 %
Extraction speed 7.4 X
Range quality 100.0 %
Test CRC DC76DB5C
Copy CRC DC76DB5C
Copy OK

No errors occurred


AccurateRip summary

Track 1 accurately ripped (confidence 14) [3B3D090D] (AR v2)
Track 2 accurately ripped (confidence 14) [BB79C547] (AR v2)
Track 3 accurately ripped (confidence 14) [E33DEC1F] (AR v2)
Track 4 accurately ripped (confidence 14) [121E108F] (AR v2)
Track 5 accurately ripped (confidence 14) [1808B93E] (AR v2)
Track 6 accurately ripped (confidence 14) [9591FE72] (AR v2)
Track 7 accurately ripped (confidence 14) [20A1AB48] (AR v2)
Track 8 accurately ripped (confidence 14) [D90269C1] (AR v2)
Track 9 accurately ripped (confidence 14) [FC6240AE] (AR v2)
Track 10 accurately ripped (confidence 14) [7E193FF1] (AR v2)
Track 11 accurately ripped (confidence 14) [7B731274] (AR v2)
Track 12 accurately ripped (confidence 14) [625F76C7] (AR v2)

All tracks accurately ripped

End of status report

–– CUETools DB Plugin V2.1.6

[CTDB TOCID: 6VAwBdf9qNRvBK8QK0pj7a_sDG8-] found
Submit result: 6VAwBdf9qNRvBK8QK0pj7a_sDG8- has been confirmed
Track | CTDB Status
1 | (38/39) Accurately ripped
2 | (38/39) Accurately ripped
3 | (38/39) Accurately ripped
4 | (38/39) Accurately ripped
5 | (38/39) Accurately ripped
6 | (38/39) Accurately ripped
7 | (38/39) Accurately ripped
8 | (38/39) Accurately ripped
9 | (39/39) Accurately ripped
10 | (38/39) Accurately ripped
11 | (38/39) Accurately ripped
12 | (39/39) Accurately ripped


==== Log checksum 7512830D3AEDDF6A7997768102B8F0759625F99431FD664834A29976C4EC7103 ====

[CUETools log; Date: 10.03.2020 0:22:19; Version: 2.1.6]
[CTDB TOCID: 6VAwBdf9qNRvBK8QK0pj7a_sDG8-] found.
Track | CTDB Status
1 | (39/40) Accurately ripped
2 | (39/40) Accurately ripped
3 | (39/40) Accurately ripped
4 | (39/40) Accurately ripped
5 | (39/40) Accurately ripped
6 | (39/40) Accurately ripped
7 | (39/40) Accurately ripped
8 | (39/40) Accurately ripped
9 | (40/40) Accurately ripped
10 | (39/40) Accurately ripped
11 | (39/40) Accurately ripped
12 | (40/40) Accurately ripped
[AccurateRip ID: 00121430-00a9cf1b-a109710c] found.
Track [ CRC | V2 ] Status
01 [a74ec9ff|3b3d090d] (12+14/29) Accurately ripped
02 [15fdcbf4|bb79c547] (12+14/29) Accurately ripped
03 [a22780a4|e33dec1f] (13+14/30) Accurately ripped
04 [25ecf539|121e108f] (13+14/30) Accurately ripped
05 [b0558b97|1808b93e] (13+14/30) Accurately ripped
06 [9eaeb591|9591fe72] (13+14/30) Accurately ripped
07 [8a05e986|20a1ab48] (13+14/30) Accurately ripped
08 [49bdce50|d90269c1] (13+14/30) Accurately ripped
09 [794e19c9|fc6240ae] (13+14/30) Accurately ripped
10 [ba147662|7e193ff1] (13+14/30) Accurately ripped
11 [73302054|7b731274] (13+14/30) Accurately ripped
12 [08a023a6|625f76c7] (13+14/30) Accurately ripped
Offsetted by 794:
01 [189407c5] (00/29) No match (V2 was not tested)
02 [03e2613b] (00/29) No match (V2 was not tested)
03 [504425a9] (00/30) No match (V2 was not tested)
04 [d41ec8d4] (00/30) No match (V2 was not tested)
05 [10a153d1] (00/30) No match (V2 was not tested)
06 [26ff02ec] (00/30) No match (V2 was not tested)
07 [80a91b61] (00/30) No match (V2 was not tested)
08 [0ff67ea0] (00/30) No match (V2 was not tested)
09 [0333a98a] (00/30) No match (V2 was not tested)
10 [370b5d8f] (00/30) No match (V2 was not tested)
11 [31ebf906] (00/30) No match (V2 was not tested)
12 [860525d7] (00/30) No match (V2 was not tested)

Track Peak [ CRC32 ] [W/O NULL] [ LOG ]
– 99,9 [DC76DB5C] [008B2C9B] CRC32
01 99,2 [94ACABEA] [A056E777]
02 99,0 [1A364953] [F84F3078]
03 93,2 [70448E28] [15BD2E03]
04 99,0 [F9FDACCA] [D05917ED]
05 99,1 [C69812B7] [789ACC27]
06 89,8 [80CD535B] [ABF67B21]
07 99,9 [4ED9A536] [F0EEE77D]
08 86,7 [3D3A511E] [56C3EC0B]
09 99,4 [708DC655] [51E5635C]
10 97,2 [80C7F5C0] [86A7FE73]
11 99,9 [288ED62D] [712BE46F]
12 82,9 [927CC673] [F49D97D8]

Jethro Tull - Living In The Past (1972) {2004, Japanese Reissue, Remastered}

Jethro Tull - Living In The Past (1972) {2004, Japanese Reissue, Remastered}

Track List CD2:

01. By Kind Permission Of [0:10:31.27]
02. Dharma For One [0:10:02.15]
03. Wond'ring Again [0:04:14.05]
04. Locomotive Breath [0:04:26.55]
05. Life Is A Long Song [0:03:19.58]
06. Up The Pool [0:03:14.32]
07. Dr. Bogenbroom [0:03:01.33]
08. For Later [0:02:08.47]
09. Nursie [0:01:37.35]

Exact Audio Copy V1.3 from 2. September 2016

EAC extraction logfile from 28. February 2020, 17:38

Jethro Tull / Living In The Past (CD2)[TOCP-67370]

Used drive : HL-DT-STBD-RE BH10LS38 Adapter: 1 ID: 0

Read mode : Secure
Utilize accurate stream : Yes
Defeat audio cache : Yes
Make use of C2 pointers : No

Read offset correction : 667
Overread into Lead-In and Lead-Out : No
Fill up missing offset samples with silence : Yes
Delete leading and trailing silent blocks : No
Null samples used in CRC calculations : Yes
Used interface : Native Win32 interface for Win NT & 2000

Used output format : User Defined Encoder
Selected bitrate : 128 kBit/s
Quality : High
Add ID3 tag : No
Command line compressor : C:\Program Files (x86)\Exact Audio Copy\Flac\flac.exe
Additional command line options : -V -8 -T "Date=%year%" -T "Genre=%genre%" %source%


TOC of the extracted CD

Track | Start | Length | Start sector | End sector
––––––––––––––––––––––––––––-
1 | 0:00.00 | 10:31.27 | 0 | 47351
2 | 10:31.27 | 10:02.15 | 47352 | 92516
3 | 20:33.42 | 4:14.05 | 92517 | 111571
4 | 24:47.47 | 4:26.55 | 111572 | 131576
5 | 29:14.27 | 3:19.58 | 131577 | 146559
6 | 32:34.10 | 3:14.32 | 146560 | 161141
7 | 35:48.42 | 3:01.33 | 161142 | 174749
8 | 38:50.00 | 2:08.47 | 174750 | 184396
9 | 40:58.47 | 1:37.35 | 184397 | 191706


Range status and errors

Selected range

Filename D:\Rips by Alder\Jethro Tull - Living In The Past (CD2)[TOCP-67370].wav

Peak level 99.2 %
Extraction speed 7.4 X
Range quality 99.9 %
Test CRC F34AD4F5
Copy CRC F34AD4F5
Copy OK

No errors occurred


AccurateRip summary

Track 1 accurately ripped (confidence 17) [2998E035] (AR v2)
Track 2 accurately ripped (confidence 17) [67385C5C] (AR v2)
Track 3 accurately ripped (confidence 17) [053D27EA] (AR v2)
Track 4 accurately ripped (confidence 17) [4A28B51D] (AR v2)
Track 5 accurately ripped (confidence 17) [A2150BD3] (AR v2)
Track 6 accurately ripped (confidence 17) [66E79B09] (AR v2)
Track 7 accurately ripped (confidence 17) [FD98D331] (AR v2)
Track 8 accurately ripped (confidence 17) [14D8B6B1] (AR v2)
Track 9 accurately ripped (confidence 17) [323792CC] (AR v2)

All tracks accurately ripped

End of status report

–– CUETools DB Plugin V2.1.6

[CTDB TOCID: rgEql2zKeO5.FwtD5NNg2BUoNck-] found
Submit result: rgEql2zKeO5.FwtD5NNg2BUoNck- has been confirmed
Track | CTDB Status
1 | (37/37) Accurately ripped
2 | (37/37) Accurately ripped
3 | (36/37) Accurately ripped
4 | (36/37) Accurately ripped
5 | (36/37) Accurately ripped
6 | (36/37) Accurately ripped
7 | (36/37) Accurately ripped
8 | (36/37) Accurately ripped
9 | (37/37) Accurately ripped


==== Log checksum 497BBE2965607357931A00C3616C9AEC53D28A5DE8BF0236AB85D28DB687724C ====

[CUETools log; Date: 10.03.2020 0:10:46; Version: 2.1.6]
[CTDB TOCID: rgEql2zKeO5.FwtD5NNg2BUoNck-] found.
Track | CTDB Status
1 | (38/38) Accurately ripped
2 | (38/38) Accurately ripped
3 | (37/38) Accurately ripped
4 | (37/38) Accurately ripped
5 | (37/38) Accurately ripped
6 | (37/38) Accurately ripped
7 | (37/38) Accurately ripped
8 | (37/38) Accurately ripped
9 | (38/38) Accurately ripped
[AccurateRip ID: 0012f1e6-008110ba-7509fc09] found.
Track [ CRC | V2 ] Status
01 [ac0aada4|2998e035] (11+17/28) Accurately ripped
02 [788ada20|67385c5c] (11+17/28) Accurately ripped
03 [f509f8e1|053d27ea] (12+17/29) Accurately ripped
04 [e286529c|4a28b51d] (12+17/29) Accurately ripped
05 [1a9f89b1|a2150bd3] (12+17/29) Accurately ripped
06 [d5fb6a60|66e79b09] (12+17/29) Accurately ripped
07 [7438f585|fd98d331] (12+17/29) Accurately ripped
08 [4c921cb2|14d8b6b1] (12+17/29) Accurately ripped
09 [ddb01ad5|323792cc] (12+17/29) Accurately ripped

Track Peak [ CRC32 ] [W/O NULL] [ LOG ]
– 99,2 [F34AD4F5] [FEB9611D] CRC32
01 97,9 [1725B565] [63BF8C8E]
02 99,1 [A8B9AD78] [EA980A9F]
03 98,7 [5F1D8F95] [9A6C42CD]
04 99,2 [BDC80252] [3BFD060D]
05 96,7 [B9796C29] [8A2C20DB]
06 99,1 [B6EA70EF] [E5A431B1]
07 98,9 [5DEEEE95] [4D14AFF9]
08 99,0 [9525953A] [2C83A86E]
09 90,5 [FFEA4426] [D88DA15B]

Personnel:
Ian Anderson - vocals, flute, mandolin, tin whistle, electric guitar (12 string (on «Sweet Dream»), acoustic guitar (on «Just Trying to Be», «Wond’ring Again», «Life Is a Long Song», «Up the ‘Pool» and «Dr. Bogenbroom»), balalaika; Hammond organ (on «Singing All Day»), violin
Mick Abrahams - electric guitar (on «A Song for Jeffrey» and «Love Story»)
Martin Barre - electric guitar, acoustic guitar (on «Witch’s Promise» and «Life Is a Long Song»), backing vocals and additional percussion (on «Dharma for One»)
John Evan - piano, Hammond organ, Mellotron, harpsichord, celeste, backing vocals and additional percussion (on «Dharma for One»)
Glenn Cornick - bass guitar; Hammond organ (on «Singing All Day»)
Jeffrey Hammond (as Jeffrey Hammond-Hammond) – bass guitar (on «Hymn 43», «Locomotive Breath», «Life Is a Long Song», «Up the ‘Pool», «Dr. Bogenbroom» and «For Later»)
Clive Bunker - drums, percussion, backing vocals (on «Dharma for One»)
Barriemore Barlow - drums (on «Life Is a Long Song», «Up the ‘Pool», «Dr. Bogenbroom» and «For Later»)

Additional personnel:
David Palmer - string and orchestra conductor arrangements (on «Christmas Song» and «Sweet Dream»)
Lou Toby - string arrangement and conductor (on «Living in the Past»)

All thanks go to Alder

>>> Jethro Tull in my Blog <<<

DOWNLOAD: