Tags
Language
Tags

Jethro Tull - Minstrel In The Gallery (1975) {1987, Reissue}

Posted By: popsakov
Jethro Tull - Minstrel In The Gallery (1975) {1987, Reissue}

Jethro Tull - Minstrel In The Gallery (1975) {1987, Reissue}
EAC Rip | FLAC (Img) + Cue + Log ~ 284 Mb | MP3 CBR320 ~ 133 Mb
Full Scans | RAR 5% Recovery
Art Rock, Progressive Rock, Folk Rock | Chrysalis #252 662

Minstrel in the Gallery was Tull's most artistically successful and elaborately produced album since Thick as a Brick and harkened back to that album with the inclusion of a 17-minute extended piece ("Baker Street Muse"). Although English folk elements abound, this is really a hard rock showcase on a par with – and perhaps even more aggressive than – anything on Aqualung. The title track is a superb showcase for the group, freely mixing folk melodies, lilting flute passages, and archaic, pre-Elizabethan feel, and the fiercest electric rock in the group's history – parts of it do recall phrases from A Passion Play, but all of it is more successful than anything on War Child. Martin Barre's attack on the guitar is as ferocious as anything in the band's history, and John Evan's organ matches him amp for amp, while Barriemore Barlow and Jeffrey Hammond-Hammond hold things together in a furious performance. Anderson's flair for drama and melody come to the fore in "Cold Wind to Valhalla," and "Requiem" is the loveliest acoustic number in Tull's repertory, featuring nothing but Anderson's singing and acoustic guitar, Hammond-Hammond's bass, and a small string orchestra backing them. "Nothing at All" isn't far behind for sheer, unabashed beauty, but "Black Satin Dancer" is a little too cacophonous for its own good. "Baker Street Muse" recalls Thick as a Brick and A Passion Play, not only in its structure but a few passages; at slightly under 17 minutes, it's a tad more manageable than either of its conceptual predecessors, and it has all of their virtues, freely overlapping hard rock and folk material, classical arrangements (some of the most tasteful string playing on a Tull recording), surprising tempo shifts, and complex stream-of-consciousness lyrics (some of which clearly veer into self-parody) into a compelling whole.

~ Bruce Eder, All Music

***************

Jethro Tull - Minstrel In The Gallery (1975) {1987, Reissue}

Jethro Tull - Minstrel In The Gallery (1975) {1987, Reissue}

Track List:

01. Minstrel in the Gallery [0:08:15.00]
02. Cold Wind to Valhalla [0:04:20.25]
03. Black Satin Dancer [0:06:53.00]
04. Requiem [0:03:42.50]
05. One White Duck/O10 = Nothing at All [0:04:38.25]
06. Baker St. Muse [0:16:43.00]
07. Grace [0:00:36.25]

Personnel:
Ian Anderson - flute, acoustic guitar, vocals
Martin Barre - electric guitars
John Evan - piano and organ
Jeffrey Hammond - bass guitar and string bass
Barriemore Barlow - drums, percussion

Additional personnel:
David Palmer - orchestral arrangements and conduction
Rita Eddowes, Elizabeth Edwards, Patrick Halling and Bridget Procter - violins
Katharine Tullborn - cello

Exact Audio Copy V1.3 from 2. September 2016

EAC extraction logfile from 29. December 2018, 18:39

Jethro Tull / Minstrel in the Gallery (252 662)

Used drive : HL-DT-STDVDRAM GE20NU11 Adapter: 1 ID: 0

Read mode : Secure
Utilize accurate stream : Yes
Defeat audio cache : Yes
Make use of C2 pointers : No

Read offset correction : 667
Overread into Lead-In and Lead-Out : No
Fill up missing offset samples with silence : Yes
Delete leading and trailing silent blocks : No
Null samples used in CRC calculations : Yes
Used interface : Native Win32 interface for Win NT & 2000

Used output format : User Defined Encoder
Selected bitrate : 896 kBit/s
Quality : High
Add ID3 tag : No
Command line compressor : C:\Program Files\Exact Audio Copy\Flac\flac.exe
Additional command line options : -V -8 -T "Date=%year%" -T "Genre=%genre%" %source%


TOC of the extracted CD

Track | Start | Length | Start sector | End sector
––––––––––––––––––––––––––––-
1 | 0:00.00 | 8:15.00 | 0 | 37124
2 | 8:15.00 | 4:20.25 | 37125 | 56649
3 | 12:35.25 | 6:53.00 | 56650 | 87624
4 | 19:28.25 | 3:42.50 | 87625 | 104324
5 | 23:11.00 | 4:38.25 | 104325 | 125199
6 | 27:49.25 | 16:43.00 | 125200 | 200424
7 | 44:32.25 | 0:36.25 | 200425 | 203149


Range status and errors

Selected range

Filename Z:\OdW\Jethro Tull\1975 - Minstrel in the Gallery (252 662)\Jethro Tull - Minstrel in the Gallery (252 662).wav

Peak level 91.5 %
Extraction speed 6.7 X
Range quality 100.0 %
Test CRC 825E78D4
Copy CRC 825E78D4
Copy OK

No errors occurred


AccurateRip summary

Track 1 accurately ripped (confidence 11) [35417A9D] (AR v2)
Track 2 accurately ripped (confidence 11) [1E343ADA] (AR v2)
Track 3 accurately ripped (confidence 11) [85174D02] (AR v2)
Track 4 accurately ripped (confidence 11) [777CB2BB] (AR v2)
Track 5 accurately ripped (confidence 11) [73CC61B1] (AR v2)
Track 6 accurately ripped (confidence 11) [25A93ACD] (AR v2)
Track 7 accurately ripped (confidence 11) [9DA11E88] (AR v2)

All tracks accurately ripped

End of status report

–– CUETools DB Plugin V2.1.6

[CTDB TOCID: YV6LyoGW2nsDr0KgG_.30Ce_3fI-] found
Submit result: YV6LyoGW2nsDr0KgG_.30Ce_3fI- has been confirmed
Track | CTDB Status
1 | (61/62) Accurately ripped
2 | (61/62) Accurately ripped
3 | (61/62) Accurately ripped
4 | (61/62) Accurately ripped
5 | (61/62) Accurately ripped
6 | (59/62) Accurately ripped
7 | (59/62) Accurately ripped


==== Log checksum 3588A32E3683697865929A186BA923F091AA09C72B4048C3C210F58CFEA57784 ====

foobar2000 1.3.16 / Dynamic Range Meter 1.1.1
log date: 2019-02-23 21:10:45

––––––––––––––––––––––––––––––––––––––––
Analyzed: Jethro Tull / Minstrel in the Gallery (252 662)
––––––––––––––––––––––––––––––––––––––––

DR Peak RMS Duration Track
––––––––––––––––––––––––––––––––––––––––
DR13 -1.54 dB -18.07 dB 8:15 01-Minstrel in the Gallery
DR13 -0.80 dB -17.27 dB 4:20 02-Cold Wind to Valhalla
DR14 -1.54 dB -19.49 dB 6:53 03-Black Satin Dancer
DR14 -6.47 dB -24.42 dB 3:43 04-Requiem
DR14 -2.14 dB -19.93 dB 4:38 05-One White Duck/O10 = Nothing at All
DR14 -0.77 dB -19.04 dB 16:43 06-Baker St. Muse
DR13 -5.70 dB -22.70 dB 0:36 07-Grace
––––––––––––––––––––––––––––––––––––––––

Number of tracks: 7
Official DR value: DR14

Samplerate: 44100 Hz
Channels: 2
Bits per sample: 16
Bitrate: 765 kbps
Codec: FLAC
================================================================================

[CUETools log; Date: 23.02.2019 21:11:06; Version: 2.1.6]
[CTDB TOCID: YV6LyoGW2nsDr0KgG_.30Ce_3fI-] found.
Track | CTDB Status
1 | (63/64) Accurately ripped
2 | (63/64) Accurately ripped
3 | (63/64) Accurately ripped
4 | (63/64) Accurately ripped
5 | (63/64) Accurately ripped
6 | (61/64) Accurately ripped
7 | (61/64) Accurately ripped
[AccurateRip ID: 000c6da4-004ab3d5-640a9407] found.
Track [ CRC | V2 ] Status
01 [a1d77acb|35417a9d] (05+11/33) Accurately ripped
02 [3bf2e280|1e343ada] (05+11/33) Accurately ripped
03 [3e7d0c32|85174d02] (05+11/33) Accurately ripped
04 [9cf5fdd3|777cb2bb] (05+11/33) Accurately ripped
05 [0c6cff0c|73cc61b1] (05+11/33) Accurately ripped
06 [c8892a6a|25a93acd] (05+11/33) Accurately ripped
07 [79bce78e|9da11e88] (05+11/33) Accurately ripped
Offsetted by -235:
01 [c7577ca9] (07/33) Accurately ripped
02 [62eef03a] (07/33) Accurately ripped
03 [7c8aecbb] (07/33) Accurately ripped
04 [fa465808] (07/33) Accurately ripped
05 [d111af3c] (07/33) Accurately ripped
06 [b9e3187b] (07/33) Accurately ripped
07 [21e23652] (07/33) Accurately ripped
Offsetted by -429:
01 [c3708c5d] (00/33) No match (V2 was not tested)
02 [7c948816] (00/33) No match (V2 was not tested)
03 [c1333fb1] (00/33) No match (V2 was not tested)
04 [9f8bf206] (00/33) No match (V2 was not tested)
05 [15b8245c] (00/33) No match (V2 was not tested)
06 [849968b7] (00/33) No match (V2 was not tested)
07 [2bc17564] (00/33) No match (V2 was not tested)

Track Peak [ CRC32 ] [W/O NULL] [ LOG ]
– 91,5 [825E78D4] [517EB6A9] CRC32
01 83,7 [40F9B1AB] [51AD1728]
02 91,2 [DB121E8E] [BBA411F0]
03 83,7 [9899AAEB] [41F68BAA]
04 47,4 [1E462B02] [0C82A5AA]
05 78,1 [C7D1D34D] [EA2778BF]
06 91,5 [99013098] [CC9992BB]
07 51,8 [789E7BD7] [0868A518]

Jethro Tull - Minstrel In The Gallery (1975) {1987, Reissue}

All thanks go to Olaf der Weisse

>>> Jethro Tull in my Blog <<<

Download from icerbox.com: