Tags
Language
Tags

Jethro Tull - Minstrel In The Gallery (1975) {1993, Japan 1st Press}

Posted By: popsakov
Jethro Tull - Minstrel In The Gallery (1975) {1993, Japan 1st Press}

Jethro Tull - Minstrel In The Gallery (1975) {1993, Japan 1st Press}
EAC Rip | WV (Img) + Cue + Log ~ 264 Mb | MP3 CBR320 ~ 113 Mb
Scans Included (JPG, 300 dpi) | RAR 5% Recovery
Art Rock, Progressive Rock, Folk Rock | Chrysalis / Toshiba-EMI #TOCP-7817

Minstrel in the Gallery was Tull's most artistically successful and elaborately produced album since Thick as a Brick and harkened back to that album with the inclusion of a 17-minute extended piece ("Baker Street Muse"). Although English folk elements abound, this is really a hard rock showcase on a par with – and perhaps even more aggressive than – anything on Aqualung. The title track is a superb showcase for the group, freely mixing folk melodies, lilting flute passages, and archaic, pre-Elizabethan feel, and the fiercest electric rock in the group's history – parts of it do recall phrases from A Passion Play, but all of it is more successful than anything on War Child. Martin Barre's attack on the guitar is as ferocious as anything in the band's history, and John Evan's organ matches him amp for amp, while Barriemore Barlow and Jeffrey Hammond-Hammond hold things together in a furious performance. Anderson's flair for drama and melody come to the fore in "Cold Wind to Valhalla," and "Requiem" is the loveliest acoustic number in Tull's repertory, featuring nothing but Anderson's singing and acoustic guitar, Hammond-Hammond's bass, and a small string orchestra backing them. "Nothing at All" isn't far behind for sheer, unabashed beauty, but "Black Satin Dancer" is a little too cacophonous for its own good. "Baker Street Muse" recalls Thick as a Brick and A Passion Play, not only in its structure but a few passages; at slightly under 17 minutes, it's a tad more manageable than either of its conceptual predecessors, and it has all of their virtues, freely overlapping hard rock and folk material, classical arrangements (some of the most tasteful string playing on a Tull recording), surprising tempo shifts, and complex stream-of-consciousness lyrics (some of which clearly veer into self-parody) into a compelling whole.
~ Bruce Eder, All Music

***************

Jethro Tull - Minstrel In The Gallery (1975) {1993, Japan 1st Press}

Jethro Tull - Minstrel In The Gallery (1975) {1993, Japan 1st Press}

Track List:

01. Minstrel in the Gallery [0:08:20.47]
02. Cold Wind to Valhalla [0:04:19.63]
03. Black Satin Dancer [0:06:54.10]
04. Requiem [0:03:42.72]
05. One White Duck/O10 = Nothing at All [0:04:37.18]
06. Baker St. Muse [0:16:44.37]
07. Grace [0:00:38.15]

Personnel:
Ian Anderson – flute, acoustic guitar, vocals
Martin Barre – electric guitars
John Evan – piano and organ
Jeffrey Hammond – bass guitar and string bass
Barriemore Barlow – drums, percussion

Additional personnel:
David Palmer – orchestral arrangements and conduction
Rita Eddowes, Elizabeth Edwards, Patrick Halling and Bridget Procter – violins
Katharine Tullborn – cello

Exact Audio Copy V1.2 from 12. August 2016

EAC extraction logfile from 6. July 2017, 10:58

Jethro Tull / Minstrel in the Gallery [TOCP-7817]

Used drive : HL-DT-STBD-RE BH10LS38 Adapter: 1 ID: 1

Read mode : Secure
Utilize accurate stream : Yes
Defeat audio cache : Yes
Make use of C2 pointers : No

Read offset correction : 667
Overread into Lead-In and Lead-Out : No
Fill up missing offset samples with silence : Yes
Delete leading and trailing silent blocks : No
Null samples used in CRC calculations : Yes
Used interface : Installed external ASPI interface

Used output format : User Defined Encoder
Selected bitrate : 128 kBit/s
Quality : High
Add ID3 tag : No
Command line compressor : C:\Program Files (x86)\Exact Audio Copy\wavpack-4.60.1\wavpack.exe
Additional command line options : -hm -w "Year=%year%" -w "Genre=%genre%" %source% %dest%


TOC of the extracted CD

Track | Start | Length | Start sector | End sector
––––––––––––––––––––––––––––-
1 | 0:00.00 | 8:20.47 | 0 | 37546
2 | 8:20.47 | 4:19.63 | 37547 | 57034
3 | 12:40.35 | 6:54.10 | 57035 | 88094
4 | 19:34.45 | 3:42.72 | 88095 | 104816
5 | 23:17.42 | 4:37.18 | 104817 | 125609
6 | 27:54.60 | 16:44.37 | 125610 | 200946
7 | 44:39.22 | 0:38.15 | 200947 | 203811


Range status and errors

Selected range

Filename G:\Rips by Alder\Jethro Tull - Minstrel in the Gallery [TOCP-7817].wav

Peak level 95.5 %
Extraction speed 7.2 X
Range quality 100.0 %
Test CRC DA354434
Copy CRC DA354434
Copy OK

No errors occurred


AccurateRip summary

Track 1 not present in database
Track 2 not present in database
Track 3 not present in database
Track 4 not present in database
Track 5 not present in database
Track 6 not present in database
Track 7 not present in database

None of the tracks are present in the AccurateRip database

End of status report

–– CUETools DB Plugin V2.1.6

[CTDB TOCID: rfr6eviARN2QckBhmyHogFjPq_Q-] found
Submit result: rfr6eviARN2QckBhmyHogFjPq_Q- has been confirmed
Track | CTDB Status
1 | (3/3) Accurately ripped
2 | (3/3) Accurately ripped
3 | (3/3) Accurately ripped
4 | (3/3) Accurately ripped
5 | (3/3) Accurately ripped
6 | (3/3) Accurately ripped
7 | (3/3) Accurately ripped


==== Log checksum C78CA9A19319825EE820D28845721ADBD1669A38D88ADCD4C45D6197AF6CEF9F ====

foobar2000 1.2.6 / Dynamic Range Meter 1.1.1
log date: 2017-07-07 21:20:43

––––––––––––––––––––––––––––––––––––––––
Analyzed: Jethro Tull / Minstrel in the Gallery [TOCP-7817]
––––––––––––––––––––––––––––––––––––––––

DR Peak RMS Duration Track
––––––––––––––––––––––––––––––––––––––––
DR13 -0.39 dB -17.04 dB 8:21 01-Minstrel in the Gallery
DR12 -1.55 dB -17.16 dB 4:20 02-Cold Wind to Valhalla
DR13 -2.35 dB -19.60 dB 6:54 03-Black Satin Dancer
DR13 -6.28 dB -23.06 dB 3:43 04-Requiem
DR13 -5.41 dB -22.00 dB 4:37 05-One White Duck/O10 = Nothing at All
DR14 -1.14 dB -18.77 dB 16:44 06-Baker St. Muse
DR12 -7.34 dB -24.07 dB 0:38 07-Grace
––––––––––––––––––––––––––––––––––––––––

Number of tracks: 7
Official DR value: DR13

Samplerate: 44100 Hz
Channels: 2
Bits per sample: 16
Bitrate: 765 kbps
Codec: WavPack
================================================================================

[CUETools log; Date: 07.07.2017 21:20:52; Version: 2.1.5]
[CTDB TOCID: rfr6eviARN2QckBhmyHogFjPq_Q-] found.
Track | CTDB Status
1 | (4/4) Accurately ripped
2 | (4/4) Accurately ripped
3 | (4/4) Accurately ripped
4 | (4/4) Accurately ripped
5 | (4/4) Accurately ripped
6 | (4/4) Accurately ripped
7 | (4/4) Accurately ripped
[AccurateRip ID: 000c7ac7-004af92a-620a9d07] disk not present in database.

Track Peak [ CRC32 ] [W/O NULL] [ LOG ]
– 95,5 [DA354434] [BFB0EE47] CRC32
01 95,5 [7D8C92C4] [95A09EFF]
02 83,6 [74E38989] [0B1DFFCD]
03 76,3 [0B4C5459] [5BAA86AA]
04 48,5 [B3862EEA] [3C953D1C]
05 53,6 [53A61EB2] [7D1C5777]
06 87,6 [6E023E50] [D72C7866]
07 42,9 [1B211A9D] [6C71B05D]

Jethro Tull - Minstrel In The Gallery (1975) {1993, Japan 1st Press}

All thanks go to Alder

>>> Jethro Tull in my Blog <<<

Download from icerbox.com: