Subcategories
Tags
Language
Tags

Jethro Tull - Stormwatch (1979) Re-Up

Posted By: popsakov
Jethro Tull - Stormwatch (1979) Re-Up

Jethro Tull - Stormwatch (1979)
EAC Rip | FLAC (Img) + Cue + Log ~ 269 Mb | MP3 CBR320 ~ 122 Mb
Full Scans | 00:45:35 | RAR 5% Recovery
Folk Rock, Progressive Rock | Chrysalis Records #CDP32 1238-2 | UK

Stormwatch is the twelfth studio album by the progressive rock group Jethro Tull, released September 1979. It is considered the last in the trilogy of folk-rock albums by Jethro Tull (although folk music influenced virtually every Tull album to some extent.). Among other subject-matters, the album touches heavily on the problems relating to the environment, oil and money. Stormwatch was notably the last Tull album to feature the "classic" line-up of the 1970s, as drummer Barriemore Barlow and keyboardists John Evan and David Palmer left the band the following year after the end of the Stormwatch tour, while bassist John Glascock died from heart complications during the tour.

***************

Jethro Tull - Stormwatch (1979) Re-Up

Jethro Tull - Stormwatch (1979) Re-Up

Track List:

01. North Sea Oil [3:11]
02. Orion [3:58]
03. Home [2:45]
04. Dark Ages [9:14]
05. Warm Sporran [3:35]
06. Something's on the Move [4:27]
07. Old Ghosts [4:23]
08. Dun Ringill [2:42]
09. Flying Dutchman [7:46]
10. Elegy [3:34]

Personnel:
Ian Anderson – vocals, flute, acoustic guitar, bass guitar (except tracks 2, 9, 10, 12, 13, 14)
Martin Barre – electric guitar, mandolin, classical guitar
Barriemore Barlow – drums, percussion
John Evan – piano, organ
David Palmer – synthesizers, portable organ and orchestral arrangements
John Glascock – bass guitar (on tracks 2, 9, 10, 12 & 13)

Additional personnel:
Francis Wilson – spoken voice on track 1 (the Shipping Forecast), and the spoken introduction to track 8.
Dave Pegg – bass guitar on bonus track 14

Exact Audio Copy V1.3 from 2. September 2016

EAC extraction logfile from 22. May 2018, 0:22

Jethro Tull / Stormwatch

Used drive : TSSTcorpCDDVDW TS-L633B Adapter: 1 ID: 0

Read mode : Secure
Utilize accurate stream : Yes
Defeat audio cache : Yes
Make use of C2 pointers : No

Read offset correction : 6
Overread into Lead-In and Lead-Out : No
Fill up missing offset samples with silence : Yes
Delete leading and trailing silent blocks : No
Null samples used in CRC calculations : Yes
Used interface : Native Win32 interface for Win NT & 2000

Used output format : Internal WAV Routines
Sample format : 44.100 Hz; 16 Bit; Stereo


TOC of the extracted CD

Track | Start | Length | Start sector | End sector
––––––––––––––––––––––––––––-
1 | 0:00.30 | 3:11.25 | 30 | 14379
2 | 3:11.55 | 3:58.00 | 14380 | 32229
3 | 7:09.55 | 2:45.37 | 32230 | 44641
4 | 9:55.17 | 9:13.40 | 44642 | 86156
5 | 19:08.57 | 3:34.48 | 86157 | 102254
6 | 22:43.30 | 4:27.17 | 102255 | 122296
7 | 27:10.47 | 4:23.13 | 122297 | 142034
8 | 31:33.60 | 2:41.50 | 142035 | 154159
9 | 34:15.35 | 7:45.60 | 154160 | 189094
10 | 42:01.20 | 3:34.10 | 189095 | 205154


Range status and errors

Selected range

Filename F:\Alexharvey\Jethro Tull - Stormwatch.wav

Peak level 68.8 %
Extraction speed 2.5 X
Range quality 99.9 %
Test CRC 11B295FD
Copy CRC 11B295FD
Copy OK

No errors occurred


AccurateRip summary

Track 1 accurately ripped (confidence 62) [B3F382E9] (AR v2)
Track 2 accurately ripped (confidence 61) [00D0563A] (AR v2)
Track 3 accurately ripped (confidence 63) [70148106] (AR v2)
Track 4 accurately ripped (confidence 62) [25DB52E5] (AR v2)
Track 5 accurately ripped (confidence 61) [6784C246] (AR v2)
Track 6 accurately ripped (confidence 62) [744D6B8B] (AR v2)
Track 7 accurately ripped (confidence 62) [12B85ED6] (AR v2)
Track 8 accurately ripped (confidence 62) [FD07B479] (AR v2)
Track 9 accurately ripped (confidence 63) [C572B0F5] (AR v2)
Track 10 accurately ripped (confidence 62) [9DBD233A] (AR v2)

All tracks accurately ripped

End of status report

–– CUETools DB Plugin V2.1.6

[CTDB TOCID: hyeAyuz.ab3nyRJIVfP2hWTiVmQ-] found
Submit result: hyeAyuz.ab3nyRJIVfP2hWTiVmQ- has been confirmed
Track | CTDB Status
1 | (123/130) Accurately ripped
2 | (123/130) Accurately ripped
3 | (124/130) Accurately ripped
4 | (122/130) Accurately ripped
5 | (123/130) Accurately ripped
6 | (124/130) Accurately ripped
7 | (123/130) Accurately ripped
8 | (123/130) Accurately ripped
9 | (121/130) Accurately ripped
10 | (125/130) Accurately ripped


==== Log checksum 22720EB1C67FBF4D54C4A05CBB7ACDD13A24B1342E37287387F4FC215A0FB130 ====

foobar2000 1.3.16 / Dynamic Range Meter 1.1.1
log date: 2018-05-22 22:18:06

––––––––––––––––––––––––––––––––––––––––
Analyzed: Jethro Tull / Stormwatch
––––––––––––––––––––––––––––––––––––––––

DR Peak RMS Duration Track
––––––––––––––––––––––––––––––––––––––––
DR12 -3.46 dB -17.59 dB 3:11 01-North Sea Oil
DR12 -4.08 dB -19.06 dB 3:58 02-Orion
DR11 -5.26 dB -19.56 dB 2:45 03-Home
DR12 -4.10 dB -20.47 dB 9:14 04-Dark Ages
DR12 -3.25 dB -18.98 dB 3:35 05-Warm Sporran
DR12 -4.01 dB -18.20 dB 4:27 06-Something's on the Move
DR12 -5.44 dB -20.07 dB 4:23 07-Old Ghosts
DR13 -5.95 dB -23.94 dB 2:42 08-Dun Ringill
DR13 -4.89 dB -21.70 dB 7:46 09-Flying Dutchman
DR12 -8.94 dB -24.19 dB 3:34 10-Elegy
––––––––––––––––––––––––––––––––––––––––

Number of tracks: 10
Official DR value: DR12

Samplerate: 44100 Hz
Channels: 2
Bits per sample: 16
Bitrate: 748 kbps
Codec: FLAC
================================================================================

[CUETools log; Date: 22.05.2018 22:16:40; Version: 2.1.6]
Pregap length 00:00:30.
[CTDB TOCID: hyeAyuz.ab3nyRJIVfP2hWTiVmQ-] found.
Track | CTDB Status
1 | (124/131) Accurately ripped
2 | (124/131) Accurately ripped
3 | (125/131) Accurately ripped
4 | (123/131) Accurately ripped
5 | (124/131) Accurately ripped
6 | (125/131) Accurately ripped
7 | (124/131) Accurately ripped
8 | (124/131) Accurately ripped
9 | (122/131) Accurately ripped
10 | (126/131) Accurately ripped
[AccurateRip ID: 0010ab54-00876f29-7f0aaf0a] found.
Track [ CRC | V2 ] Status
01 [25c3030b|b3f382e9] (055+062/143) Accurately ripped
02 [25e67b3e|00d0563a] (056+061/144) Accurately ripped
03 [aaf06ab5|70148106] (056+063/146) Accurately ripped
04 [7f6f4ae2|25db52e5] (055+062/142) Accurately ripped
05 [0f664591|6784c246] (054+061/140) Accurately ripped
06 [97bc297c|744d6b8b] (055+062/144) Accurately ripped
07 [a92edc2b|12b85ed6] (055+062/143) Accurately ripped
08 [92a138bd|fd07b479] (055+062/144) Accurately ripped
09 [a4ede5ce|c572b0f5] (053+063/141) Accurately ripped
10 [66c14ea2|9dbd233a] (050+062/137) Accurately ripped
Offsetted by -533:
01 [1c8fb82f] (008/143) Accurately ripped
02 [2ba3479c] (009/144) Accurately ripped
03 [417d2753] (009/146) Accurately ripped
04 [cfb23c40] (008/142) Accurately ripped
05 [e8bd6342] (008/140) Accurately ripped
06 [65654012] (009/144) Accurately ripped
07 [3e0790f1] (008/143) Accurately ripped
08 [0688a3d4] (009/144) Accurately ripped
09 [9eeb07e2] (007/141) Accurately ripped
10 [9b665ef3] (007/137) Accurately ripped

Track Peak [ CRC32 ] [W/O NULL] [ LOG ]
– 68,8 [11B295FD] [087593FD] CRC32
01 67,1 [72DAD3EB] [97D923A0]
02 62,4 [1FE72B5C] [59A2B7C2]
03 54,5 [C99D0348] [29D2EEF4]
04 62,4 [14F51978] [4D9888E6]
05 68,8 [AABA7DC8] [37D01879]
06 63,0 [E272D22C] [84874D74]
07 53,4 [2ED877A2] [73F5619E]
08 50,3 [6DF4920B] [D525BF87]
09 56,9 [8988ED5C] [3F7E9E22]
10 35,7 [E669D620] [74CD8855]

Jethro Tull - Stormwatch (1979) Re-Up


All thanks go to Alexharvey

>>> Jethro Tull in my Blog <<<

DOWNLOAD: