Subcategories

Jethro Tull - Stormwatch (1979) [4CD + 2DVD Box Set] PROPER

Posted By: v3122
Jethro Tull - Stormwatch (1979) [4CD + 2DVD Box Set] PROPER

Jethro Tull - Stormwatch (1979)
EAC | Flac(Image) + Cue + Log & MP3 CBR 320Kbps
Chrysalis, 0190295471804 | ~ 1503 or 653 Mb | Artwork(png) -> 790 Mb
2xDVD-9: NTSC 16:9 (720x480) VBR, Auto Letterboxed
LinearPCM, 2 ch / DTS, 6 ch / Dolby AC3, 6 ch
Rock / Progressive Rock

Stormwatch is the album that they often call the third of the Tull folk rock trilogy and after Songs From The Wood and Heavy Horses (and their subsequent five star extended version in this series) it has a hard job to do. It’s an album much less rooted in the traditions of olde England than its predecessors, taking more of a focus on the environmental issues of the period. Tull go from the greenwood to the industries. The times they were a changin’ not only in the world in dealing with environmental and ecological issues but also in the world of Jethro Tull.

Rumblings in the personnel department saw John Glascock take leave from the fold due to ill health with Ian Anderson taking up the bulk of the bass duties. Glascock’s subsequent death during the tour for the album a shocking tragedy shock for the whole Tull enterprise, his parting shot remaining on Orion, Flying Dutchman and the beautiful Elegy.

So how has Steven Wilson done on the latest Tull offering as we move into the band’s mid history and after his sterling work on the early catalogue. First impressions are that we’ve got another of the superb packages to which we’ve now become accustomed. The hardback format with the six discs of goodness tucked into the inside covers and a huge booklet to ponder. In addition to a Palmer/Anderson track-by-track guides, the contents are a detailed read of an account of the recordings and touring of the era from Webb with contributions from Ian Anderson who’s again taken an active role in re-issues of what’s essentially his life’s work, and also from Martin Barre, Dave Pegg and Dee Palmer. They offer the sort of insightful commentary you’d expect from a staunch but objective (and probably slightly obsessive) fan, but I’ve always found the Webb/Rees writing partnership a pleasure to read from their work in A New Day magazine and its offshoots.

And to the music. With a catalogue of work as strong as Tull’s, Stormwatch may not rank a favourite amongst many – neither the best nor their worst work but a decent mid table work – so there’s the obvious chance to reassess the album itself. One that often gets a raw deal, it’s new lease of life reveals a few pleasant reminders and surprises.

At the sort of surprise in reminding us what a good track Old Ghosts is, necessitating several sessions with the track on loop along with the fact that Dun Ringill remains one of the iconic ‘acoustic’ Tull tracks. The harder rock of Something’s On The Move and the rare non-Anderson piece, David Palmer’s Elegy, that’s granted the honour as a soothing album closer. It may be that the higher profile numbers – North Sea Oil, Orion and the lengthy Dark Ages were the ones that would have stuck in the memory banks. There’s much less of the pastoral acoustic feel of the previous two albums and more of a steely cold starkness about these three key tracks, although aside from Dun Ringill, Home offers a rare breath of warmth.

The disc of ‘associated recordings’ gathers odds and ends, some previously available so there’s a familiarity with songs from a fertile period such as kelpie, King Henry’s Madrigal and most people who buy this say will have their white vinyl 7” of A Stitch In Time. Broadford Bazaar that appeared on the Nightcap collection is always a pleasure although not ranking in the premier league of Tull songs.

The Lyricon Blues reminding us that this was Jethro Tull, a nod back to their Mick Abrahams period before they finally kiss goodbye to the Seventies and amongst the ‘previously unreleased’ (officially) offerings, Man Of God (Anderson’s religious comments channelled on My God getting revamped) is a taught rocker. Similarly ‘unreleased’ gems include A Single Man which seems like another try at the successful formula that emerged with Locomotive Breath, the extended piano intro leading into a general uninspired band contribution. Urban Apocalypse is cut from the same cloth although you can literally feel the fire in a more inspired rendition. It may be a bit of a mist mash with a live version of Sweet Dream thrown in at the end, but all part and parcel of the wrapping up of goods from the era.

The availability of decent concert recordings as we work our way along the Tull timeline sees a gig in Den Haag from March 1980 showcase Tull live at he start of the eighties. There’s an uninterrupted Stromwatch sequence to kick off the set, getting all the new stuff done in one fell swoop. The “we’re going to test your memories,” and we’re suddenly sitting on a park bench as Tull rip through the hits. There’s a batch of inevitable solo indulgence and a nice little folky section that includes Dave Pegg’s moment in the spotlight (aptly titled Peggy’s Pub) along with Jack In The green and the King Henry Madrigal, but it’s Thick As A Brick that seems to sway the Dutch. They holler and cheer like proper Americans through the acoustic intro although some might argue that it would struggle to meet the acoustic/electric riffs that make up Minstrel In The Gallery, especially when the stabs of organ make a move.

It’s also the days when the set finished with the ambushers and before the shows started to end with the familiar strains of Cheerio, but as a live set it proves a fitting swan song for several seemingly well-set band members.

Following the tour, Barriemore Barlow, John Evan and DavidPalmer left the band as Anderson proceeded with his solo project that ultimately became Tull’s A album and the boundaries between Ian Anderson the singer, flute player and acoustic guitarist and the band presence of Jethro Tull started to become blurred. An era had passed.

The extra DVDs add 5.1 mixes and flat transfers which to the layman might be speaking a foreign language but you can bet they sound nice even on your budget surround sound system. The Force 10 earns its place amongst the other Tull expanded editions that may sit on your shelf, and even if they’re a band you despise with a vengeance, acknowledge the quality of the job that goes into such grand productions. ~ louderthanwar.com
Jethro Tull - Stormwatch (1979) [4CD + 2DVD Box Set] PROPER

Jethro Tull - Stormwatch (1979):

Jethro Tull - Stormwatch (1979) [4CD + 2DVD Box Set] PROPER

Tracklist CD1 - Steven Wilson Remix
Of Original Album:


01 North Sea Oil
02 Orion
03 Home
04 Dark Ages
05 Warm Sporran
06 Something's On The Move
07 Old Ghosts
08 Dun Ringill
09 Flying Dutchman
10 Elegy

Exact Audio Copy V1.3 from 2. September 2016

EAC extraction logfile from 12. December 2019, 18:42

Jethro Tull / Stormwatch

Used drive : PLEXTOR BD-R PX-B950SA Adapter: 1 ID: 1

Read mode : Secure
Utilize accurate stream : Yes
Defeat audio cache : Yes
Make use of C2 pointers : No

Read offset correction : 6
Overread into Lead-In and Lead-Out : No
Fill up missing offset samples with silence : Yes
Delete leading and trailing silent blocks : No
Null samples used in CRC calculations : Yes
Used interface : Native Win32 interface for Win NT & 2000

Used output format : Internal WAV Routines
Sample format : 44.100 Hz; 16 Bit; Stereo


TOC of the extracted CD

Track | Start | Length | Start sector | End sector
––––––––––––––––––––––––––––-
1 | 0:00.00 | 3:11.16 | 0 | 14340
2 | 3:11.16 | 4:00.18 | 14341 | 32358
3 | 7:11.34 | 2:45.42 | 32359 | 44775
4 | 9:57.01 | 9:11.64 | 44776 | 86164
5 | 19:08.65 | 3:58.00 | 86165 | 104014
6 | 23:06.65 | 4:29.56 | 104015 | 124245
7 | 27:36.46 | 4:23.57 | 124246 | 144027
8 | 32:00.28 | 2:41.49 | 144028 | 156151
9 | 34:42.02 | 7:43.33 | 156152 | 190909
10 | 42:25.35 | 3:33.74 | 190910 | 206958


Range status and errors

Selected range

Filename C:\Users\Alex\Desktop\ALLexxess\Jethro Tull\1979 Stormwatch (6-Disc Box Set Chrysalis Records 2019)\CD1 Steven Wilson Remix\Jethro Tull - Stormwatch.wav

Peak level 99.9 %
Extraction speed 7.0 X
Range quality 100.0 %
Test CRC F2F3BB30
Copy CRC F2F3BB30
Copy OK

No errors occurred


AccurateRip summary

Track 1 accurately ripped (confidence 25) [6E388D35] (AR v2)
Track 2 accurately ripped (confidence 25) [45F919FF] (AR v2)
Track 3 accurately ripped (confidence 25) [BA5DDC1E] (AR v2)
Track 4 accurately ripped (confidence 25) [8D91C1D1] (AR v2)
Track 5 accurately ripped (confidence 25) [FDEF5636] (AR v2)
Track 6 accurately ripped (confidence 25) [7C5B55F1] (AR v2)
Track 7 accurately ripped (confidence 25) [179225A5] (AR v2)
Track 8 accurately ripped (confidence 25) [0350A474] (AR v2)
Track 9 accurately ripped (confidence 25) [05D42B0B] (AR v2)
Track 10 accurately ripped (confidence 25) [76BCFF5B] (AR v2)

All tracks accurately ripped

End of status report

–– CUETools DB Plugin V2.1.6

[CTDB TOCID: rPNk5xfCx8ClJPIJ0b30wD3GAOo-] found
Submit result: rPNk5xfCx8ClJPIJ0b30wD3GAOo- has been confirmed
Track | CTDB Status
1 | (102/102) Accurately ripped
2 | (102/102) Accurately ripped
3 | (102/102) Accurately ripped
4 | (102/102) Accurately ripped
5 | (102/102) Accurately ripped
6 | (102/102) Accurately ripped
7 | (102/102) Accurately ripped
8 | (102/102) Accurately ripped
9 | (102/102) Accurately ripped
10 | (102/102) Accurately ripped


==== Log checksum 0F75C30DCD52389B2AC9FB73B2206A4718722AE78A09DD8FD07024710ECEAEAE ====


[CUETools log; Date: 14.12.2019 11:06:31; Version: 2.1.4]
[AccurateRip ID: 0010d84f-0088e9c6-8d0ac70a] found.
Track [ CRC | V2 ] Status
01 [cacc30de|6e388d35] (00+25/25) Accurately ripped
02 [e77afd31|45f919ff] (00+25/25) Accurately ripped
03 [f41be622|ba5ddc1e] (00+25/25) Accurately ripped
04 [406b747e|8d91c1d1] (00+25/25) Accurately ripped
05 [0e4006e2|fdef5636] (00+25/25) Accurately ripped
06 [dea88445|7c5b55f1] (00+25/25) Accurately ripped
07 [bfb13e7b|179225a5] (00+25/25) Accurately ripped
08 [121c8b08|0350a474] (00+25/25) Accurately ripped
09 [3866e9ba|05d42b0b] (00+25/25) Accurately ripped
10 [8276b7c8|76bcff5b] (00+25/25) Accurately ripped

Track Peak [ CRC32 ] [W/O NULL] [ LOG ]
– 99,9 [F2F3BB30] [8B6BB041] CRC32
01 99,5 [D3B6998D] [EC403F27]
02 99,4 [5942D606] [F9C8B5E4]
03 98,3 [88F7CEE5] [8098DC79]
04 99,9 [ED131CDD] [1EFC64DD]
05 99,8 [63E3D3C6] [4DCB2DD0]
06 99,0 [BB77E275] [DDDD8A5E]
07 99,2 [C18073B4] [6741F251]
08 99,0 [54C2C257] [A4719EC5]
09 99,3 [D209B7AD] [FA0A15CF]
10 98,8 [8E1B159E] [C147FF2B]


Jethro Tull - Stormwatch (1979) [4CD + 2DVD Box Set] PROPER

Tracklist CD2 - Associated Recordings
Steven Wilson Stereo Remix:


k Ages (Early Version)
03 Kelpie
04 Dun Ringill (Early Version)
05 A Stitch In Time
06 A Single Man
07 Broadford Bazaar
08 King Henry's Madrigal
09 Orion (Full Version)
10 Urban Apocalypse
11 The Lyricon Blues
12 Man Of God
13 Rock Instrumental (Unfinished Master)
14 Sweet Dream Fanfare
15 Sweet Dream (Live)

Exact Audio Copy V1.3 from 2. September 2016

EAC extraction logfile from 12. December 2019, 18:15

Jethro Tull / Associated Recordings

Used drive : PLEXTOR BD-R PX-B950SA Adapter: 1 ID: 1

Read mode : Secure
Utilize accurate stream : Yes
Defeat audio cache : Yes
Make use of C2 pointers : No

Read offset correction : 6
Overread into Lead-In and Lead-Out : No
Fill up missing offset samples with silence : Yes
Delete leading and trailing silent blocks : No
Null samples used in CRC calculations : Yes
Used interface : Native Win32 interface for Win NT & 2000

Used output format : Internal WAV Routines
Sample format : 44.100 Hz; 16 Bit; Stereo


TOC of the extracted CD

Track | Start | Length | Start sector | End sector
––––––––––––––––––––––––––––-
1 | 0:00.00 | 3:36.68 | 0 | 16267
2 | 3:36.68 | 11:54.53 | 16268 | 69870
3 | 15:31.46 | 3:34.66 | 69871 | 85986
4 | 19:06.37 | 2:43.06 | 85987 | 98217
5 | 21:49.43 | 4:28.24 | 98218 | 118341
6 | 26:17.67 | 2:39.63 | 118342 | 130329
7 | 28:57.55 | 3:45.42 | 130330 | 147246
8 | 32:43.22 | 3:00.72 | 147247 | 160818
9 | 35:44.19 | 9:14.15 | 160819 | 202383
10 | 44:58.34 | 4:46.00 | 202384 | 223833
11 | 49:44.34 | 5:15.49 | 223834 | 247507
12 | 55:00.08 | 6:33.06 | 247508 | 276988
13 | 61:33.14 | 3:33.63 | 276989 | 293026
14 | 65:07.02 | 2:29.39 | 293027 | 304240
15 | 67:36.41 | 4:39.22 | 304241 | 325187


Range status and errors

Selected range

Filename C:\Users\Alex\Desktop\ALLexxess\Jethro Tull\1979 Stormwatch (6-Disc Box Set Chrysalis Records 2019)\CD2 Associated Recordings\Jethro Tull - Associated Recordings.wav

Peak level 99.6 %
Extraction speed 8.4 X
Range quality 100.0 %
Test CRC 8440231F
Copy CRC 8440231F
Copy OK

No errors occurred


AccurateRip summary

Track 1 accurately ripped (confidence 23) [BE52140B] (AR v2)
Track 2 accurately ripped (confidence 23) [8738CD38] (AR v2)
Track 3 accurately ripped (confidence 23) [0881E76D] (AR v2)
Track 4 accurately ripped (confidence 23) [82142B89] (AR v2)
Track 5 accurately ripped (confidence 23) [E663D447] (AR v2)
Track 6 accurately ripped (confidence 23) [C73653D8] (AR v2)
Track 7 accurately ripped (confidence 22) [6D76F571] (AR v2)
Track 8 accurately ripped (confidence 22) [1A4202F8] (AR v2)
Track 9 accurately ripped (confidence 22) [9D926D75] (AR v2)
Track 10 accurately ripped (confidence 22) [5748F6CD] (AR v2)
Track 11 accurately ripped (confidence 22) [A00CA6E2] (AR v2)
Track 12 accurately ripped (confidence 22) [D7BE1514] (AR v2)
Track 13 accurately ripped (confidence 22) [FD89094D] (AR v2)
Track 14 accurately ripped (confidence 22) [57A2A99E] (AR v2)
Track 15 accurately ripped (confidence 22) [54722DAF] (AR v2)

All tracks accurately ripped

End of status report

–– CUETools DB Plugin V2.1.6

[CTDB TOCID: Dg_zANqEtClsSsBbKHWG1.XWMGk-] found
Submit result: Dg_zANqEtClsSsBbKHWG1.XWMGk- has been confirmed
Track | CTDB Status
1 | (92/92) Accurately ripped
2 | (92/92) Accurately ripped
3 | (92/92) Accurately ripped
4 | (92/92) Accurately ripped
5 | (92/92) Accurately ripped
6 | (92/92) Accurately ripped
7 | (92/92) Accurately ripped
8 | (92/92) Accurately ripped
9 | (92/92) Accurately ripped
10 | (92/92) Accurately ripped
11 | (92/92) Accurately ripped
12 | (92/92) Accurately ripped
13 | (92/92) Accurately ripped
14 | (92/92) Accurately ripped
15 | (91/92) Accurately ripped


==== Log checksum BEB6B937B186A2DB2CE71B28BE48334DE7A5913A7674F3E8680041F958DC36C5 ====


[CUETools log; Date: 14.12.2019 11:09:48; Version: 2.1.4]
[AccurateRip ID: 002933dd-01cd9771-e310ef0f] found.
Track [ CRC | V2 ] Status
01 [5b623402|be52140b] (00+23/23) Accurately ripped
02 [e0cb2212|8738cd38] (00+23/23) Accurately ripped
03 [38685c48|0881e76d] (00+23/23) Accurately ripped
04 [f88ed4d4|82142b89] (00+23/23) Accurately ripped
05 [a4755e7f|e663d447] (00+23/23) Accurately ripped
06 [51a0e4ea|c73653d8] (00+23/23) Accurately ripped
07 [ba435356|6d76f571] (00+22/22) Accurately ripped
08 [9afdaafb|1a4202f8] (00+22/22) Accurately ripped
09 [123b1b5f|9d926d75] (00+22/22) Accurately ripped
10 [fd0915d6|5748f6cd] (00+22/22) Accurately ripped
11 [b4b1c79d|a00ca6e2] (00+22/22) Accurately ripped
12 [c94f19e8|d7be1514] (00+22/22) Accurately ripped
13 [62a93ab6|fd89094d] (00+22/22) Accurately ripped
14 [0e7e1500|57a2a99e] (00+22/22) Accurately ripped
15 [558a518f|54722daf] (00+22/22) Accurately ripped

Track Peak [ CRC32 ] [W/O NULL] [ LOG ]
– 99,6 [8440231F] [44468A49] CRC32
01 99,2 [D216236C] [79232A8F]
02 99,5 [BC2548B5] [1563D3A9]
03 99,5 [81313EC7] [D8F9375B]
04 63,8 [51B5094C] [71F2CCB5]
05 99,6 [D0542AA6] [A66BA2D9]
06 99,6 [EF568FAF] [28808365]
07 76,2 [AFEC2ECF] [E9D265F4]
08 98,9 [428E41D5] [8A9FC639]
09 99,4 [28639641] [BFA7D003]
10 99,5 [1ED9EEBF] [A4ED56A1]
11 99,2 [F6F67AAE] [A4567A27]
12 99,0 [FA6DF863] [856C405F]
13 99,1 [2B009CDD] [34D20F2B]
14 70,9 [7FBADFCF] [34D1A138]
15 98,8 [D27B08B9] [9D47F0FA]


Jethro Tull - Stormwatch (1979) [4CD + 2DVD Box Set] PROPER

Tracklist CD3 - Live In The Netherlands (March 16 1980) CD1:

Live At Congre Gebouw,
Den Haag, Netherlands, 3/16/1980

01 Prelude To A Storm
02 Dark Ages
03 Home
04 Orion
05 Dun Ringill
06 Elegy
07 Old Ghosts
08 Something's On The Move
09 Aqualung
10 Peggy's Pub
11 Jack-In-The-Green
12 King Henry's Madrigal
13 Heavy Horses

Exact Audio Copy V1.3 from 2. September 2016

EAC extraction logfile from 12. December 2019, 17:46

Jethro Tull / Live In The Netherlands 1980 Part 1

Used drive : PLEXTOR BD-R PX-B950SA Adapter: 1 ID: 1

Read mode : Secure
Utilize accurate stream : Yes
Defeat audio cache : Yes
Make use of C2 pointers : No

Read offset correction : 6
Overread into Lead-In and Lead-Out : No
Fill up missing offset samples with silence : Yes
Delete leading and trailing silent blocks : No
Null samples used in CRC calculations : Yes
Used interface : Native Win32 interface for Win NT & 2000

Used output format : Internal WAV Routines
Sample format : 44.100 Hz; 16 Bit; Stereo


TOC of the extracted CD

Track | Start | Length | Start sector | End sector
––––––––––––––––––––––––––––-
1 | 0:00.00 | 1:53.42 | 0 | 8516
2 | 1:53.42 | 8:30.34 | 8517 | 46800
3 | 10:24.01 | 2:53.00 | 46801 | 59775
4 | 13:17.01 | 5:02.51 | 59776 | 82476
5 | 18:19.52 | 2:40.58 | 82477 | 94534
6 | 21:00.35 | 3:54.70 | 94535 | 112154
7 | 24:55.30 | 3:07.40 | 112155 | 126219
8 | 28:02.70 | 4:24.37 | 126220 | 146056
9 | 32:27.32 | 9:54.50 | 146057 | 190656
10 | 42:22.07 | 2:57.12 | 190657 | 203943
11 | 45:19.19 | 3:15.62 | 203944 | 218630
12 | 48:35.06 | 5:49.70 | 218631 | 244875
13 | 54:25.01 | 6:09.42 | 244876 | 272592


Range status and errors

Selected range

Filename C:\Users\Alex\Desktop\ALLexxess\Jethro Tull\1979 Stormwatch (6-Disc Box Set Chrysalis Records 2019)\CD3-CD4 Live In The Netherlands 1980\Jethro Tull - Live In The Netherlands 1980 Part 1.wav

Peak level 94.6 %
Extraction speed 8.1 X
Range quality 100.0 %
Test CRC E6CA0B86
Copy CRC E6CA0B86
Copy OK

No errors occurred


AccurateRip summary

Track 1 accurately ripped (confidence 26) [A936B2A9] (AR v2)
Track 2 accurately ripped (confidence 26) [36C73C05] (AR v2)
Track 3 accurately ripped (confidence 26) [471AD094] (AR v2)
Track 4 accurately ripped (confidence 26) [EBB66032] (AR v2)
Track 5 accurately ripped (confidence 26) [A94888C4] (AR v2)
Track 6 accurately ripped (confidence 26) [0216DF98] (AR v2)
Track 7 accurately ripped (confidence 26) [E98F38F0] (AR v2)
Track 8 accurately ripped (confidence 26) [DCBD630A] (AR v2)
Track 9 accurately ripped (confidence 26) [A3E16848] (AR v2)
Track 10 accurately ripped (confidence 26) [949603FE] (AR v2)
Track 11 accurately ripped (confidence 26) [7848EDA0] (AR v2)
Track 12 accurately ripped (confidence 26) [14AFFDAC] (AR v2)
Track 13 accurately ripped (confidence 26) [864E8136] (AR v2)

All tracks accurately ripped

End of status report

–– CUETools DB Plugin V2.1.6

[CTDB TOCID: KzTycxMTQuInZNX4jVklJOQM5NY-] found
Submit result: KzTycxMTQuInZNX4jVklJOQM5NY- has been confirmed
Track | CTDB Status
1 | ( 99/100) Accurately ripped
2 | ( 99/100) Accurately ripped
3 | ( 99/100) Accurately ripped
4 | ( 99/100) Accurately ripped
5 | ( 99/100) Accurately ripped
6 | ( 99/100) Accurately ripped
7 | ( 99/100) Accurately ripped
8 | ( 99/100) Accurately ripped
9 | ( 99/100) Accurately ripped
10 | ( 99/100) Accurately ripped
11 | ( 99/100) Accurately ripped
12 | ( 98/100) Accurately ripped
13 | ( 98/100) Accurately ripped


==== Log checksum 3EF52CF730FC571C2B64777A863192A866225BD1A6D9CFAB7DBF5E4ABE3365C0 ====


[CUETools log; Date: 14.12.2019 11:12:54; Version: 2.1.4]
[AccurateRip ID: 001b9387-01169b17-bd0e320d] found.
Track [ CRC | V2 ] Status
01 [9613d69c|a936b2a9] (00+26/26) Accurately ripped
02 [2540fa76|36c73c05] (00+26/26) Accurately ripped
03 [a50a555c|471ad094] (00+26/26) Accurately ripped
04 [ef5cff2a|ebb66032] (00+26/26) Accurately ripped
05 [4e3a708a|a94888c4] (00+26/26) Accurately ripped
06 [e7d165d1|0216df98] (00+26/26) Accurately ripped
07 [6e1bb01d|e98f38f0] (00+26/26) Accurately ripped
08 [31825372|dcbd630a] (00+26/26) Accurately ripped
09 [95d60b22|a3e16848] (00+26/26) Accurately ripped
10 [38a76d1d|949603fe] (00+26/26) Accurately ripped
11 [1fc68fb4|7848eda0] (00+26/26) Accurately ripped
12 [10e46002|14affdac] (00+26/26) Accurately ripped
13 [e270ace7|864e8136] (00+26/26) Accurately ripped

Track Peak [ CRC32 ] [W/O NULL] [ LOG ]
– 94,6 [E6CA0B86] [E54AC731] CRC32
01 66,0 [9B6002FE] [118E5814]
02 94,6 [74F37580] [D57D27CB]
03 94,6 [B0D5629C] [5CAFD034]
04 94,6 [6C3ECB56] [A4268B34]
05 93,6 [0C426E81] [5E842930]
06 94,5 [00ECA8E7] [B9C1E3F3]
07 94,5 [DF8A1BF0] [364CF7A4]
08 94,6 [FB0337F2] [D062E0A7]
09 94,6 [B4A99D87] [C3EB8A22]
10 94,5 [A161362D] [B80551EF]
11 94,5 [48839E9A] [02CFD324]
12 94,6 [058CC403] [81C6FEF6]
13 94,6 [45D0C176] [CAB18BFD]


Jethro Tull - Stormwatch (1979) [4CD + 2DVD Box Set] PROPER

Tracklist CD4 - Live In The Netherlands (March 16 1980) CD2:

Live At Congre Gebouw,
Den Haag, Netherlands, 3/16/1980

01 Flute Solo
02 Keyboard Duet
03 Songs From The Wood
04 Hunting Girl
05 Jams O'Donnell's Jigs
06 Thick As A Brick
07 Too Old To Rock 'N' Roll: Too Young To Die!
08 Cross-Eyed Mary
09 Guitar Solo
10 Minstrel In The Gallery
11 Locomotive Breath
12 The Dambusters March

Exact Audio Copy V1.3 from 2. September 2016

EAC extraction logfile from 12. December 2019, 17:21

Jethro Tull / Live In The Netherlands 1980 Part 2

Used drive : PLEXTOR BD-R PX-B950SA Adapter: 1 ID: 1

Read mode : Secure
Utilize accurate stream : Yes
Defeat audio cache : Yes
Make use of C2 pointers : No

Read offset correction : 6
Overread into Lead-In and Lead-Out : No
Fill up missing offset samples with silence : Yes
Delete leading and trailing silent blocks : No
Null samples used in CRC calculations : Yes
Used interface : Native Win32 interface for Win NT & 2000

Used output format : Internal WAV Routines
Sample format : 44.100 Hz; 16 Bit; Stereo


TOC of the extracted CD

Track | Start | Length | Start sector | End sector
––––––––––––––––––––––––––––-
1 | 0:00.00 | 7:55.62 | 0 | 35686
2 | 7:55.62 | 1:24.34 | 35687 | 42020
3 | 9:20.21 | 4:12.04 | 42021 | 60924
4 | 13:32.25 | 5:38.13 | 60925 | 86287
5 | 19:10.38 | 3:31.07 | 86288 | 102119
6 | 22:41.45 | 7:29.57 | 102120 | 135851
7 | 30:11.27 | 3:09.44 | 135852 | 150070
8 | 33:20.71 | 3:22.14 | 150071 | 165234
9 | 36:43.10 | 2:28.36 | 165235 | 176370
10 | 39:11.46 | 2:56.46 | 176371 | 189616
11 | 42:08.17 | 4:00.56 | 189617 | 207672
12 | 46:08.73 | 2:45.14 | 207673 | 220061


Range status and errors

Selected range

Filename C:\Users\Alex\Desktop\ALLexxess\Jethro Tull\1979 Stormwatch (6-Disc Box Set Chrysalis Records 2019)\CD3-CD4 Live In The Netherlands 1980\Jethro Tull - Live In The Netherlands 1980 Part 2.wav

Peak level 94.6 %
Extraction speed 7.1 X
Range quality 100.0 %
Test CRC 09CCF6A3
Copy CRC 09CCF6A3
Copy OK

No errors occurred


AccurateRip summary

Track 1 accurately ripped (confidence 27) [6A1F90DD] (AR v2)
Track 2 accurately ripped (confidence 27) [E14032BB] (AR v2)
Track 3 accurately ripped (confidence 27) [FE346651] (AR v2)
Track 4 accurately ripped (confidence 27) [9BF1B0C1] (AR v2)
Track 5 accurately ripped (confidence 27) [F73CBDDD] (AR v2)
Track 6 accurately ripped (confidence 27) [DF8AB4DB] (AR v2)
Track 7 accurately ripped (confidence 27) [10D31261] (AR v2)
Track 8 accurately ripped (confidence 27) [1642C713] (AR v2)
Track 9 accurately ripped (confidence 27) [34A8AEDE] (AR v2)
Track 10 accurately ripped (confidence 27) [C69D7754] (AR v2)
Track 11 accurately ripped (confidence 27) [F50A7F9A] (AR v2)
Track 12 accurately ripped (confidence 27) [73435125] (AR v2)

All tracks accurately ripped

End of status report

–– CUETools DB Plugin V2.1.6

[CTDB TOCID: xwM0xoM2mHwufhuRbYdXQk9lDjA-] found
Submit result: xwM0xoM2mHwufhuRbYdXQk9lDjA- has been confirmed
Track | CTDB Status
1 | (99/99) Accurately ripped
2 | (99/99) Accurately ripped
3 | (99/99) Accurately ripped
4 | (99/99) Accurately ripped
5 | (99/99) Accurately ripped
6 | (99/99) Accurately ripped
7 | (99/99) Accurately ripped
8 | (99/99) Accurately ripped
9 | (99/99) Accurately ripped
10 | (99/99) Accurately ripped
11 | (99/99) Accurately ripped
12 | (99/99) Accurately ripped


==== Log checksum BEEB9D66FBBE4FE481F12DD6124C0D61B9F415498B512FA0500E40611F08B8F5 ====


[CUETools log; Date: 14.12.2019 11:19:01; Version: 2.1.4]
[AccurateRip ID: 0017fc52-00da9a34-850b760c] found.
Track [ CRC | V2 ] Status
01 [4c161ad3|6a1f90dd] (00+27/27) Accurately ripped
02 [82120fcf|e14032bb] (00+27/27) Accurately ripped
03 [da8eda28|fe346651] (00+27/27) Accurately ripped
04 [ea1c8148|9bf1b0c1] (00+27/27) Accurately ripped
05 [c09fe959|f73cbddd] (00+27/27) Accurately ripped
06 [ac104870|df8ab4db] (00+27/27) Accurately ripped
07 [c75a8da5|10d31261] (00+27/27) Accurately ripped
08 [3ff0575c|1642c713] (00+27/27) Accurately ripped
09 [5379388d|34a8aede] (00+27/27) Accurately ripped
10 [aba102b5|c69d7754] (00+27/27) Accurately ripped
11 [6bac4c50|f50a7f9a] (00+27/27) Accurately ripped
12 [2900fae7|73435125] (00+27/27) Accurately ripped

Track Peak [ CRC32 ] [W/O NULL] [ LOG ]
– 94,6 [09CCF6A3] [5085D986] CRC32
01 88,7 [8634D1AD] [58CEF263]
02 52,3 [FF6BF99F] [55FCA6C8]
03 94,6 [95FC7CDD] [FDF63BD9]
04 94,6 [A9A95D7B] [51AA794B]
05 94,6 [6DC1F4EE] [4EBA587E]
06 94,6 [5789C64E] [DA316ADD]
07 94,6 [476871F1] [81E60E12]
08 94,6 [5D896754] [A83D6BD2]
09 79,1 [6BE011FB] [EF68A29C]
10 94,6 [EB9A0967] [1CEA0E65]
11 94,6 [DCEB522C] [84303F0D]
12 94,6 [BE9BFDCA] [0FB54008]


Jethro Tull - Stormwatch (1979) [4CD + 2DVD Box Set] PROPER

Tracklist DVD1:

– Stormwatch mixed to 5.1 DTS and AC3 Dolby Digital
– Flat transfer of the original 1979 mix at 96/24 LPCM stereo
01 North Sea Oil
02 Orion
03 Home
04 Dark Ages
05 Warm Sporran
06 Something's On The Move
07 Old Ghosts
08 Dun Ringill
09 Flying Dutchman
10 Elegy

Title: Jethro Tull 1979 - Stormwatch DVD1
Size: 5.44 Gb ( 5 703 406,00 KBytes ) - DVD-9
Enabled regions: 1, 2, 3, 4, 5, 6, 7, 8

VTS_01 :
Play Length: 00:00:13
Video: NTSC 16:9 (720x480) VBR, Auto Letterboxed

VTS_02 :
Play Length: 00:45:59
Video: NTSC 16:9 (720x480) VBR, Auto Letterboxed
Audio:
English (LinearPCM, 2 ch)
English (DTS, 6 ch)
English (Dolby AC3, 6 ch)

VTS_03 :
Play Length: 00:45:31
Video: NTSC 16:9 (720x480) VBR, Auto Letterboxed
Audio:
English (LinearPCM, 2 ch)


Jethro Tull - Stormwatch (1979) [4CD + 2DVD Box Set] PROPER

Tracklist DVD2 - :

– Contains 13 associated recordings mixed to 5.1 DTS and AC3 Dolby Digital
– 15 associated recordings mixed to 96/24 LPCM Stereo
01 Crossword
02 Dark Ages (Early Version)
03 Kelpie
04 Dun Ringill (Early Version)
05 A Stitch In Time
06 A Single Man
07 Broadford Bazaar
08 King Henry's Madrigal
09 Orion (Full Version)
10 Urban Apocalypse
11 The Lyricon Blues
12 Man Of God
13 Rock Instrumental (Unfinished Master)
14 Sweet Dream Fanfare *
15 Sweet Dream (Live) *
* Only 96/24 LPCM Stereo
– Five original mixes at 96/24 LPCM stereo
01 A Stitch In Time
02 King Henry's Madrigal
03 Sweet Dream Fanfare
04 Sweet Dream (Live)
05 A Stitch In Time (Single Edit)

Title: Jethro Tull 1979 - Stormwatch DVD2
Size: 5.53 Gb ( 5 803 458,00 KBytes ) - DVD-9
Enabled regions: 1, 2, 3, 4, 5, 6, 7, 8

VTS_01 :
Play Length: 00:00:13
Video: NTSC 16:9 (720x480) VBR, Auto Letterboxed

VTS_02 :
Play Length: 01:05:01
Video: NTSC 16:9 (720x480) VBR, Auto Letterboxed
Audio:
English (LinearPCM, 2 ch)
English (DTS, 6 ch)
English (Dolby AC3, 6 ch)

VTS_03 :
Play Length: 00:18:34
Video: NTSC 16:9 (720x480) VBR, Auto Letterboxed
Audio:
English (LinearPCM, 2 ch)

VTS_04 :
Play Length: 00:07:08
Video: NTSC 16:9 (720x480) VBR, Auto Letterboxed
Audio:
English (LinearPCM, 2 ch)


Jethro Tull - Stormwatch (1979) [4CD + 2DVD Box Set] PROPER

All thanks go to ALLexxess

Jethro Tull in my Blog

Download Jethro Tull - Stormwatch (1979):