Subcategories

Jethro Tull - This Was: The 50th Anniversary Edition (1968) {2018, 3CD Box Set}

Posted By: popsakov
Jethro Tull - This Was: The 50th Anniversary Edition (1968) {2018, 3CD Box Set}

Jethro Tull - This Was: The 50th Anniversary Edition (1968) {2018, 3CD Box Set}
EAC Rip | FLAC (Img) + Cue + Log ~ 1,02 Gb | MP3 CBR320 ~ 513 Mb
Covers Included | RAR 5% Recovery
Art Rock, Progressive Rock, Blues Rock, Folk Rock | Chrysalis #0190295611484

Jethro Tull was very much a blues band on their debut album, vaguely reminiscent of the Graham Bond Organization only more cohesive, and with greater commercial sense. The revelations about the group's roots on This Was – which was recorded during the summer of 1968 – can be astonishing, even 30 years after the fact. Original lead guitarist Mick Abrahams contributed to the songwriting and the singing, and his presence as a serious bluesman is felt throughout, often for the better: "Some Day the Sun Won't Shine for You," an Ian Anderson original that could just as easily be credited to Big Bill Broonzy or Robert Johnson; "Cat's Squirrel," Abrahams' big showcase, where he ventures into Eric Clapton territory; and "It's Breaking Me Up," which also features some pretty hot guitar from Abrahams. Roland Kirk's "Serenade to a Cuckoo" (the first song Anderson learned to play on flute), their jazziest track ever, is one of the best parts of the album. The drum solo on "Dharma for One" now seems like a mistake, but is understandable in the context of the time in which it was done. The one number here that everybody knows, "A Song for Jeffrey," almost pales amid these surroundings, but at the time it was a superb example of commercial psychedelic blues. This would be the last album of its kind by the group, as Abrahams' departure and the lure of more fertile inspiration tugged them toward English folk music. Curiously, the audio mix here is better than that on their second album, with a much stronger, harder group sound overall. In late 2001, This Was was reissued in a remastered edition with much crisper sound and three bonus tracks. The jazzy improvisation "One for John Gee" (a reference to the manager of the Marquee Club), the folky "Love Story" (which marked the end of Mick Abrahams' tenure with the group), and the novelty piece "Christmas Song" have all been heard before but, more to the point, they're worth hearing again, especially in the fidelity they have here. 2018 3CD/DVD Collection Expands The Legendary Band’s 1968 Debut With Steven Wilson Remix Of The Original, Plus Rare Recordings And New Mixes.

***************

Jethro Tull - This Was: The 50th Anniversary Edition (1968) {2018, 3CD Box Set}

Track List CD1 - A Steven Wilson Stereo Remix:

01. My Sunday Feeling [0:03:42.69]
02. Some Day The Sun Won't Shine For You [0:02:49.30]
03. Beggar's Farm [0:04:22.39]
04. Move On Alone [0:01:59.45]
05. Serenade To A Cuckoo [0:06:08.27]
06. Dharma For One [0:04:15.00]
07. It's Breaking Me Up [0:05:03.72]
08. Cat's Squirrel [0:05:42.06]
09. A Song For Jeffrey [0:03:21.60]
10. Round [0:00:57.63]
Associated Recordings
11. Love Story (Bonus) [0:03:03.09]
12. A Christmas Song (Bonus) [0:03:08.57]
13. Serenade To A Cuckoo (Previously Unreleased) [0:05:46.21]
14. Some Day The Sun Won't Shine For You (Faster Version Previously Unreleased) [0:02:36.12]
15. Move On Alone (Flute Version Previously Unreleased) [0:02:00.43]
16. Ultimate Confusion (Previously Unreleased) [0:02:55.45]

Exact Audio Copy V1.3 from 2. September 2016

EAC extraction logfile from 14. November 2018, 17:06

Jethro Tull / This Was (Steven Wilson Remix CD1)[0190295611484-1]

Used drive : HL-DT-STBD-RE BH10LS38 Adapter: 1 ID: 1

Read mode : Secure
Utilize accurate stream : Yes
Defeat audio cache : Yes
Make use of C2 pointers : No

Read offset correction : 667
Overread into Lead-In and Lead-Out : No
Fill up missing offset samples with silence : Yes
Delete leading and trailing silent blocks : No
Null samples used in CRC calculations : Yes
Used interface : Installed external ASPI interface

Used output format : User Defined Encoder
Selected bitrate : 128 kBit/s
Quality : High
Add ID3 tag : No
Command line compressor : C:\Program Files (x86)\Exact Audio Copy\Flac\flac.exe
Additional command line options : -V -8 -T "Date=%year%" -T "Genre=%genre%" %source%


TOC of the extracted CD

Track | Start | Length | Start sector | End sector
––––––––––––––––––––––––––––-
1 | 0:00.00 | 3:42.69 | 0 | 16718
2 | 3:42.69 | 2:49.30 | 16719 | 29423
3 | 6:32.24 | 4:22.39 | 29424 | 49112
4 | 10:54.63 | 1:59.45 | 49113 | 58082
5 | 12:54.33 | 6:08.27 | 58083 | 85709
6 | 19:02.60 | 4:15.00 | 85710 | 104834
7 | 23:17.60 | 5:03.72 | 104835 | 127631
8 | 28:21.57 | 5:42.06 | 127632 | 153287
9 | 34:03.63 | 3:21.60 | 153288 | 168422
10 | 37:25.48 | 0:57.63 | 168423 | 172760
11 | 38:23.36 | 3:03.09 | 172761 | 186494
12 | 41:26.45 | 3:08.57 | 186495 | 200651
13 | 44:35.27 | 5:46.21 | 200652 | 226622
14 | 50:21.48 | 2:36.12 | 226623 | 238334
15 | 52:57.60 | 2:00.43 | 238335 | 247377
16 | 54:58.28 | 2:55.45 | 247378 | 260547


Range status and errors

Selected range

Filename G:\Rips by Alder\Jethro Tull - This Was (Steven Wilson Remix CD1)[0190295611484-1].wav

Peak level 100.0 %
Extraction speed 7.5 X
Range quality 100.0 %
Test CRC A8D10EB3
Copy CRC A8D10EB3
Copy OK

No errors occurred


AccurateRip summary

Track 1 accurately ripped (confidence 3) [2B23B7CD] (AR v2)
Track 2 accurately ripped (confidence 3) [70A8FA00] (AR v2)
Track 3 accurately ripped (confidence 3) [C6EE30C2] (AR v2)
Track 4 accurately ripped (confidence 3) [CA17F4EF] (AR v2)
Track 5 accurately ripped (confidence 3) [B527E263] (AR v2)
Track 6 accurately ripped (confidence 3) [762C6F14] (AR v2)
Track 7 accurately ripped (confidence 3) [4A487A1C] (AR v2)
Track 8 accurately ripped (confidence 3) [297B806F] (AR v2)
Track 9 accurately ripped (confidence 3) [CEBACC38] (AR v2)
Track 10 accurately ripped (confidence 3) [0C1EA904] (AR v2)
Track 11 accurately ripped (confidence 3) [9F49A060] (AR v2)
Track 12 accurately ripped (confidence 3) [F9B73E97] (AR v2)
Track 13 accurately ripped (confidence 3) [5F8114E7] (AR v2)
Track 14 accurately ripped (confidence 3) [6040F866] (AR v2)
Track 15 accurately ripped (confidence 3) [BDD39F00] (AR v2)
Track 16 accurately ripped (confidence 3) [98E071F4] (AR v2)

All tracks accurately ripped

End of status report

–– CUETools DB Plugin V2.1.6

[CTDB TOCID: eOeMgDnGd0M3M3JIY7OAnbYKlN4-] found
Submit result: eOeMgDnGd0M3M3JIY7OAnbYKlN4- has been confirmed
Track | CTDB Status
1 | (25/25) Accurately ripped
2 | (25/25) Accurately ripped
3 | (25/25) Accurately ripped
4 | (25/25) Accurately ripped
5 | (25/25) Accurately ripped
6 | (25/25) Accurately ripped
7 | (25/25) Accurately ripped
8 | (25/25) Accurately ripped
9 | (25/25) Accurately ripped
10 | (25/25) Accurately ripped
11 | (25/25) Accurately ripped
12 | (25/25) Accurately ripped
13 | (25/25) Accurately ripped
14 | (25/25) Accurately ripped
15 | (25/25) Accurately ripped
16 | (25/25) Accurately ripped


==== Log checksum CC50377E475CB27BE043B369AD4607A5E9AB3FE7ED12A05289F584291FC27C7E ====

foobar2000 1.3.16 / Dynamic Range Meter 1.1.1
log date: 2018-11-16 22:33:09

––––––––––––––––––––––––––––––––––––––––
Analyzed: Jethro Tull / This Was (Steven Wilson Remix CD1)[0190295611484-1]
––––––––––––––––––––––––––––––––––––––––

DR Peak RMS Duration Track
––––––––––––––––––––––––––––––––––––––––
DR11 -0.09 dB -13.32 dB 3:43 01-My Sunday Feeling
DR12 -1.06 dB -17.40 dB 2:49 02-Some Day The Sun Won't Shine For You
DR11 -0.06 dB -13.45 dB 4:23 03-Beggar's Farm
DR13 -0.10 dB -15.81 dB 2:00 04-Move On Alone
DR13 -0.10 dB -16.40 dB 6:08 05-Serenade To A Cuckoo
DR12 -0.18 dB -15.06 dB 4:15 06-Dharma For One
DR12 -0.11 dB -14.78 dB 5:04 07-It's Breaking Me Up
DR11 -0.13 dB -13.72 dB 5:42 08-Cat's Squirrel
DR12 -0.06 dB -14.62 dB 3:22 09-A Song For Jeffrey
DR11 -4.20 dB -22.30 dB 0:58 10-Round
DR11 0.00 dB -13.47 dB 3:03 11-Love Story (Bonus)
DR13 -0.10 dB -17.48 dB 3:09 12-A Christmas Song (Bonus)
DR13 -0.10 dB -16.81 dB 5:46 13-Serenade To A Cuckoo (Previously Unreleased)
DR12 -2.39 dB -19.44 dB 2:36 14-Some Day The Sun Won't Shine For You (Faster Version Previously Unreleased)
DR12 -0.10 dB -14.35 dB 2:01 15-Move On Alone (Flute Version Previously Unreleased)
DR14 -0.10 dB -19.48 dB 2:56 16-Ultimate Confusion (Previously Unreleased)
––––––––––––––––––––––––––––––––––––––––

Number of tracks: 16
Official DR value: DR12

Samplerate: 44100 Hz
Channels: 2
Bits per sample: 16
Bitrate: 770 kbps
Codec: FLAC
================================================================================

Track List CD2 - Further Associated Recordings:

BBC Top Gear Session, 23rd July 1968
01. So Much Trouble [0:03:19.11]
02. My Sunday Feeling [0:03:49.55]
03. Serenade To A Cuckoo [0:03:37.34]
04. Cat's Squirrel [0:04:38.64]
05. A Song For Jeffrey [0:03:13.20]
BBC Top Gear Session, 5th November 1968
06. Love Story [0:03:04.61]
07. Stormy Monday [0:04:09.17]
08. Beggar's Farm [0:03:22.11]
09. Dharma For One [0:03:46.48]
Original Mixes And Radio Adverts
10. A Song For Jeffrey [0:03:22.58]
11. One For John Gee [0:02:07.04]
12. Some Day The Sun Won't Shine For You [0:02:36.47]
13. Love Story [0:03:05.72]
14. A Christmas Song [0:03:06.49]
15. Sunshine Day [0:02:22.46]
16. Aeroplane [0:02:25.71]
17. Blues For The 18th [0:02:53.10]
18. Love Story [0:03:02.64]
19. US FM Radio Spot #1 [0:00:52.11]
20. US FM Radio Spot #2 [0:00:56.30]

Exact Audio Copy V1.3 from 2. September 2016

EAC extraction logfile from 14. November 2018, 17:27

Jethro Tull / This Was (50th Ann. Ed. Further Associated Recordings - Original Mixes and BBC Sessions CD2)[0190295611484-2]

Used drive : HL-DT-STBD-RE BH10LS38 Adapter: 1 ID: 1

Read mode : Secure
Utilize accurate stream : Yes
Defeat audio cache : Yes
Make use of C2 pointers : No

Read offset correction : 667
Overread into Lead-In and Lead-Out : No
Fill up missing offset samples with silence : Yes
Delete leading and trailing silent blocks : No
Null samples used in CRC calculations : Yes
Used interface : Installed external ASPI interface

Used output format : User Defined Encoder
Selected bitrate : 128 kBit/s
Quality : High
Add ID3 tag : No
Command line compressor : C:\Program Files (x86)\Exact Audio Copy\Flac\flac.exe
Additional command line options : -V -8 -T "Date=%year%" -T "Genre=%genre%" %source%


TOC of the extracted CD

Track | Start | Length | Start sector | End sector
––––––––––––––––––––––––––––-
1 | 0:00.00 | 3:19.11 | 0 | 14935
2 | 3:19.11 | 3:49.55 | 14936 | 32165
3 | 7:08.66 | 3:37.34 | 32166 | 48474
4 | 10:46.25 | 4:38.64 | 48475 | 69388
5 | 15:25.14 | 3:13.20 | 69389 | 83883
6 | 18:38.34 | 3:04.61 | 83884 | 97744
7 | 21:43.20 | 4:09.17 | 97745 | 116436
8 | 25:52.37 | 3:22.11 | 116437 | 131597
9 | 29:14.48 | 3:46.48 | 131598 | 148595
10 | 33:01.21 | 3:22.58 | 148596 | 163803
11 | 36:24.04 | 2:07.04 | 163804 | 173332
12 | 38:31.08 | 2:36.47 | 173333 | 185079
13 | 41:07.55 | 3:05.72 | 185080 | 199026
14 | 44:13.52 | 3:06.49 | 199027 | 213025
15 | 47:20.26 | 2:22.46 | 213026 | 223721
16 | 49:42.72 | 2:25.71 | 223722 | 234667
17 | 52:08.68 | 2:53.10 | 234668 | 247652
18 | 55:02.03 | 3:02.64 | 247653 | 261366
19 | 58:04.67 | 0:52.11 | 261367 | 265277
20 | 58:57.03 | 0:56.30 | 265278 | 269507


Range status and errors

Selected range

Filename G:\Rips by Alder\Jethro Tull - This Was (50th Ann. Ed. Further Associated Recordings - Original Mixes and BBC Sessions CD2)[0190295611484-2].wav

Peak level 99.9 %
Extraction speed 7.7 X
Range quality 100.0 %
Test CRC EC909170
Copy CRC EC909170
Copy OK

No errors occurred


AccurateRip summary

Track 1 accurately ripped (confidence 2) [C2DD987B] (AR v2)
Track 2 accurately ripped (confidence 2) [E3F53F40] (AR v2)
Track 3 accurately ripped (confidence 2) [9BCB1DE1] (AR v2)
Track 4 accurately ripped (confidence 2) [68032EEA] (AR v2)
Track 5 accurately ripped (confidence 2) [881D1F62] (AR v2)
Track 6 accurately ripped (confidence 2) [A9CC154D] (AR v2)
Track 7 accurately ripped (confidence 2) [ED0BF440] (AR v2)
Track 8 accurately ripped (confidence 2) [F9130CC5] (AR v2)
Track 9 accurately ripped (confidence 2) [2B3D1BE4] (AR v2)
Track 10 accurately ripped (confidence 2) [C22B2186] (AR v2)
Track 11 accurately ripped (confidence 2) [50B77046] (AR v2)
Track 12 accurately ripped (confidence 2) [2ED00D5D] (AR v2)
Track 13 accurately ripped (confidence 2) [9968782D] (AR v2)
Track 14 accurately ripped (confidence 2) [3D97637A] (AR v2)
Track 15 accurately ripped (confidence 2) [D2DF48B1] (AR v2)
Track 16 accurately ripped (confidence 2) [19C479D8] (AR v2)
Track 17 accurately ripped (confidence 2) [8460F47D] (AR v2)
Track 18 accurately ripped (confidence 2) [9DA50924] (AR v2)
Track 19 accurately ripped (confidence 2) [60210133] (AR v2)
Track 20 accurately ripped (confidence 2) [1B2EF0B4] (AR v2)

All tracks accurately ripped

End of status report

–– CUETools DB Plugin V2.1.6

[CTDB TOCID: PQs5TclA6WT_t12Y_LXq0l1330M-] found
Submit result: PQs5TclA6WT_t12Y_LXq0l1330M- has been confirmed
Track | CTDB Status
1 | (22/22) Accurately ripped
2 | (22/22) Accurately ripped
3 | (22/22) Accurately ripped
4 | (22/22) Accurately ripped
5 | (22/22) Accurately ripped
6 | (22/22) Accurately ripped
7 | (22/22) Accurately ripped
8 | (22/22) Accurately ripped
9 | (22/22) Accurately ripped
10 | (22/22) Accurately ripped
11 | (22/22) Accurately ripped
12 | (22/22) Accurately ripped
13 | (22/22) Accurately ripped
14 | (22/22) Accurately ripped
15 | (22/22) Accurately ripped
16 | (22/22) Accurately ripped
17 | (22/22) Accurately ripped
18 | (22/22) Accurately ripped
19 | (22/22) Accurately ripped
20 | (22/22) Accurately ripped


==== Log checksum BD6F35CE740974F9F61E9A9B6035E060CD803B8AD73B1AAD87AC2D0BC1496CA5 ====

foobar2000 1.3.16 / Dynamic Range Meter 1.1.1
log date: 2018-11-16 22:34:32

––––––––––––––––––––––––––––––––––––––––
Analyzed: Jethro Tull / This Was (50th Ann. Ed. Further Associated Recordings - Original Mixes and BB…
––––––––––––––––––––––––––––––––––––––––

DR Peak RMS Duration Track
––––––––––––––––––––––––––––––––––––––––
DR10 -2.29 dB -15.79 dB 3:19 01-So Much Trouble
DR9 -2.25 dB -13.17 dB 3:50 02-My Sunday Feeling
DR12 -2.27 dB -16.53 dB 3:37 03-Serenade To A Cuckoo
DR10 -3.09 dB -14.13 dB 4:39 04-Cat's Squirrel
DR10 -2.77 dB -15.48 dB 3:13 05-A Song For Jeffrey
DR10 -2.34 dB -15.00 dB 3:05 06-Love Story
DR10 -2.10 dB -15.69 dB 4:09 07-Stormy Monday
DR10 -2.86 dB -14.69 dB 3:22 08-Beggar's Farm
DR10 -3.05 dB -15.50 dB 3:47 09-Dharma For One
DR10 -2.74 dB -17.33 dB 3:23 10-A Song For Jeffrey
DR11 -5.15 dB -18.63 dB 2:07 11-One For John Gee
DR11 -0.01 dB -14.46 dB 2:37 12-Some Day The Sun Won't Shine For You
DR10 -2.13 dB -14.55 dB 3:06 13-Love Story
DR11 -3.15 dB -21.14 dB 3:07 14-A Christmas Song
DR10 -3.12 dB -14.88 dB 2:23 15-Sunshine Day
DR10 -1.41 dB -13.65 dB 2:26 16-Aeroplane
DR11 -0.33 dB -13.76 dB 2:53 17-Blues For The 18th
DR11 -0.01 dB -14.33 dB 3:03 18-Love Story
DR10 -0.13 dB -13.32 dB 0:52 19-US FM Radio Spot #1
DR10 -0.02 dB -13.21 dB 0:56 20-US FM Radio Spot #2
––––––––––––––––––––––––––––––––––––––––

Number of tracks: 20
Official DR value: DR10

Samplerate: 44100 Hz
Channels: 2
Bits per sample: 16
Bitrate: 650 kbps
Codec: FLAC
================================================================================

Track List CD3:

Original 1968 UK Stereo Mix (Disc Transfer)
01. My Sunday Feeling (Original 1968 UK stereo mix (disc transfer)) [0:03:41.59]
02. Some Day The Sun Won't Shine For You (Original 1968 UK stereo mix (disc transfer)) [0:02:48.00]
03. Beggar's Farm (Original 1968 UK stereo mix (disc transfer)) [0:04:21.70]
04. Move On Alone (Original 1968 UK stereo mix (disc transfer)) [0:01:59.03]
05. Serenade To A Cuckoo (Original 1968 UK stereo mix (disc transfer)) [0:06:08.01]
06. Dharma For One (Original 1968 UK stereo mix (disc transfer)) [0:04:13.25]
07. It's Breaking Me Up (Original 1968 UK stereo mix (disc transfer)) [0:05:01.34]
08. Cat's Squirrel (Original 1968 UK stereo mix (disc transfer)) [0:05:39.54]
09. A Song For Jeffrey (Original 1968 UK stereo mix (disc transfer)) [0:03:22.40]
10. Round (Original 1968 UK stereo mix (disc transfer)) [0:01:00.24]
Original 1968 UK Mono Mix (2018 Remaster)
11. My Sunday Feeling (Original 1968 mono mix (2008 remaster)) [0:03:43.73]
12. My Sunday Feeling (Original 1968 mono mix (2008 remaster)) [0:02:49.07]
13. Beggar's Farm (Original 1968 mono mix (2008 remaster)) [0:04:23.46]
14. Move On Alone (Original 1968 mono mix (2008 remaster)) [0:02:00.15]
15. Serenade To A Cuckoo (Original 1968 mono mix (2008 remaster)) [0:06:07.13]
16. Dharma For One (Original 1968 mono mix (2008 remaster)) [0:04:13.40]
17. It's Breaking Me Up (Original 1968 mono mix (2008 remaster)) [0:05:01.43]
18. Cat's Squirrel (Original 1968 mono mix (2008 remaster)) [0:05:40.14]
19. A Song For Jeffrey (Original 1968 mono mix (2008 remaster)) [0:03:26.25]
20. Round (Original 1968 mono mix (2008 remaster)) [0:00:59.63]

Exact Audio Copy V1.3 from 2. September 2016

EAC extraction logfile from 14. November 2018, 17:57

Jethro Tull / This Was (The 50th Anniversary Edition CD3) [0190295611484-3]

Used drive : HL-DT-STBD-RE BH10LS38 Adapter: 1 ID: 1

Read mode : Secure
Utilize accurate stream : Yes
Defeat audio cache : Yes
Make use of C2 pointers : No

Read offset correction : 667
Overread into Lead-In and Lead-Out : No
Fill up missing offset samples with silence : Yes
Delete leading and trailing silent blocks : No
Null samples used in CRC calculations : Yes
Used interface : Installed external ASPI interface

Used output format : User Defined Encoder
Selected bitrate : 128 kBit/s
Quality : High
Add ID3 tag : No
Command line compressor : C:\Program Files (x86)\Exact Audio Copy\Flac\flac.exe
Additional command line options : -V -8 -T "Date=%year%" -T "Genre=%genre%" %source%


TOC of the extracted CD

Track | Start | Length | Start sector | End sector
––––––––––––––––––––––––––––-
1 | 0:00.00 | 3:41.59 | 0 | 16633
2 | 3:41.59 | 2:48.00 | 16634 | 29233
3 | 6:29.59 | 4:21.70 | 29234 | 48878
4 | 10:51.54 | 1:59.03 | 48879 | 57806
5 | 12:50.57 | 6:08.01 | 57807 | 85407
6 | 18:58.58 | 4:13.25 | 85408 | 104407
7 | 23:12.08 | 5:01.34 | 104408 | 127016
8 | 28:13.42 | 5:39.54 | 127017 | 152495
9 | 33:53.21 | 3:22.40 | 152496 | 167685
10 | 37:15.61 | 1:00.24 | 167686 | 172209
11 | 38:16.10 | 3:43.73 | 172210 | 189007
12 | 42:00.08 | 2:49.07 | 189008 | 201689
13 | 44:49.15 | 4:23.46 | 201690 | 221460
14 | 49:12.61 | 2:00.15 | 221461 | 230475
15 | 51:13.01 | 6:07.13 | 230476 | 258013
16 | 57:20.14 | 4:13.40 | 258014 | 277028
17 | 61:33.54 | 5:01.43 | 277029 | 299646
18 | 66:35.22 | 5:40.14 | 299647 | 325160
19 | 72:15.36 | 3:26.25 | 325161 | 340635
20 | 75:41.61 | 0:59.63 | 340636 | 345123


Range status and errors

Selected range

Filename G:\Rips by Alder\Jethro Tull - This Was (The 50th Anniversary Edition CD3) [0190295611484-3].wav

Peak level 99.4 %
Extraction speed 7.8 X
Range quality 100.0 %
Test CRC 66D944F5
Copy CRC 66D944F5
Copy OK

No errors occurred


AccurateRip summary

Track 1 accurately ripped (confidence 2) [37594CB2] (AR v2)
Track 2 accurately ripped (confidence 2) [8922567C] (AR v2)
Track 3 accurately ripped (confidence 2) [824BFBF0] (AR v2)
Track 4 accurately ripped (confidence 2) [91F902C2] (AR v2)
Track 5 accurately ripped (confidence 2) [B7AFA3A2] (AR v2)
Track 6 accurately ripped (confidence 2) [1988B483] (AR v2)
Track 7 accurately ripped (confidence 2) [1D2D5E5D] (AR v2)
Track 8 accurately ripped (confidence 2) [210A0A32] (AR v2)
Track 9 accurately ripped (confidence 2) [A46379F2] (AR v2)
Track 10 accurately ripped (confidence 2) [863A220F] (AR v2)
Track 11 accurately ripped (confidence 2) [A8E07706] (AR v2)
Track 12 accurately ripped (confidence 2) [EDE5063A] (AR v2)
Track 13 accurately ripped (confidence 2) [C001B5B4] (AR v2)
Track 14 accurately ripped (confidence 2) [55F08907] (AR v2)
Track 15 accurately ripped (confidence 2) [FDB860DE] (AR v2)
Track 16 accurately ripped (confidence 2) [22ADBAF5] (AR v2)
Track 17 accurately ripped (confidence 2) [792D2E75] (AR v2)
Track 18 accurately ripped (confidence 2) [272D51BD] (AR v2)
Track 19 accurately ripped (confidence 2) [86757240] (AR v2)
Track 20 accurately ripped (confidence 2) [24028D2F] (AR v2)

All tracks accurately ripped

End of status report

–– CUETools DB Plugin V2.1.6

[CTDB TOCID: 6WW0P5xs3QC16WCy6ELbIm0agDw-] found
Submit result: 6WW0P5xs3QC16WCy6ELbIm0agDw- has been confirmed
Track | CTDB Status
1 | (22/22) Accurately ripped
2 | (22/22) Accurately ripped
3 | (22/22) Accurately ripped
4 | (22/22) Accurately ripped
5 | (22/22) Accurately ripped
6 | (22/22) Accurately ripped
7 | (22/22) Accurately ripped
8 | (22/22) Accurately ripped
9 | (22/22) Accurately ripped
10 | (22/22) Accurately ripped
11 | (22/22) Accurately ripped
12 | (22/22) Accurately ripped
13 | (22/22) Accurately ripped
14 | (22/22) Accurately ripped
15 | (22/22) Accurately ripped
16 | (22/22) Accurately ripped
17 | (22/22) Accurately ripped
18 | (22/22) Accurately ripped
19 | (22/22) Accurately ripped
20 | (22/22) Accurately ripped


==== Log checksum 555D268FD4116085AC69C9E36AC253945E511FDD43A18989E3CAEAE305DBFB95 ====

foobar2000 1.3.16 / Dynamic Range Meter 1.1.1
log date: 2018-11-16 22:31:14

––––––––––––––––––––––––––––––––––––––––
Analyzed: Jethro Tull / This Was (The 50th Anniversary Edition CD3) [0190295611484-3]
––––––––––––––––––––––––––––––––––––––––

DR Peak RMS Duration Track
––––––––––––––––––––––––––––––––––––––––
DR10 -0.08 dB -11.38 dB 3:42 01-My Sunday Feeling (Original 1968 UK stereo mix (disc transfer))
DR13 -1.31 dB -17.75 dB 2:48 02-Some Day The Sun Won't Shine For You (Original 1968 UK stereo mix (disc trans…
DR11 -0.08 dB -13.78 dB 4:22 03-Beggar's Farm (Original 1968 UK stereo mix (disc transfer))
DR8 -0.06 dB -10.85 dB 1:59 04-Move On Alone (Original 1968 UK stereo mix (disc transfer))
DR12 -0.08 dB -15.78 dB 6:08 05-Serenade To A Cuckoo (Original 1968 UK stereo mix (disc transfer))
DR10 -0.05 dB -11.60 dB 4:13 06-Dharma For One (Original 1968 UK stereo mix (disc transfer))
DR9 -0.07 dB -11.04 dB 5:01 07-It's Breaking Me Up (Original 1968 UK stereo mix (disc transfer))
DR9 -0.08 dB -11.10 dB 5:40 08-Cat's Squirrel (Original 1968 UK stereo mix (disc transfer))
DR11 -0.24 dB -14.17 dB 3:23 09-A Song For Jeffrey (Original 1968 UK stereo mix (disc transfer))
DR12 -1.71 dB -18.47 dB 1:00 10-Round (Original 1968 UK stereo mix (disc transfer))
DR11 -0.09 dB -12.84 dB 3:44 11-My Sunday Feeling (Original 1968 mono mix (2008 remaster))
DR9 -3.09 dB -16.27 dB 2:49 12-My Sunday Feeling (Original 1968 mono mix (2008 remaster))
DR12 -0.09 dB -14.60 dB 4:24 13-Beggar's Farm (Original 1968 mono mix (2008 remaster))
DR11 -1.22 dB -14.80 dB 2:00 14-Move On Alone (Original 1968 mono mix (2008 remaster))
DR11 -0.81 dB -15.67 dB 6:07 15-Serenade To A Cuckoo (Original 1968 mono mix (2008 remaster))
DR12 -1.61 dB -15.25 dB 4:14 16-Dharma For One (Original 1968 mono mix (2008 remaster))
DR11 -1.52 dB -14.18 dB 5:02 17-It's Breaking Me Up (Original 1968 mono mix (2008 remaster))
DR10 -1.07 dB -13.50 dB 5:40 18-Cat's Squirrel (Original 1968 mono mix (2008 remaster))
DR10 -1.70 dB -15.62 dB 3:26 19-A Song For Jeffrey (Original 1968 mono mix (2008 remaster))
DR9 -5.21 dB -21.84 dB 1:00 20-Round (Original 1968 mono mix (2008 remaster))
––––––––––––––––––––––––––––––––––––––––

Number of tracks: 20
Official DR value: DR11

Samplerate: 44100 Hz
Channels: 2
Bits per sample: 16
Bitrate: 659 kbps
Codec: FLAC
================================================================================

Personnel:
Ian Anderson - lead vocals (1–3, 7, 9), flute, mouth organ, «claghorn», piano
Mick Abrahams - guitar, backing and lead (4) vocals, nine-string guitar
Glenn Cornick - bass guitar
Clive Bunker - drums, hooter, charm bracelet

Additional musicians:
David Palmer - French horn and orchestral arrangements

Jethro Tull - This Was: The 50th Anniversary Edition (1968) {2018, 3CD Box Set}

All thanks go to Alder

>>> Jethro Tull in my Blog <<<

Download from icerbox.com: