Subcategories

Simeon Bellison, Israel Brandmann, Grigori Krejn, Julian Krejn - Jewish Songs without Words (Meyer, Nemtsov)

Posted By: tapaz9
Simeon Bellison,  Israel Brandmann,  Grigori Krejn, Julian Krejn - Jewish Songs without Words (Meyer, Nemtsov)

Simeon Bellison, Israel Brandmann, Grigori Krejn, Julian Krejn - Jewish Songs without Words (Meyer, Nemtsov)
Classical | EAC: FLAC+Cue+Log | 1 Cd, Covers | 231 Mb
Label: Haenssler - Date: 2004

This is s superb account of Jewish music that not many people have ever heard of. It is Jewish art music either for clarinet and piano or arranged for them. Some pieces are arrangements of folk songs, but some are not – many compositions here are true art music and will be a revelation to many listeners. I can't recommend it enough.
Daniel Pincus @ Amazon.com
Tracks:

01. Grigori Krejn: 4 Songs without words, Op. 23 - I. Lento [0:03:00.67]
02. II. Grave [0:02:09.45]
03. III. Lento [0:03:18.39]
04. IV. Moderato con moto [0:01:51.48]
05. Israel Brandmann: Variations on a popular theme: Andante - 5 Variations [0:11:21.04]
06. Simeon Bellison: 4 Hebrew Melodies in the Form of a Suite - Ia. Fitelberg: To the Wedding: I: Kale-Besezen [0:03:20.22]
07. Ib. Fitelberg: To the Wedding: II: Procession [0:01:30.09]
08. II. Weinberg: Canzonetta (Grandmother's Tale) [0:02:28.30]
09. III. Levenson: Hebrew Dance, Op. 68 [0:01:37.32]
10. IV. Weinberg: Children's Round [0:01:08.18]
11. Julian Krejn: 3 Hebrew songs without words - I. Pas trop lent, alla breve [0:02:20.12]
12. II. Assez modere [0:01:51.67]
13. III. Moderement, mais avec mouvement [0:03:19.73]
14. Grigori Krejn: 3 Songs without words, Op. 38 - I. A Morning in the Mountains [0:02:16.01]
15. II. Mourner [0:02:43.00]
16. III. Story [0:02:17.19]
17. Grigori Krejn: Berceuse funebre, Op. 8, No. 1 [0:04:13.74]
18. Grigori Krejn: Rhapsody [0:07:02.17]


Exact Audio Copy V1.0 beta 3 from 29. August 2011

EAC extraction logfile from 16. January 2013, 23:36

Simeon Bellison, Israel Brandmann, Grigori Krejn, Julian Krejn / Jewish Songs without Words (Meyer, Nemtsov)

Used drive : TSSTcorpCDDVDW SH-S223C Adapter: 2 ID: 1

Read mode : Secure
Utilize accurate stream : Yes
Defeat audio cache : Yes
Make use of C2 pointers : No

Read offset correction : 697
Overread into Lead-In and Lead-Out : No
Fill up missing offset samples with silence : Yes
Delete leading and trailing silent blocks : No
Null samples used in CRC calculations : Yes
Used interface : Native Win32 interface for Win NT & 2000

Used output format : User Defined Encoder
Selected bitrate : 896 kBit/s
Quality : High
Add ID3 tag : No
Command line compressor : C:\Program Files (x86)\Exact Audio Copy\FLAC\FLAC.EXE
Additional command line options : -V -0 -T "COMMENT=Ripped by Tapaz9" -T "artist=%artist%" -T "title=%title%" -T "album=%albumtitle%" -T "date=%year%" -T "tracknumber=%tracknr%" -T "genre=%genre%" %source%


TOC of the extracted CD

Track | Start | Length | Start sector | End sector
––––––––––––––––––––––––––––-
1 | 0:00.00 | 3:00.67 | 0 | 13566
2 | 3:00.67 | 2:09.45 | 13567 | 23286
3 | 5:10.37 | 3:18.39 | 23287 | 38175
4 | 8:29.01 | 1:51.48 | 38176 | 46548
5 | 10:20.49 | 11:21.04 | 46549 | 97627
6 | 21:41.53 | 3:20.22 | 97628 | 112649
7 | 25:02.00 | 1:30.09 | 112650 | 119408
8 | 26:32.09 | 2:28.30 | 119409 | 130538
9 | 29:00.39 | 1:37.32 | 130539 | 137845
10 | 30:37.71 | 1:08.18 | 137846 | 142963
11 | 31:46.14 | 2:20.12 | 142964 | 153475
12 | 34:06.26 | 1:51.67 | 153476 | 161867
13 | 35:58.18 | 3:19.73 | 161868 | 176865
14 | 39:18.16 | 2:16.01 | 176866 | 187066
15 | 41:34.17 | 2:43.00 | 187067 | 199291
16 | 44:17.17 | 2:17.19 | 199292 | 209585
17 | 46:34.36 | 4:13.74 | 209586 | 228634
18 | 50:48.35 | 7:02.17 | 228635 | 260301


Range status and errors

Selected range

Filename F:\Musique\Jewish Songs without Words\Jewish_Songs_without_Words\Jewish Songs without Words (Meyer, Nemtsov).wav

Peak level 100.0 %
Extraction speed 14.5 X
Range quality 100.0 %
Copy CRC 70456E70
Copy OK

No errors occurred

End of status report

==== Log checksum 5B7199C646FD02185614EEE2A89EF917CD7A30671A1191A55F9C4BFD27305451 ====

No Mirrors and Torrent-uploads Please

See my classical digital download posts in the Vinyl & HR section or check out My Avax blog