Subcategories

Jimmy LaFave - Peace Town (2018)

Posted By: popsakov
Jimmy LaFave - Peace Town (2018)

Jimmy LaFave - Peace Town (2018)
2CD | EAC Rip | FLAC (Tracks) + Cue + m3u8 + Log ~ 625 Mb | MP3 CBR320 ~ 238 Mb
Full Scans ~ 58 Mb | 00:52:18 + 00:46:41 | RAR 5% Recovery
Folk Rock, Country, Blues | Music Road Records #MRR CD 030

In May 2017, days before succumbing to cancer, Jimmy LaFave staged a final show in Austin at the Paramount Theatre, an all-star farewell and thank you to the music community he adoringly called home. Even in his own passing at the age of 61, LaFave’s voice provided comfort, wisdom, and healing to a hurting world. Posthumous double-disc Peace Town arrives nearly a year later, a last gift from the incomparable song crier. Like calculated final collections from David Bowie, Warren Zevon, and Leonard Cohen, each song rings with meaning. Opening on Pete Townshend’s “Let My Love Open the Door,” LaFave recasts the pop anthem with a stirring emotional appeal, followed by one of only three of his own compositions among the 20 tracks, “Minstrel Boy Howling at the Moon.” His honeyed, ofttimes wrenching voice in these recordings lacks the stunning range that defined his artistry, but retains his hallmark tenderness and immaculate ear for cutting to the heart of a song. Three Bob Dylan copyrights make the final cut, a breaking “What Good Am I,” a poignant piano interpretation of “My Back Pages,” and stripped “You're Gonna Make Me Lonesome When You Go,” while his other inspirational well, Woody Guthrie, comes represented in the bluesy “Sideline Woman,” chugging “Salvation Train,” and poignant title track. Peace Town rings loudest in its vulnerability—fellow Okie Leon Russell’s “Help Me Through the Day,” David Ball’s “When the Thought of You Catches Up With Me,” and the Band’s “It Makes No Difference”—but also through defiant and playful hopefulness with Bob McDill’s “I May Be Used (But I Ain’t Used Up)” and Chuck Berry’s rumbling “The Promised Land.” Butch Hancock’s “Already Gone” and Tim Easton’s “Goodbye Amsterdam” play to both ends of the spectrum in closing each disc. Goodbyes rarely sound so alive.

~ Doug Freeman, The Austin Chronicle, 27 July 2018

Last year’s premature passing of Austin singer/songwriter Jimmy LaFave was a tragedy for the music world as a whole, but Americana music in particular. LaFave’s songs were both poignant and purposeful, not only his insightful original compositions but his superb choice of covers as well. Ironically then, while the posthumously released Peace Town represents his final offering, it also serves as an excellent introduction to the uninitiated, a combination of both original material and offerings from others that retain the same style and sensibility throughout this expansive two-CD set.

The easiest references are found through material LaFave would integrate into his own repertoire, in this case, the Band’s “It Makes No Difference,” Pete Townshend’s “Let My Love Open the Door,” Chuck Berry’s “The Promised Land,” Dylan’s “My Back Pages,” “What Good Am I” and “You’re Gonna Make Me Lonesome,” as well as songs by Butch Hancock, Tim Easton, and others. Each is an archival classic, and in LaFave’s sensitive, often subdued readings, he represents the earnest intent inherent in each. It’s little wonder then that his own songs fit so seamlessly alongside them, conveying a sense of purpose and promise that was sadly dispelled far too soon.

Ultimately then, Peace Town proves La Fave was not only a superb musical architect but a man whose deep respect for the very fiber of Americana music in its truest sense made him more than just another heart heavy troubadour. His songs brought past to present, the restless wanderings of Woody Guthrie finding a full connection to roads yet to be traveled throughout the nation’s heartland, and then too, their ultimate connection to the world as a whole. Sadly, Peace Town is the final stop on that journey, but happily, LaFave’s light won’t go out entirely. The legacy he leaves, in this album and all the others that came before, ensures that the music he made, so flush with honesty and integrity, will linger long after.

~ Lee Zimmerman, Glide Magazine, 16 July 2018

***************

Track List CD1:

01. Let My Love Open the Door [4:47]
02. Minstrel Boy Howling at the Moon [4:39]
03. Peace Town [5:15]
04. What Good Am I [4:20]
05. Help Me Through the Day [6:54]
06. I May Be Used (But I Ain't Used Up) [4:21]
07. My Back Pages [6:57]
08. My Oklahoma Home (It Blowed Away) [3:41]
09. A Thousand by My Side [4:03]
10. Already Gone [7:21]

Exact Audio Copy V1.3 from 2. September 2016

EAC extraction logfile from 14. November 2019, 18:22

Jimmy LaFave / Peace Town [Disc 1]

Used drive : ASUS BW-12D1S-U Adapter: 1 ID: 1

Read mode : Secure
Utilize accurate stream : Yes
Defeat audio cache : Yes
Make use of C2 pointers : No

Read offset correction : 667
Overread into Lead-In and Lead-Out : No
Fill up missing offset samples with silence : Yes
Delete leading and trailing silent blocks : No
Null samples used in CRC calculations : Yes
Used interface : Native Win32 interface for Win NT & 2000
Gap handling : Appended to previous track

Used output format : User Defined Encoder
Selected bitrate : 1024 kBit/s
Quality : High
Add ID3 tag : No
Command line compressor : C:\Program Files (x86)\Exact Audio Copy\FLAC\FLAC.EXE
Additional command line options : -V -8 -T "Genre=%genre%" -T "Artist=%artist%" -T "Title=%title%" -T "Album=%albumtitle%" -T "Date=%year%" -T "Tracknumber=%tracknr%" -T "Comment=%comment%" %source%


TOC of the extracted CD

Track | Start | Length | Start sector | End sector
––––––––––––––––––––––––––––-
1 | 0:00.00 | 4:46.64 | 0 | 21513
2 | 4:46.64 | 4:38.69 | 21514 | 42432
3 | 9:25.58 | 5:14.54 | 42433 | 66036
4 | 14:40.37 | 4:20.20 | 66037 | 85556
5 | 19:00.57 | 6:54.08 | 85557 | 116614
6 | 25:54.65 | 4:20.67 | 116615 | 136181
7 | 30:15.57 | 6:56.52 | 136182 | 167433
8 | 37:12.34 | 3:41.21 | 167434 | 184029
9 | 40:53.55 | 4:03.17 | 184030 | 202271
10 | 44:56.72 | 7:20.67 | 202272 | 235338


Track 1

Filename F:\Torrents of Autumn\LaFave, Jimmy [2018] Peace Town\Disc One\01. Let My Love Open the Door.wav

Pre-gap length 0:00:02.00

Peak level 91.1 %
Extraction speed 4.4 X
Track quality 99.9 %
Test CRC 4CD3F3B9
Copy CRC 4CD3F3B9
Accurately ripped (confidence 8) [8429CFBB] (AR v2)
Copy OK

Track 2

Filename F:\Torrents of Autumn\LaFave, Jimmy [2018] Peace Town\Disc One\02. Minstrel Boy Howling at the Moon.wav

Peak level 91.1 %
Extraction speed 5.3 X
Track quality 100.0 %
Test CRC EDB44CE2
Copy CRC EDB44CE2
Accurately ripped (confidence 8) [9DA39A83] (AR v2)
Copy OK

Track 3

Filename F:\Torrents of Autumn\LaFave, Jimmy [2018] Peace Town\Disc One\03. Peace Town.wav

Peak level 91.1 %
Extraction speed 5.3 X
Track quality 99.9 %
Test CRC 3E9BF436
Copy CRC 3E9BF436
Accurately ripped (confidence 8) [34CD106C] (AR v2)
Copy OK

Track 4

Filename F:\Torrents of Autumn\LaFave, Jimmy [2018] Peace Town\Disc One\04. What Good Am I.wav

Peak level 91.1 %
Extraction speed 5.5 X
Track quality 99.9 %
Test CRC E2315BF8
Copy CRC E2315BF8
Accurately ripped (confidence 8) [0BED0C46] (AR v2)
Copy OK

Track 5

Filename F:\Torrents of Autumn\LaFave, Jimmy [2018] Peace Town\Disc One\05. Help Me Through the Day.wav

Peak level 91.1 %
Extraction speed 6.9 X
Track quality 100.0 %
Test CRC EA8E661E
Copy CRC EA8E661E
Accurately ripped (confidence 8) [308B90B9] (AR v2)
Copy OK

Track 6

Filename F:\Torrents of Autumn\LaFave, Jimmy [2018] Peace Town\Disc One\06. I May Be Used (But I Ain't Used Up).wav

Peak level 91.1 %
Extraction speed 7.0 X
Track quality 100.0 %
Test CRC 1097FAE9
Copy CRC 1097FAE9
Accurately ripped (confidence 8) [FA8E317A] (AR v2)
Copy OK

Track 7

Filename F:\Torrents of Autumn\LaFave, Jimmy [2018] Peace Town\Disc One\07. My Back Pages.wav

Peak level 91.1 %
Extraction speed 7.6 X
Track quality 100.0 %
Test CRC 9B98D23E
Copy CRC 9B98D23E
Accurately ripped (confidence 8) [66741D37] (AR v2)
Copy OK

Track 8

Filename F:\Torrents of Autumn\LaFave, Jimmy [2018] Peace Town\Disc One\08. My Oklahoma Home (It Blowed Away).wav

Peak level 91.1 %
Extraction speed 7.3 X
Track quality 100.0 %
Test CRC 1D52425D
Copy CRC 1D52425D
Accurately ripped (confidence 8) [895C2E3C] (AR v2)
Copy OK

Track 9

Filename F:\Torrents of Autumn\LaFave, Jimmy [2018] Peace Town\Disc One\09. A Thousand by My Side.wav

Peak level 91.1 %
Extraction speed 7.7 X
Track quality 100.0 %
Test CRC 3DC4280A
Copy CRC 3DC4280A
Accurately ripped (confidence 8) [098EBBB8] (AR v2)
Copy OK

Track 10

Filename F:\Torrents of Autumn\LaFave, Jimmy [2018] Peace Town\Disc One\10. Already Gone.wav

Peak level 91.1 %
Extraction speed 7.8 X
Track quality 99.9 %
Test CRC BF018639
Copy CRC BF018639
Accurately ripped (confidence 8) [D691BAD4] (AR v2)
Copy OK


All tracks accurately ripped

No errors occurred

End of status report

–– CUETools DB Plugin V2.1.6

[CTDB TOCID: 2mgC6SIP9AB_VfjSGXT7NMD4Llo-] found
Submit result: 2mgC6SIP9AB_VfjSGXT7NMD4Llo- has been confirmed
Track | CTDB Status
1 | (16/16) Accurately ripped
2 | (16/16) Accurately ripped
3 | (16/16) Accurately ripped
4 | (16/16) Accurately ripped
5 | (16/16) Accurately ripped
6 | (16/16) Accurately ripped
7 | (16/16) Accurately ripped
8 | (16/16) Accurately ripped
9 | (16/16) Accurately ripped
10 | (16/16) Accurately ripped


==== Log checksum 9C26929253280A2927C738A1F60139FA96F1081A5CA25DD88F95C11F858E1276 ====

Track List CD2:

01. It Makes No Difference [6:53]
02. Don't Go to Strangers [5:04]
03. When the Thought of You Catches Up with Me [5:30]
04. Salvation Train [4:06]
05. Ramblin' Sky [5:06]
06. Sideline Woman [4:31]
07. The Promised Land [2:41]
08. You're Gonna Make Me Lonesome When You Go [5:21]
09. Untitled [4:45]
10. Goodbye Amsterdam [2:44]

Exact Audio Copy V1.3 from 2. September 2016

EAC extraction logfile from 14. November 2019, 18:55

Jimmy LaFave / Peace Town [Disc 2]

Used drive : ASUS BW-12D1S-U Adapter: 1 ID: 1

Read mode : Secure
Utilize accurate stream : Yes
Defeat audio cache : Yes
Make use of C2 pointers : No

Read offset correction : 667
Overread into Lead-In and Lead-Out : No
Fill up missing offset samples with silence : Yes
Delete leading and trailing silent blocks : No
Null samples used in CRC calculations : Yes
Used interface : Native Win32 interface for Win NT & 2000
Gap handling : Appended to previous track

Used output format : User Defined Encoder
Selected bitrate : 1024 kBit/s
Quality : High
Add ID3 tag : No
Command line compressor : C:\Program Files (x86)\Exact Audio Copy\FLAC\FLAC.EXE
Additional command line options : -V -8 -T "Genre=%genre%" -T "Artist=%artist%" -T "Title=%title%" -T "Album=%albumtitle%" -T "Date=%year%" -T "Tracknumber=%tracknr%" -T "Comment=%comment%" %source%


TOC of the extracted CD

Track | Start | Length | Start sector | End sector
––––––––––––––––––––––––––––-
1 | 0:00.00 | 6:53.28 | 0 | 31002
2 | 6:53.28 | 5:04.35 | 31003 | 53837
3 | 11:57.63 | 5:29.40 | 53838 | 78552
4 | 17:27.28 | 4:06.24 | 78553 | 97026
5 | 21:33.52 | 5:06.18 | 97027 | 119994
6 | 26:39.70 | 4:31.17 | 119995 | 140336
7 | 31:11.12 | 2:40.71 | 140337 | 152407
8 | 33:52.08 | 5:20.40 | 152408 | 176447
9 | 39:12.48 | 4:44.39 | 176448 | 197786
10 | 43:57.12 | 2:43.74 | 197787 | 210085


Track 1

Filename F:\Torrents of Autumn\LaFave, Jimmy [2018] Peace Town\Disc Two\01. It Makes No Difference.wav

Pre-gap length 0:00:02.00

Peak level 91.1 %
Extraction speed 5.1 X
Track quality 100.0 %
Test CRC 9F49E083
Copy CRC 9F49E083
Accurately ripped (confidence 8) [8F87A798] (AR v2)
Copy OK

Track 2

Filename F:\Torrents of Autumn\LaFave, Jimmy [2018] Peace Town\Disc Two\02. Don't Go to Strangers.wav

Peak level 91.1 %
Extraction speed 5.1 X
Track quality 99.9 %
Test CRC E989A98E
Copy CRC E989A98E
Accurately ripped (confidence 8) [554080BA] (AR v2)
Copy OK

Track 3

Filename F:\Torrents of Autumn\LaFave, Jimmy [2018] Peace Town\Disc Two\03. When the Thought of You Catches Up with Me.wav

Peak level 91.1 %
Extraction speed 6.1 X
Track quality 100.0 %
Test CRC 048B109B
Copy CRC 048B109B
Accurately ripped (confidence 8) [5FBBCC85] (AR v2)
Copy OK

Track 4

Filename F:\Torrents of Autumn\LaFave, Jimmy [2018] Peace Town\Disc Two\04. Salvation Train.wav

Peak level 91.1 %
Extraction speed 5.6 X
Track quality 99.9 %
Test CRC 4155FE38
Copy CRC 4155FE38
Accurately ripped (confidence 8) [86685AE4] (AR v2)
Copy OK

Track 5

Filename F:\Torrents of Autumn\LaFave, Jimmy [2018] Peace Town\Disc Two\05. Ramblin' Sky.wav

Peak level 91.1 %
Extraction speed 6.8 X
Track quality 100.0 %
Test CRC 049A336D
Copy CRC 049A336D
Accurately ripped (confidence 8) [ACA514B8] (AR v2)
Copy OK

Track 6

Filename F:\Torrents of Autumn\LaFave, Jimmy [2018] Peace Town\Disc Two\06. Sideline Woman.wav

Peak level 91.1 %
Extraction speed 6.4 X
Track quality 99.9 %
Test CRC EDA291AC
Copy CRC EDA291AC
Accurately ripped (confidence 8) [3C8F325C] (AR v2)
Copy OK

Track 7

Filename F:\Torrents of Autumn\LaFave, Jimmy [2018] Peace Town\Disc Two\07. The Promised Land.wav

Peak level 91.1 %
Extraction speed 6.6 X
Track quality 100.0 %
Test CRC 949EFE0A
Copy CRC 949EFE0A
Accurately ripped (confidence 8) [B0C28B69] (AR v2)
Copy OK

Track 8

Filename F:\Torrents of Autumn\LaFave, Jimmy [2018] Peace Town\Disc Two\08. You're Gonna Make Me Lonesome When You Go.wav

Peak level 91.1 %
Extraction speed 7.6 X
Track quality 100.0 %
Test CRC 62ABFF4C
Copy CRC 62ABFF4C
Accurately ripped (confidence 8) [91A33FEC] (AR v2)
Copy OK

Track 9

Filename F:\Torrents of Autumn\LaFave, Jimmy [2018] Peace Town\Disc Two\09. Untitled.wav

Peak level 91.1 %
Extraction speed 7.0 X
Track quality 99.9 %
Test CRC CE851AAC
Copy CRC CE851AAC
Accurately ripped (confidence 8) [9C71C93F] (AR v2)
Copy OK

Track 10

Filename F:\Torrents of Autumn\LaFave, Jimmy [2018] Peace Town\Disc Two\10. Goodbye Amsterdam.wav

Peak level 91.1 %
Extraction speed 7.3 X
Track quality 100.0 %
Test CRC 1923CF67
Copy CRC 1923CF67
Accurately ripped (confidence 8) [596E29F4] (AR v2)
Copy OK


All tracks accurately ripped

No errors occurred

End of status report

–– CUETools DB Plugin V2.1.6

[CTDB TOCID: otc_AC0GHddbVK_Zrb4hTTVe_Mk-] found
Submit result: otc_AC0GHddbVK_Zrb4hTTVe_Mk- has been confirmed
Track | CTDB Status
1 | (13/13) Accurately ripped
2 | (13/13) Accurately ripped
3 | (13/13) Accurately ripped
4 | (13/13) Accurately ripped
5 | (13/13) Accurately ripped
6 | (13/13) Accurately ripped
7 | (13/13) Accurately ripped
8 | (13/13) Accurately ripped
9 | (13/13) Accurately ripped
10 | (13/13) Accurately ripped


==== Log checksum BD18049F1A977E9670B5979AC00ACB651531FA89537F04C897EDCE1B1135371A ====

Personnel:
Jimmy LaFave - vocals, acoustic guitar
Bobby Kallus - drums
Glenn Schuetz - bass
John Inmon - guitar
Jesse LaFave - guitar
Warren Hood - violin
Kym Warner - mandolin
Stefano Intelisano - keyboard, accordion
Andrew Pressman - bass
Katie Marie - drums
Larry Wilson - electric guitar
Jaimee Harris - background vocals
Will Taylor - viola
Javier Chaparro - violin
Tony Rogers - cello
Phil Hurley - guitar
Brian Standefer - cello
Jane Ellen Bryant - background vocals

Jimmy LaFave - Peace Town (2018)


All thanks go to DoobieBro

>>> Jimmy LaFave in my Blog <<<

DOWNLOAD: