Tags
Language
Tags

Jimmy LaFave - The Night Tribe (2015)

Posted By: popsakov
Jimmy LaFave - The Night Tribe (2015)

Jimmy LaFave - The Night Tribe (2015)
EAC Rip | FLAC (Tracks) + Cue + m3u8 + Log ~ 319 Mb | MP3 CBR320 ~ 133 Mb
Full Scans ~ 67 Mb | RAR 5% Recovery
Folk Rock, Pop Rock, Americana | Music Road Records #MRR CD 023

Starting in 1992 with his Austin Skyline debut, there was never any doubt about the debt the Oklahoma-raised, Texas-based Jimmy LaFave owed to his biggest inspiration Bob Dylan. From the album title’s riff on Nashville Skyline to numerous covers that have peppered subsequent releases in LaFave’s thick back catalog, he has created a cottage industry of sorts interpreting Dylan songs alongside his own originals.

For better or worse (largely the former), LaFave hasn’t shifted gears much from his first recordings over three decades ago. A few rustic rockers mesh with lovely, understated melodies, all of which are enlivened by the singer’s scratchy, raw and thoroughly distinctive voice that sounds more like Steve Forbert as they both age. Almost anything from this terrific new batch of rootsy folk-rockers could have been included in any earlier album.

As usual, LaFave is not shy about his influences, including an obscure Neil Young track (“Journey Through the Past”) along with what is by now a de rigueur version of a Dylan gem. For the latter he dips into the bard’s early years for a seldom performed “Queen Jane Approximately,” which expands from a stripped down beginning to a full blown finale complete with backing vocals and strings.

But LaFave’s own songwriting talents are as striking as his interpretive skills. The opening “The Beauty of You” is not only one of his finest spiritually based songs, but a sweet, honest love song that could easily apply to a romantic partner. He adds blues and atmospheric noir strings for the evocative title track that describes and embraces those who live in the “neon glow” of late night jobs, as he has for all these years. Gospel female backing singers bring soul to the regretful mid-tempo “Never Came Back to Memphis,” another one of many highlights that seem to effortlessly drop from LaFave’s pen.

From the swampy J.J. Cale-styled restrained rock of “Dust Bowl Okies” and the Chuck Berry chugging “Trying to Get Back to You” and the exquisitely beautiful “Talk to an Angel,” there are no weak spots throughout this long but never dull 56 minute set. Those new to LaFave’s singer/songwriter talents can start here, then work back through a history that’s as rich, impressive and frustratingly underappreciated as any in his genre. (Hal Horowitz, American Songwriter, 12 May 2015)
Jimmy LaFave’s rich, effusive vocals command attention and when the Austin, Texas-based singer pairs them with the right material, wonderful music results. That’s what happens on nearly every track on his self-produced latest album.

LaFave—whose voice reminds me at times of the great Michael Fracasso’s—brings out every bit of melancholy in Neil Young’s “Journey through the Past” and serves up a soulful, anthemic reading of Bob Dylan’s classic “Queen Jane Approximately.” (LaFave is no stranger to Dylan covers: a 1999 retrospective includes a dozen of Bob’s songs and 2007’s Cimarron Manifesto features a reading of “Not Dark Yet” that nearly equals the spellbinding original.)

LaFave’s own compositions, which dominate the program here, are terrific as well and in line with the album’s moniker. As the singer writes in the liner notes, his tunes concern the “after-hours people . . . the Kerouac people: the all-night waitress, the 24-hour truck stop attendant, the after-midnight radio host . . . restless insomniacs up all hours of the night searching for truth.” Highlights include “Maybe,” an exuberant mid-tempo number; the gorgeous ballads “Not On Me,” “The Beauty of You” and “Talk to an Angel”; and “Never Came Back to Memphis,” a sultry, seductive folk/rocker.

LaFave’s band, which includes a six-piece string section, is first-rate but I have to single out pianist Radoslav Lorkovic, whose majestic work reminds me at times of the feeling I get from Bruce Hornsby’s piano riffs on “The Way It Is.” Throughout, LaFave sings with conviction about the things that matter in life, and the results are profound. This moody, heartfelt album makes a perfect accompaniment to that last late-night glass of wine but sounds magnificent by daylight as well.

~ Jeff Burger, No Depression: The Journal of Roots Music, 10 June 2015

***************

Jimmy LaFave - The Night Tribe (2015)

Track List:

01. The Beauty of You [5:25]
02. Maybe [5:25]
03. Journey Through the Past [5:01]
04. It's Not on Me [3:32]
05. Trying to Get Back to You [3:35]
06. Talk to an Angel [4:01]
07. Queen Jane Approximately [5:46]
08. Island [3:21]
09. The Night Tribe [3:55]
10. Never Came Back to Memphis [3:05]
11. Smile [3:53]
12. Dust Bowl Okies [4:38]
13. The Roads of the Earth [3:42]

Personnel:
Jimmy LaFave - vocal, acoustic guitar
Anthony Da Costa - electric guitar
Radoslav Lorkovic - piano and organ
Andrew Pressman - bass
Bobby Kallus - drums
Larry Wilson - electric guitar
Garrett Lebeau - electric guitar
Noelle Hampton - backing vocals
Jaimee Harris - backing vocals
Emily Shirley - backing vocals
Will Taylor - viola
Javier Chaparro - violin
James Anderson - violin
Tony Rogers - cello
Brian Standefer - cello
Delaine Leonard - harp

Exact Audio Copy V1.3 from 2. September 2016

EAC extraction logfile from 22. January 2019, 16:24

Jimmy LaFave / The Night Tribe

Used drive : ASUS BW-12D1S-U Adapter: 1 ID: 1

Read mode : Secure
Utilize accurate stream : Yes
Defeat audio cache : Yes
Make use of C2 pointers : No

Read offset correction : 667
Overread into Lead-In and Lead-Out : No
Fill up missing offset samples with silence : Yes
Delete leading and trailing silent blocks : No
Null samples used in CRC calculations : Yes
Used interface : Native Win32 interface for Win NT & 2000
Gap handling : Appended to previous track

Used output format : User Defined Encoder
Selected bitrate : 1024 kBit/s
Quality : High
Add ID3 tag : No
Command line compressor : C:\Program Files (x86)\Exact Audio Copy\FLAC\FLAC.EXE
Additional command line options : -V -8 -T "Genre=%genre%" -T "Artist=%artist%" -T "Title=%title%" -T "Album=%albumtitle%" -T "Date=%year%" -T "Tracknumber=%tracknr%" -T "Comment=%comment%" %source%


TOC of the extracted CD

Track | Start | Length | Start sector | End sector
––––––––––––––––––––––––––––-
1 | 0:00.00 | 5:25.28 | 0 | 24402
2 | 5:25.28 | 5:24.57 | 24403 | 48759
3 | 10:50.10 | 5:01.18 | 48760 | 71352
4 | 15:51.28 | 3:31.44 | 71353 | 87221
5 | 19:22.72 | 3:35.23 | 87222 | 103369
6 | 22:58.20 | 4:01.05 | 103370 | 121449
7 | 26:59.25 | 5:45.44 | 121450 | 147368
8 | 32:44.69 | 3:20.69 | 147369 | 162437
9 | 36:05.63 | 3:55.26 | 162438 | 180088
10 | 40:01.14 | 3:05.31 | 180089 | 193994
11 | 43:06.45 | 3:52.72 | 193995 | 211466
12 | 46:59.42 | 4:37.53 | 211467 | 232294
13 | 51:37.20 | 3:42.00 | 232295 | 248944


Track 1

Filename E:\Torrents of Autumn\LaFave, Jimmy [2015] The Night Tribe\01. The Beauty of You.wav

Pre-gap length 0:00:02.00

Peak level 94.9 %
Extraction speed 4.5 X
Track quality 99.9 %
Test CRC 0366C135
Copy CRC 0366C135
Accurately ripped (confidence 8) [F67B8108] (AR v2)
Copy OK

Track 2

Filename E:\Torrents of Autumn\LaFave, Jimmy [2015] The Night Tribe\02. Maybe.wav

Peak level 94.9 %
Extraction speed 5.5 X
Track quality 100.0 %
Test CRC 815A5E9C
Copy CRC 815A5E9C
Accurately ripped (confidence 8) [C60F7204] (AR v2)
Copy OK

Track 3

Filename E:\Torrents of Autumn\LaFave, Jimmy [2015] The Night Tribe\03. Journey Through the Past.wav

Peak level 94.9 %
Extraction speed 5.9 X
Track quality 100.0 %
Test CRC FA0ABA57
Copy CRC FA0ABA57
Accurately ripped (confidence 8) [AFC02195] (AR v2)
Copy OK

Track 4

Filename E:\Torrents of Autumn\LaFave, Jimmy [2015] The Night Tribe\04. It's Not on Me.wav

Peak level 94.9 %
Extraction speed 6.1 X
Track quality 100.0 %
Test CRC 5BC6E7CA
Copy CRC 5BC6E7CA
Accurately ripped (confidence 8) [CBDF2BAC] (AR v2)
Copy OK

Track 5

Filename E:\Torrents of Autumn\LaFave, Jimmy [2015] The Night Tribe\05. Trying to Get Back to You.wav

Peak level 94.9 %
Extraction speed 6.3 X
Track quality 100.0 %
Test CRC 15DDBC10
Copy CRC 15DDBC10
Accurately ripped (confidence 7) [75136727] (AR v2)
Copy OK

Track 6

Filename E:\Torrents of Autumn\LaFave, Jimmy [2015] The Night Tribe\06. Talk to an Angel.wav

Peak level 94.9 %
Extraction speed 6.7 X
Track quality 100.0 %
Test CRC A506BE39
Copy CRC A506BE39
Accurately ripped (confidence 8) [B23FE2F2] (AR v2)
Copy OK

Track 7

Filename E:\Torrents of Autumn\LaFave, Jimmy [2015] The Night Tribe\07. Queen Jane Approximately.wav

Peak level 94.9 %
Extraction speed 6.7 X
Track quality 99.9 %
Test CRC A8C66954
Copy CRC A8C66954
Accurately ripped (confidence 7) [405F5DA4] (AR v2)
Copy OK

Track 8

Filename E:\Torrents of Autumn\LaFave, Jimmy [2015] The Night Tribe\08. Island.wav

Peak level 94.9 %
Extraction speed 7.1 X
Track quality 100.0 %
Test CRC 4C89DBFB
Copy CRC 4C89DBFB
Accurately ripped (confidence 8) [3E50E809] (AR v2)
Copy OK

Track 9

Filename E:\Torrents of Autumn\LaFave, Jimmy [2015] The Night Tribe\09. The Night Tribe.wav

Peak level 94.9 %
Extraction speed 6.5 X
Track quality 99.9 %
Test CRC C1DA41F1
Copy CRC C1DA41F1
Accurately ripped (confidence 8) [EAE8ACCC] (AR v2)
Copy OK

Track 10

Filename E:\Torrents of Autumn\LaFave, Jimmy [2015] The Night Tribe\10. Never Came Back to Memphis.wav

Peak level 94.9 %
Extraction speed 7.3 X
Track quality 100.0 %
Test CRC A9365CD4
Copy CRC A9365CD4
Accurately ripped (confidence 8) [B44FC692] (AR v2)
Copy OK

Track 11

Filename E:\Torrents of Autumn\LaFave, Jimmy [2015] The Night Tribe\11. Smile.wav

Peak level 94.9 %
Extraction speed 7.7 X
Track quality 100.0 %
Test CRC 65461284
Copy CRC 65461284
Accurately ripped (confidence 8) [85307B3E] (AR v2)
Copy OK

Track 12

Filename E:\Torrents of Autumn\LaFave, Jimmy [2015] The Night Tribe\12. Dust Bowl Okies.wav

Peak level 94.9 %
Extraction speed 8.1 X
Track quality 100.0 %
Test CRC E4263C4A
Copy CRC E4263C4A
Accurately ripped (confidence 7) [D381464D] (AR v2)
Copy OK

Track 13

Filename E:\Torrents of Autumn\LaFave, Jimmy [2015] The Night Tribe\13. The Roads of the Earth.wav

Peak level 94.9 %
Extraction speed 8.1 X
Track quality 100.0 %
Test CRC 4F41A4D2
Copy CRC 4F41A4D2
Accurately ripped (confidence 8) [31E628B7] (AR v2)
Copy OK


All tracks accurately ripped

No errors occurred

End of status report

–– CUETools DB Plugin V2.1.6

[CTDB TOCID: gDiAy9IFQzjC6aQQPBcV6YLPTLs-] found
Submit result: gDiAy9IFQzjC6aQQPBcV6YLPTLs- has been confirmed
Track | CTDB Status
1 | (18/18) Accurately ripped
2 | (18/18) Accurately ripped
3 | (18/18) Accurately ripped
4 | (18/18) Accurately ripped
5 | (18/18) Accurately ripped
6 | (18/18) Accurately ripped
7 | (18/18) Accurately ripped
8 | (18/18) Accurately ripped
9 | (18/18) Accurately ripped
10 | (18/18) Accurately ripped
11 | (18/18) Accurately ripped
12 | (18/18) Accurately ripped
13 | (18/18) Accurately ripped


==== Log checksum 5EC22A1749120EBA4FD7428C1234E672582D678C0829EB8A6F6D663D9FFAFF98 ====

[CUETools log; Date: 23.01.2019 18:15:00; Version: 2.1.6]
[CTDB TOCID: gDiAy9IFQzjC6aQQPBcV6YLPTLs-] found.
Track | CTDB Status
1 | (19/19) Accurately ripped
2 | (19/19) Accurately ripped
3 | (19/19) Accurately ripped
4 | (19/19) Accurately ripped
5 | (19/19) Accurately ripped
6 | (19/19) Accurately ripped
7 | (19/19) Accurately ripped
8 | (19/19) Accurately ripped
9 | (19/19) Accurately ripped
10 | (19/19) Accurately ripped
11 | (19/19) Accurately ripped
12 | (19/19) Accurately ripped
13 | (19/19) Accurately ripped
[AccurateRip ID: 001bf8c4-0112bd81-b60cf70d] found.
Track [ CRC | V2 ] Status
01 [cb33aa35|f67b8108] (0+8/8) Accurately ripped
02 [e6830e68|c60f7204] (0+8/8) Accurately ripped
03 [3128446c|afc02195] (0+8/8) Accurately ripped
04 [222d2a01|cbdf2bac] (0+8/8) Accurately ripped
05 [6a7ca397|75136727] (0+7/7) Accurately ripped
06 [9d9f68bb|b23fe2f2] (0+8/8) Accurately ripped
07 [1c1aaa64|405f5da4] (0+7/7) Accurately ripped
08 [6d2f05a2|3e50e809] (0+8/8) Accurately ripped
09 [9ccb4e6e|eae8accc] (0+8/8) Accurately ripped
10 [d991ea9b|b44fc692] (0+8/8) Accurately ripped
11 [e7c6c06f|85307b3e] (0+8/8) Accurately ripped
12 [5b888150|d381464d] (0+7/7) Accurately ripped
13 [0c78ad76|31e628b7] (0+8/8) Accurately ripped

Track Peak [ CRC32 ] [W/O NULL] [ LOG ]
– 94,9 [5AA3B4C2] [5FC68E64]
01 94,9 [0366C135] [41AF82D9] CRC32
02 94,9 [815A5E9C] [70103024] CRC32
03 94,9 [FA0ABA57] [931882AB] CRC32
04 94,9 [5BC6E7CA] [690643F5] CRC32
05 94,9 [15DDBC10] [A7627A0D] CRC32
06 94,9 [A506BE39] [DEA053CA] CRC32
07 94,9 [A8C66954] [1C72649F] CRC32
08 94,9 [4C89DBFB] [94A857D7] CRC32
09 94,9 [C1DA41F1] [E1B989D2] CRC32
10 94,9 [A9365CD4] [ECE88B1E] CRC32
11 94,9 [65461284] [22718DEE] CRC32
12 94,9 [E4263C4A] [D0D06346] CRC32
13 94,9 [4F41A4D2] [4DB29EFA] CRC32

Jimmy LaFave - The Night Tribe (2015)

All thanks go to DoobieBro

>>> My Blog <<<

Download from icerbox.com: