Subcategories

Jimmy Thackery - Extra Jimmies (2014)

Posted By: popsakov
Jimmy Thackery - Extra Jimmies (2014)

Jimmy Thackery - Extra Jimmies (2014)
EAC Rip | FLAC (Img) + Cue + Log ~ 476 Mb | MP3 CBR320 ~ 171 Mb
Scans Included | RAR 5% Recovery
Electric Blues, Blues Rock | Blind Pig Records #BPCD 8014

Jimmy Thackery created a distinctively raw, powerful guitar style and established a reputation as a spectacular soloist who is widely considered to be one of the finest guitar players of his generation. These newly re-mastered recordings chosen from three long out of print albums dating from 1992 to 1998 represent one of the most creative periods of his illustrious career.

***************

Jimmy Thackery - Extra Jimmies (2014)

Jimmy Thackery - Extra Jimmies (2014)

Track List:

01. Write If You Find Love [05:15]
02. You Upset Me Baby [06:02]
03. Rude Mood [04:37]
04. I Got To Be Strong [03:33]
05. Lickin' Gravy [06:02]
06. Take Me With You When You Go [03:34]
07. Love To Ride [04:39]
08. Trouble Man [05:19]
09. I Wouldn't Change A Thing [05:55]
10. Honey Hush [04:04]
11. Flying Low [04:25]
12. Empty Arms Motel [04:48]
13. Monkey [03:55]

Exact Audio Copy V1.0 beta 3 from 29. August 2011

Отчёт EAC об извлечении, выполненном 15. октября 2014, 3:45

Jimmy Thackery / Extra Jimmies

Дисковод: PLEXTOR DVDR PX-880SA Adapter: 1 ID: 0

Режим чтения : Достоверность
Использование точного потока : Да
Отключение кэша аудио : Да
Использование указателей C2 : Нет

Коррекция смещения при чтении : 6
Способность читать области Lead-in и Lead-out : Нет
Заполнение пропущенных сэмплов тишиной : Да
Удаление блоков с тишиной в начале и конце : Нет
При вычислениях CRC использовались нулевые сэмплы : Да
Интерфейс : Установленный внешний ASPI-интерфейс

Выходной формат : Пользовательский кодировщик
Выбранный битрейт : 1024 kBit/s
Качество : Высокий
Добавление ID3-тега : Нет
Утилита сжатия : C:\Program Files\Exact Audio Copy\FLAC\FLAC.EXE
Дополнительные параметры : -10 -V -T "ARTIST=%artist%" -T "ALBUM=%albumtitle%" -T "DATE=%year%" -T "GENRE=%genre%" -T "COMMENT=ripped by izia1956" %source%


TOC извлечённого CD

Трек | Старт | Длительность | Начальный сектор | Конечный сектор
––––––––––––––––––––––––––––––––––-
1 | 0:00.00 | 5:14.36 | 0 | 23585
2 | 5:14.36 | 6:01.57 | 23586 | 50717
3 | 11:16.18 | 4:36.70 | 50718 | 71487
4 | 15:53.13 | 3:32.24 | 71488 | 87411
5 | 19:25.37 | 6:01.25 | 87412 | 114511
6 | 25:26.62 | 3:33.13 | 114512 | 130499
7 | 29:00.00 | 4:38.05 | 130500 | 151354
8 | 33:38.05 | 5:18.32 | 151355 | 175236
9 | 38:56.37 | 5:54.58 | 175237 | 201844
10 | 44:51.20 | 4:03.55 | 201845 | 220124
11 | 48:55.00 | 4:24.09 | 220125 | 239933
12 | 53:19.09 | 4:47.21 | 239934 | 261479
13 | 58:06.30 | 3:54.13 | 261480 | 279042


Характеристики диапазона извлечения и сообщения об ошибках

Выбранный диапазон

Имя файла D:\BitComet\Jimmy Thackery (flac)\2014 - Extra Jimmies\Jimmy Thackery - Extra Jimmies.wav

Пиковый уровень 94.9 %
Скорость извлечения 3.1 X
Качество диапазона 100.0 %
CRC теста D8E27409
CRC копии D8E27409
Копирование… OK

Ошибок не произошло


AccurateRip: сводка

Трек 1 отсутствует в базе данных
Трек 2 отсутствует в базе данных
Трек 3 отсутствует в базе данных
Трек 4 отсутствует в базе данных
Трек 5 отсутствует в базе данных
Трек 6 отсутствует в базе данных
Трек 7 отсутствует в базе данных
Трек 8 отсутствует в базе данных
Трек 9 отсутствует в базе данных
Трек 10 отсутствует в базе данных
Трек 11 отсутствует в базе данных
Трек 12 отсутствует в базе данных
Трек 13 отсутствует в базе данных

Ни одного трека нет в базе AccurateRip

Конец отчёта

==== Контрольная сумма отчёта EFF5609554E570D2CD6EF2F4234D0F26856D05B806695EFE013AA7EFCFD164AA ====

[CUETools log; Date: 12.02.2019 0:08:41; Version: 2.1.6]
HDCD: peak extend: none, transient filter: none, gain: none
[CTDB TOCID: qR_ZSDPMj6bOhFvgW7vzwBRWcbQ-] found.
Track | CTDB Status
1 | (13/13) Accurately ripped
2 | (13/13) Accurately ripped
3 | (13/13) Accurately ripped
4 | (13/13) Accurately ripped
5 | (13/13) Accurately ripped
6 | (13/13) Accurately ripped
7 | (13/13) Accurately ripped
8 | (13/13) Accurately ripped
9 | (13/13) Accurately ripped
10 | (13/13) Accurately ripped
11 | (13/13) Accurately ripped
12 | (13/13) Accurately ripped
13 | (13/13) Accurately ripped
[AccurateRip ID: 001ea0c3-0130320f-bb0e880d] found.
Track [ CRC | V2 ] Status
01 [2bd46ba7|79901ac6] (0+8/8) Accurately ripped
02 [f72b215e|4045b593] (0+8/8) Accurately ripped
03 [9a1a025c|87e54576] (0+8/8) Accurately ripped
04 [7bf03c86|55bc8ac1] (0+8/8) Accurately ripped
05 [a95a8a11|9fa44d58] (0+8/8) Accurately ripped
06 [74a5b495|db90cce2] (0+8/8) Accurately ripped
07 [c4476588|4b218765] (0+8/8) Accurately ripped
08 [ec4f784f|9cf3528b] (0+8/8) Accurately ripped
09 [930f77a7|a99a1eb0] (0+8/8) Accurately ripped
10 [6e055ef8|d81eeeb2] (0+8/8) Accurately ripped
11 [0e70e7ff|0993f859] (0+7/7) Accurately ripped
12 [9205588c|402ee107] (0+7/7) Accurately ripped
13 [adef6cd0|d9f9fddc] (0+7/7) Accurately ripped

Track Peak [ CRC32 ] [W/O NULL] [ LOG ]
– 94,9 [D8E27409] [3B6B8617] CRC32
01 90,4 [F93C9414] [ECBA4A61]
02 90,3 [E8535899] [140C8FB9]
03 94,9 [5F0C3F2B] [41D7DBCC]
04 88,7 [BD8D4289] [BEE8972C]
05 90,3 [27518143] [74648F63]
06 83,2 [88AD99F6] [1EA61E26]
07 93,5 [59FF8FC7] [56769849]
08 86,8 [55C22F31] [22216D87]
09 86,3 [868C68DC] [577FA16E]
10 93,5 [C8E7FFAC] [6EF14B90]
11 89,0 [A9105C29] [CB354E6F]
12 90,4 [B9A5B0D2] [7775A828]
13 89,2 [636103D2] [FAA34248]

Jimmy Thackery - Extra Jimmies (2014)

All thanks go to izia1956

>>> Jimmy Thackery in my Blog <<<

Download from icerbox.com: