Subcategories

Jimmy Yancey - Complete Recorded Works in Chronological Order 1939-1950, Vol. 1-3 (1991) 3CDs

Posted By: Designol
Jimmy Yancey - Complete Recorded Works in Chronological Order 1939-1950, Vol. 1-3 (1991) 3CDs

Jimmy Yancey - Complete Recorded Works in Chronological Order 1939-1950, Vol. 1-3 (1991) 3CDs
EAC | FLAC | Tracks (Cue&Log) ~ 582 Mb | Mp3 (CBR320) ~ 500 Mb | Scans included
Boogie-Woogie, Piano Blues | Label: Document | # DOCD 5041-5043 | Time: 03:28:48

One of the seminal boogie-woogie pianists, Yancey was active in and around Chicago playing house parties and clubs from 1915, yet he remained unrecorded until May 1939, when he recorded "The Fives" and "Jimmy's Stuff" for a small label. Soon after, he became the first boogie-woogie pianist to record an album of solos, for Victor. By then, Yancey's work around Chicago had already influenced such younger and better-known pianists as Meade "Lux" Lewis, Pinetop Smith, and Albert Ammons.

Yancey played vaudeville as a tap dancer and singer from the age of six. He settled in Chicago in 1915, where he began composing songs and playing music at informal gatherings. In 1925, he became groundskeeper at Comiskey Park, home of the Chicago White Sox baseball team. Yancey was a musician's musician, remaining mostly unknown and unheard outside of Chicago until 1936, when Lewis recorded one of his tunes, "Yancey Special." Three years later, producer Dan Qualey became the first to record Yancey for his new Solo Art label. After the Victor recordings, Yancey went on to record for OKeh and Bluebird. In later years, Yancey performed with his wife, blues singer Estelle "Mama" Yancey; they appeared together at Carnegie Hall in 1948.

Yancey was not as technically flashy as some of his disciples, but he was an expressive, earthy player with a flexible left hand that introduced an air of unpredictability into his bass lines. His playing had a notable peculiarity: Although he wrote and performed compositions in a variety of keys, he ended every tune in E flat. He was also an undistinguished blues singer, accompanying himself on piano. Although Yancey attained a measure of fame for his music late in life, he never quit his day job, remaining with the White Sox until just before his death.

Chris Kelsey, Allmusic.com

Jimmy Yancey at Allmusic
Jimmy Yancey at Wiki



Jimmy Yancey - Complete Recorded Works in Chronological Order 1939-1950, Vol. 1-3 (1991) 3CDs

Jimmy Yancey - Complete Recorded Works in Chronological Order, Vol. 1: 1939-1940 (1991)
EAC | FLAC | Tracks (Cue&Log) ~ 203 Mb | Mp3 (CBR320) ~ 181 Mb
Label: Document | # DOCD 5041 | 01:14:39 | Scans included

The first of three Document CDs that reissue all of pianist Jimmy Yancey's recordings (other than his final Atlantic session) is filled with classic performances. Yancey, a subtle boogie-woogie/blues pianist who was a major influence and inspiration on the better-known players of the 1930s, is featured on his first two solo sessions, including "The Fives," "La Salle Street Breakdown," "South Side Stuff," "Yancey's Getaway," "Yancey Stomp," and "State Street Special." Highly recommended as are the two following volumes in this valuable Document series.

Scott Yanow, Allmusic.com

Tracklist:

01. Jimmy's Stuff (Jimmy's Stuff No. 2) (3:20)
02. The Fives (3:10)
03. La Salle Street Breakdown (3:11)
04. Two O'Clock Blues (3:02)
05. Janie's Joys (3:01)
06. Lean Bacon (3:11)
07. Big Bear Train (3:12)
08. Lucille's Lament (3:11)
09. Beezum Blues (3:21)
10. Yancey Limited (3:05)
11. Rolling the Stone (2:42)
12. Steady Rock Blues (3:00)
13. P.L.K. Special (3:09)
14. South Side Stuff (3:09)
15. Yancey's Getaway (3:09)
16. How Long Blues (3:04)
17. How Long Blues No. 2 (3:08)
18. Yancey Stomp (2:47)
19. State Street Special (2:41)
20. Tell 'Em About Me (2:45)
21. Five O'Clock Blues (2:41)
22. Slow and Easy Blues (2:35)
23. The Mellow Blues (2:41)
24. I Received a Letter (2:37)
25. East St. Louis Blues (2:48)


Exact Audio Copy V1.0 beta 3 from 29. August 2011

EAC extraction logfile from 14. October 2015, 23:59

Jimmy Yancey / Complete Recorded Works 1939-1950 Volume 1: May 1939 to February 1940

Used drive : PLEXTOR BDDVDR PX-B310U Adapter: 2 ID: 0

Read mode : Secure
Utilize accurate stream : Yes
Defeat audio cache : Yes
Make use of C2 pointers : No

Read offset correction : 6
Overread into Lead-In and Lead-Out : No
Fill up missing offset samples with silence : Yes
Delete leading and trailing silent blocks : No
Null samples used in CRC calculations : Yes
Used interface : Native Win32 interface for Win NT & 2000
Gap handling : Appended to previous track

Used output format : Internal WAV Routines
Sample format : 44.100 Hz; 16 Bit; Stereo


TOC of the extracted CD

Track | Start | Length | Start sector | End sector
––––––––––––––––––––––––––––-
1 | 0:00.00 | 3:20.00 | 0 | 14999
2 | 3:20.00 | 3:10.15 | 15000 | 29264
3 | 6:30.15 | 3:10.70 | 29265 | 43584
4 | 9:41.10 | 3:01.55 | 43585 | 57214
5 | 12:42.65 | 3:01.30 | 57215 | 70819
6 | 15:44.20 | 3:10.50 | 70820 | 85119
7 | 18:54.70 | 3:11.62 | 85120 | 99506
8 | 22:06.57 | 3:10.63 | 99507 | 113819
9 | 25:17.45 | 3:20.67 | 113820 | 128886
10 | 28:38.37 | 3:04.60 | 128887 | 142746
11 | 31:43.22 | 2:42.35 | 142747 | 154931
12 | 34:25.57 | 3:00.15 | 154932 | 168446
13 | 37:25.72 | 3:09.00 | 168447 | 182621
14 | 40:34.72 | 3:09.25 | 182622 | 196821
15 | 43:44.22 | 3:09.23 | 196822 | 211019
16 | 46:53.45 | 3:03.50 | 211020 | 224794
17 | 49:57.20 | 3:07.42 | 224795 | 238861
18 | 53:04.62 | 2:47.18 | 238862 | 251404
19 | 55:52.05 | 2:40.42 | 251405 | 263446
20 | 58:32.47 | 2:44.55 | 263447 | 275801
21 | 61:17.27 | 2:41.35 | 275802 | 287911
22 | 63:58.62 | 2:34.58 | 287912 | 299519
23 | 66:33.45 | 2:41.00 | 299520 | 311594
24 | 69:14.45 | 2:37.00 | 311595 | 323369
25 | 71:51.45 | 2:47.42 | 323370 | 335936


Track 1

Filename C:\Jimmy Yancey Complete Recorded Works, Vol. 1 (May 1939 to February 1940) (1991 Document DOCD-5041)\01 Jimmy's Stuff (Jimmy's Stuff No. 2).wav

Pre-gap length 0:00:02.00

Peak level 65.5 %
Extraction speed 4.7 X
Track quality 100.0 %
Test CRC 40A46449
Copy CRC 40A46449
Accurately ripped (confidence 1) [7FCE712E] (AR v2)
Copy OK

Track 2

Filename C:\Jimmy Yancey Complete Recorded Works, Vol. 1 (May 1939 to February 1940) (1991 Document DOCD-5041)\02 The Fives.wav

Pre-gap length 0:00:01.89

Peak level 68.7 %
Extraction speed 4.0 X
Track quality 99.9 %
Test CRC 3B604F5A
Copy CRC 3B604F5A
Accurately ripped (confidence 1) [9750E36F] (AR v2)
Copy OK

Track 3

Filename C:\Jimmy Yancey Complete Recorded Works, Vol. 1 (May 1939 to February 1940) (1991 Document DOCD-5041)\03 La Salle Street Breakdown.wav

Pre-gap length 0:00:01.97

Peak level 74.0 %
Extraction speed 5.4 X
Track quality 100.0 %
Test CRC 42B31028
Copy CRC 42B31028
Accurately ripped (confidence 1) [6A5E1E05] (AR v2)
Copy OK

Track 4

Filename C:\Jimmy Yancey Complete Recorded Works, Vol. 1 (May 1939 to February 1940) (1991 Document DOCD-5041)\04 Two O'Clock Blues.wav

Pre-gap length 0:00:01.82

Peak level 68.7 %
Extraction speed 5.7 X
Track quality 100.0 %
Test CRC D118F777
Copy CRC D118F777
Accurately ripped (confidence 1) [034D3167] (AR v2)
Copy OK

Track 5

Filename C:\Jimmy Yancey Complete Recorded Works, Vol. 1 (May 1939 to February 1940) (1991 Document DOCD-5041)\05 Janie's Joys.wav

Pre-gap length 0:00:01.94

Peak level 72.0 %
Extraction speed 5.9 X
Track quality 100.0 %
Test CRC 63DE049F
Copy CRC 63DE049F
Accurately ripped (confidence 1) [B9A2E45B] (AR v2)
Copy OK

Track 6

Filename C:\Jimmy Yancey Complete Recorded Works, Vol. 1 (May 1939 to February 1940) (1991 Document DOCD-5041)\06 Lean Bacon.wav

Pre-gap length 0:00:01.86

Peak level 67.7 %
Extraction speed 6.3 X
Track quality 100.0 %
Test CRC 2444E967
Copy CRC 2444E967
Accurately ripped (confidence 1) [6AFB0203] (AR v2)
Copy OK

Track 7

Filename C:\Jimmy Yancey Complete Recorded Works, Vol. 1 (May 1939 to February 1940) (1991 Document DOCD-5041)\07 Big bear Train.wav

Pre-gap length 0:00:01.86

Peak level 49.4 %
Extraction speed 6.6 X
Track quality 100.0 %
Test CRC 88D58893
Copy CRC 88D58893
Accurately ripped (confidence 1) [7DA55271] (AR v2)
Copy OK

Track 8

Filename C:\Jimmy Yancey Complete Recorded Works, Vol. 1 (May 1939 to February 1940) (1991 Document DOCD-5041)\08 Lucille's Lament.wav

Pre-gap length 0:00:02.32

Peak level 57.7 %
Extraction speed 6.8 X
Track quality 100.0 %
Test CRC 7977214D
Copy CRC 7977214D
Accurately ripped (confidence 1) [205340F4] (AR v2)
Copy OK

Track 9

Filename C:\Jimmy Yancey Complete Recorded Works, Vol. 1 (May 1939 to February 1940) (1991 Document DOCD-5041)\09 Beezum Blues.wav

Pre-gap length 0:00:01.46

Peak level 77.1 %
Extraction speed 7.1 X
Track quality 100.0 %
Test CRC 3A0C4DF6
Copy CRC 3A0C4DF6
Accurately ripped (confidence 1) [484A2B42] (AR v2)
Copy OK

Track 10

Filename C:\Jimmy Yancey Complete Recorded Works, Vol. 1 (May 1939 to February 1940) (1991 Document DOCD-5041)\10 Yancey Limited.wav

Pre-gap length 0:00:02.33

Peak level 87.5 %
Extraction speed 7.2 X
Track quality 100.0 %
Test CRC AAD6232A
Copy CRC AAD6232A
Accurately ripped (confidence 1) [A92B5DFF] (AR v2)
Copy OK

Track 11

Filename C:\Jimmy Yancey Complete Recorded Works, Vol. 1 (May 1939 to February 1940) (1991 Document DOCD-5041)\11 Rolling the Stone.wav

Pre-gap length 0:00:01.84

Peak level 93.1 %
Extraction speed 7.2 X
Track quality 100.0 %
Test CRC 6F4B84D0
Copy CRC 6F4B84D0
Accurately ripped (confidence 1) [C1AB0F28] (AR v2)
Copy OK

Track 12

Filename C:\Jimmy Yancey Complete Recorded Works, Vol. 1 (May 1939 to February 1940) (1991 Document DOCD-5041)\12 Steady Rock Blues.wav

Pre-gap length 0:00:01.89

Peak level 75.8 %
Extraction speed 7.5 X
Track quality 100.0 %
Test CRC 9EB93270
Copy CRC 9EB93270
Accurately ripped (confidence 1) [B8BA98F9] (AR v2)
Copy OK

Track 13

Filename C:\Jimmy Yancey Complete Recorded Works, Vol. 1 (May 1939 to February 1940) (1991 Document DOCD-5041)\13 P.L.K. Special.wav

Pre-gap length 0:00:01.65

Peak level 50.6 %
Extraction speed 7.8 X
Track quality 100.0 %
Test CRC 15F91F6D
Copy CRC 15F91F6D
Accurately ripped (confidence 1) [6FD9BC8C] (AR v2)
Copy OK

Track 14

Filename C:\Jimmy Yancey Complete Recorded Works, Vol. 1 (May 1939 to February 1940) (1991 Document DOCD-5041)\14 South Side Stuff.wav

Pre-gap length 0:00:01.72

Peak level 77.9 %
Extraction speed 8.0 X
Track quality 100.0 %
Test CRC 003914AE
Copy CRC 003914AE
Accurately ripped (confidence 1) [7FC1C78E] (AR v2)
Copy OK

Track 15

Filename C:\Jimmy Yancey Complete Recorded Works, Vol. 1 (May 1939 to February 1940) (1991 Document DOCD-5041)\15 Yancey's Getaway.wav

Pre-gap length 0:00:01.42

Peak level 73.7 %
Extraction speed 8.2 X
Track quality 100.0 %
Test CRC F0DA0DD4
Copy CRC F0DA0DD4
Accurately ripped (confidence 1) [7D3795B3] (AR v2)
Copy OK

Track 16

Filename C:\Jimmy Yancey Complete Recorded Works, Vol. 1 (May 1939 to February 1940) (1991 Document DOCD-5041)\16 How Long Blues.wav

Pre-gap length 0:00:01.78

Peak level 63.4 %
Extraction speed 8.4 X
Track quality 100.0 %
Test CRC 1250CFF7
Copy CRC 1250CFF7
Accurately ripped (confidence 1) [22029379] (AR v2)
Copy OK

Track 17

Filename C:\Jimmy Yancey Complete Recorded Works, Vol. 1 (May 1939 to February 1940) (1991 Document DOCD-5041)\17 How Long Blues No. 2.wav

Pre-gap length 0:00:01.56

Peak level 74.8 %
Extraction speed 6.5 X
Track quality 99.9 %
Test CRC 6134C138
Copy CRC 6134C138
Accurately ripped (confidence 1) [03B9282F] (AR v2)
Copy OK

Track 18

Filename C:\Jimmy Yancey Complete Recorded Works, Vol. 1 (May 1939 to February 1940) (1991 Document DOCD-5041)\18 Yancey Stomp.wav

Pre-gap length 0:00:01.73

Peak level 99.9 %
Extraction speed 8.6 X
Track quality 100.0 %
Test CRC D2FF217F
Copy CRC D2FF217F
Accurately ripped (confidence 1) [A0EE4110] (AR v2)
Copy OK

Track 19

Filename C:\Jimmy Yancey Complete Recorded Works, Vol. 1 (May 1939 to February 1940) (1991 Document DOCD-5041)\19 State Street Special.wav

Pre-gap length 0:00:02.06

Peak level 85.4 %
Extraction speed 8.6 X
Track quality 100.0 %
Test CRC BAF6768E
Copy CRC BAF6768E
Accurately ripped (confidence 1) [16A2DEB7] (AR v2)
Copy OK

Track 20

Filename C:\Jimmy Yancey Complete Recorded Works, Vol. 1 (May 1939 to February 1940) (1991 Document DOCD-5041)\20 Tell 'Em About Me.wav

Pre-gap length 0:00:02.45

Peak level 98.1 %
Extraction speed 8.9 X
Track quality 100.0 %
Test CRC 4754DA84
Copy CRC 4754DA84
Accurately ripped (confidence 1) [0D3EA28F] (AR v2)
Copy OK

Track 21

Filename C:\Jimmy Yancey Complete Recorded Works, Vol. 1 (May 1939 to February 1940) (1991 Document DOCD-5041)\21 Five O'Clock Blues.wav

Pre-gap length 0:00:02.18

Peak level 71.7 %
Extraction speed 8.9 X
Track quality 100.0 %
Test CRC AF80FB5C
Copy CRC AF80FB5C
Accurately ripped (confidence 1) [EC23B568] (AR v2)
Copy OK

Track 22

Filename C:\Jimmy Yancey Complete Recorded Works, Vol. 1 (May 1939 to February 1940) (1991 Document DOCD-5041)\22 Slow and Easy Blues.wav

Pre-gap length 0:00:02.22

Peak level 87.2 %
Extraction speed 8.9 X
Track quality 100.0 %
Test CRC F932C5D4
Copy CRC F932C5D4
Accurately ripped (confidence 1) [680F58FC] (AR v2)
Copy OK

Track 23

Filename C:\Jimmy Yancey Complete Recorded Works, Vol. 1 (May 1939 to February 1940) (1991 Document DOCD-5041)\23 The Mellow Blues.wav

Pre-gap length 0:00:02.09

Peak level 76.3 %
Extraction speed 6.8 X
Track quality 99.9 %
Test CRC 3D666591
Copy CRC 3D666591
Accurately ripped (confidence 1) [2D089CE4] (AR v2)
Copy OK

Track 24

Filename C:\Jimmy Yancey Complete Recorded Works, Vol. 1 (May 1939 to February 1940) (1991 Document DOCD-5041)\24 I Received a Letter.wav

Pre-gap length 0:00:01.72

Peak level 62.2 %
Extraction speed 6.8 X
Track quality 99.9 %
Test CRC 2CA34F5B
Copy CRC 2CA34F5B
Accurately ripped (confidence 1) [45948DE0] (AR v2)
Copy OK

Track 25

Filename C:\Jimmy Yancey Complete Recorded Works, Vol. 1 (May 1939 to February 1940) (1991 Document DOCD-5041)\25 East St. Louis Blues.wav

Pre-gap length 0:00:01.80

Peak level 66.2 %
Extraction speed 9.3 X
Track quality 100.0 %
Test CRC E6AA49AA
Copy CRC E6AA49AA
Accurately ripped (confidence 1) [8F8B5FE1] (AR v2)
Copy OK


All tracks accurately ripped

No errors occurred

End of status report

==== Log checksum FEF23E891E5A7A87466ED1061805CAB493620810C6355915E9DADDC3019F9247 ====

[CUETools log; Date: 17.11.2018 22:44:20; Version: 2.1.4]
[CTDB TOCID: T.PwCKe29hGv_8Amkt0FYJmtJS4-] found.
Track | CTDB Status
1 | (4/4) Accurately ripped
2 | (4/4) Accurately ripped
3 | (4/4) Accurately ripped
4 | (4/4) Accurately ripped
5 | (4/4) Accurately ripped
6 | (4/4) Accurately ripped
7 | (4/4) Accurately ripped
8 | (4/4) Accurately ripped
9 | (4/4) Accurately ripped
10 | (4/4) Accurately ripped
11 | (3/4) Accurately ripped, or (1/4) differs in 12 samples @00:07:52
12 | (4/4) Accurately ripped
13 | (4/4) Accurately ripped
14 | (4/4) Accurately ripped
15 | (4/4) Accurately ripped
16 | (4/4) Accurately ripped
17 | (4/4) Accurately ripped
18 | (3/4) Accurately ripped, or (1/4) differs in 12 samples @00:31:16
19 | (4/4) Accurately ripped
20 | (4/4) Accurately ripped
21 | (4/4) Accurately ripped
22 | (4/4) Accurately ripped
23 | (4/4) Accurately ripped
24 | (4/4) Accurately ripped
25 | (3/4) Accurately ripped
[AccurateRip ID: 0044dac6-04cf4047-80117f19] found.
Track [ CRC | V2 ] Status
01 [c43e1076|7fce712e] (0+1/4) Accurately ripped
02 [5474c1e7|9750e36f] (0+1/4) Accurately ripped
03 [ac1435c7|6a5e1e05] (0+1/4) Accurately ripped
04 [550f59a9|034d3167] (0+1/4) Accurately ripped
05 [5fb5d7f8|b9a2e45b] (0+1/4) Accurately ripped
06 [101c79bf|6afb0203] (0+1/4) Accurately ripped
07 [c215f3f4|7da55271] (0+1/4) Accurately ripped
08 [25d21621|205340f4] (0+1/4) Accurately ripped
09 [966baaf6|484a2b42] (0+1/4) Accurately ripped
10 [9e3b2292|a92b5dff] (0+1/4) Accurately ripped
11 [e5784b6a|c1ab0f28] (0+1/4) Accurately ripped
12 [a9ec7aec|b8ba98f9] (0+1/4) Accurately ripped
13 [494c9d99|6fd9bc8c] (0+1/4) Accurately ripped
14 [d2b83ce0|7fc1c78e] (0+1/4) Accurately ripped
15 [55f55512|7d3795b3] (0+1/4) Accurately ripped
16 [6bf5f1d9|22029379] (0+1/4) Accurately ripped
17 [a6fc95b6|03b9282f] (0+1/4) Accurately ripped
18 [58600dcb|a0ee4110] (0+1/4) Accurately ripped
19 [d89f84da|16a2deb7] (0+1/4) Accurately ripped
20 [83794238|0d3ea28f] (0+1/4) Accurately ripped
21 [31229b86|ec23b568] (0+1/4) Accurately ripped
22 [26d4d651|680f58fc] (0+1/4) Accurately ripped
23 [de4fb13e|2d089ce4] (0+1/4) Accurately ripped
24 [c2f2b29e|45948de0] (0+1/4) Accurately ripped
25 [2f7f675b|8f8b5fe1] (0+1/4) Accurately ripped
Offsetted by -96:
01 [221a669e] (1/4) Accurately ripped
02 [979bd933] (1/4) Accurately ripped
03 [11b511d2] (1/4) Accurately ripped
04 [596349ef] (1/4) Accurately ripped
05 [fe01bcaf] (1/4) Accurately ripped
06 [a77e7a57] (1/4) Accurately ripped
07 [47d8d53f] (1/4) Accurately ripped
08 [64ae757b] (1/4) Accurately ripped
09 [96ecada1] (1/4) Accurately ripped
10 [54dfcb13] (1/4) Accurately ripped
11 [61ba5bfd] (1/4) Accurately ripped
12 [feb3c733] (1/4) Accurately ripped
13 [da41cebc] (1/4) Accurately ripped
14 [5a366176] (1/4) Accurately ripped
15 [87949883] (1/4) Accurately ripped
16 [db671314] (1/4) Accurately ripped
17 [6d8cdec2] (1/4) Accurately ripped
18 [df39c306] (1/4) Accurately ripped
19 [48824ff4] (1/4) Accurately ripped
20 [c170259b] (1/4) Accurately ripped
21 [d3c21f9e] (1/4) Accurately ripped
22 [66182e6b] (1/4) Accurately ripped
23 [dd1cfad3] (1/4) Accurately ripped
24 [575ab913] (1/4) Accurately ripped
25 [d319f1cf] (1/4) Accurately ripped

Track Peak [ CRC32 ] [W/O NULL] [ LOG ]
– 99,9 [59C399EE] [FAD1862C]
01 65,5 [40A46449] [1B2F0A8E] CRC32
02 68,7 [3B604F5A] [7EAAC120] CRC32
03 74,0 [42B31028] [236A81F6] CRC32
04 68,7 [D118F777] [B60DE7E9] CRC32
05 72,0 [63DE049F] [923DD509] CRC32
06 67,7 [2444E967] [90774E70] CRC32
07 49,4 [88D58893] [0B708125] CRC32
08 57,7 [7977214D] [F3D56C30] CRC32
09 77,1 [3A0C4DF6] [9D85FF3D] CRC32
10 87,5 [AAD6232A] [15330F76] CRC32
11 93,1 [6F4B84D0] [A0C2E036] CRC32
12 75,8 [9EB93270] [6494BAFB] CRC32
13 50,6 [15F91F6D] [D2D19266] CRC32
14 77,9 [003914AE] [B2907653] CRC32
15 73,7 [F0DA0DD4] [3F46A1A1] CRC32
16 63,4 [1250CFF7] [EDA05729] CRC32
17 74,8 [6134C138] [D0387D75] CRC32
18 99,9 [D2FF217F] [36F68874] CRC32
19 85,4 [BAF6768E] [10C88F2B] CRC32
20 98,1 [4754DA84] [64E1B6F7] CRC32
21 71,7 [AF80FB5C] [051477B8] CRC32
22 87,2 [F932C5D4] [BE1890F2] CRC32
23 76,3 [3D666591] [1E448DF9] CRC32
24 62,2 [2CA34F5B] [8C0FD7C7] CRC32
25 66,2 [E6AA49AA] [FFAE7056] CRC32

foobar2000 1.2 / Dynamic Range Meter 1.1.1
log date: 2018-11-18 00:21:31

––––––––––––––––––––––––––––––––––––––––
Analyzed: Jimmy Yancey / Complete Recorded Works, Vol. 1 (May 1939 to February 1940)
––––––––––––––––––––––––––––––––––––––––

DR Peak RMS Duration Track
––––––––––––––––––––––––––––––––––––––––
DR12 -3.66 dB -19.78 dB 3:20 01-Jimmy's Stuff (Jimmy's Stuff No. 2)
DR11 -3.25 dB -17.67 dB 3:10 02-The Fives
DR11 -2.61 dB -15.22 dB 3:11 03-La Salle Street Breakdown
DR13 -3.26 dB -20.02 dB 3:02 04-Two O'Clock Blues
DR10 -2.85 dB -16.18 dB 3:01 05-Janie's Joys
DR11 -3.38 dB -17.42 dB 3:11 06-Lean Bacon
DR12 -6.11 dB -19.80 dB 3:12 07-Big Bear Train
DR10 -4.77 dB -17.72 dB 3:11 08-Lucille's Lament
DR11 -2.25 dB -15.74 dB 3:21 09-Beezum Blues
DR11 -1.15 dB -14.25 dB 3:05 10-Yancey Limited
DR11 -0.61 dB -17.11 dB 2:42 11-Rolling the Stone
DR12 -2.40 dB -16.29 dB 3:00 12-Steady Rock Blues
DR10 -5.91 dB -18.13 dB 3:09 13-P.L.K. Special
DR12 -2.16 dB -16.47 dB 3:09 14-South Side Stuff
DR10 -2.64 dB -16.17 dB 3:09 15-Yancey's Getaway
DR11 -3.95 dB -17.57 dB 3:04 16-How Long Blues
DR10 -2.52 dB -16.26 dB 3:08 17-How Long Blues No. 2
DR13 -0.01 dB -16.99 dB 2:47 18-Yancey Stomp
DR14 -1.37 dB -18.12 dB 2:41 19-State Street Special
DR15 -0.16 dB -18.01 dB 2:45 20-Tell 'Em About Me
DR14 -2.89 dB -19.65 dB 2:41 21-Five O'Clock Blues
DR16 -1.19 dB -20.01 dB 2:35 22-Slow and Easy Blues
DR13 -2.35 dB -20.33 dB 2:41 23-The Mellow Blues
DR13 -4.11 dB -20.67 dB 2:37 24-I Received a Letter
DR13 -3.58 dB -19.79 dB 2:48 25-East St. Louis Blues
––––––––––––––––––––––––––––––––––––––––

Number of tracks: 25
Official DR value: DR12

Samplerate: 44100 Hz
Channels: 2
Bits per sample: 16
Bitrate: 354 kbps
Codec: FLAC
================================================================================




Jimmy Yancey - Complete Recorded Works in Chronological Order 1939-1950, Vol. 1-3 (1991) 3CDs

Jimmy Yancey - Complete Recorded Works in Chronological Order, Vol. 2: 1940-1943 (1991)
EAC | FLAC | Tracks (Cue&Log) ~ 192 Mb | Mp3 (CBR320) ~ 154 Mb
Label: Document | # DOCD 5042 | 01:04:41 | Scans included

On the second of three CDs that trace virtually his entire recording career, pianist Jimmy Yancey is showcased on a variety of solo tracks. Two numbers from February 1940 are highlighted by the classic "Bear Trap Blues." There are a couple of numbers made for the tiny Art Center Jazz Gems label, a four-song (plus two alternate takes) definitive set cut for Bluebird (which includes "Death Letter Blues" and "Yancey's Bugle Call"), and nine songs (five previously unissued) from 1943; on one version of "How Long Blues," Mama Yancey sings while Jimmy switches to the spooky-sounding harmonium. This set also has Jimmy Yancey's only four recorded vocals, which are quite effective even though his voice is limited. All three volumes in this series are highly recommended collections of music by this subtle pianist, who made expert use of space and ended every tune in E flat.

Scott Yanow, Allmusic.com

Tracklist:

01. Bear Trap Blues (2:48)
02. Old Quaker Blues (2:38)
03. 35th and Dearborn (3:26)
04. I Love to Hear My Baby Call My Name (4:23)
05. Cryin' in My Sleep (2:58)
06. Death Letter Blues (2:56)
07. Yancey's Bugle Call [take 1] (2:43)
08. Yancey's Bugle Call [take 2] (2:45)
09. 35th and Dearborn [Take 1] (2:43)
10. 35th and Dearborn [Take 2] (2:51)
11. Boodlin' (3:07)
12. Yancey's Mixture (4:03)
13. Death Letter Blues (4:33)
14. Sweet Patootie (3:23)
15. How Long Blues (4:33)
16. How Long Blues [alternate take] (4:00)
17. The Rocks (3:14)
18. Jimmy's Rocks (3:07)
19. How Long Blues [Mama Yancey, vocals] (4:30)


Exact Audio Copy V1.0 beta 3 from 29. August 2011

EAC extraction logfile from 17. December 2015, 15:18

Jimmy Yancey / Complete Recorded Works 1939-1950 Volume 1 - February 1940 ~ December 1943

Used drive : PLEXTOR BDDVDR PX-B310U Adapter: 2 ID: 0

Read mode : Secure
Utilize accurate stream : Yes
Defeat audio cache : Yes
Make use of C2 pointers : No

Read offset correction : 6
Overread into Lead-In and Lead-Out : No
Fill up missing offset samples with silence : Yes
Delete leading and trailing silent blocks : No
Null samples used in CRC calculations : Yes
Used interface : Native Win32 interface for Win NT & 2000
Gap handling : Appended to previous track

Used output format : Internal WAV Routines
Sample format : 44.100 Hz; 16 Bit; Stereo


TOC of the extracted CD

Track | Start | Length | Start sector | End sector
––––––––––––––––––––––––––––-
1 | 0:00.00 | 2:48.35 | 0 | 12634
2 | 2:48.35 | 2:38.37 | 12635 | 24521
3 | 5:26.72 | 3:26.33 | 24522 | 40004
4 | 8:53.30 | 4:22.60 | 40005 | 59714
5 | 13:16.15 | 2:57.72 | 59715 | 73061
6 | 16:14.12 | 2:56.30 | 73062 | 86291
7 | 19:10.42 | 2:42.45 | 86292 | 98486
8 | 21:53.12 | 2:44.45 | 98487 | 110831
9 | 24:37.57 | 2:42.38 | 110832 | 123019
10 | 27:20.20 | 2:51.27 | 123020 | 135871
11 | 30:11.47 | 3:07.05 | 135872 | 149901
12 | 33:18.52 | 4:03.08 | 149902 | 168134
13 | 37:21.60 | 4:33.22 | 168135 | 188631
14 | 41:55.07 | 3:22.55 | 188632 | 203836
15 | 45:17.62 | 4:32.68 | 203837 | 224304
16 | 49:50.55 | 4:00.20 | 224305 | 242324
17 | 53:51.00 | 3:13.60 | 242325 | 256859
18 | 57:04.60 | 3:07.02 | 256860 | 270886
19 | 60:11.62 | 4:29.40 | 270887 | 291101


Track 1

Filename C:\Jimmy Yancey Complete Recorded Works, Vol. 2 (1940-1943) (2011 Reissue Document DOCD-5042)\01 Bear Trap Blues.wav

Pre-gap length 0:00:02.00

Peak level 64.4 %
Extraction speed 4.5 X
Track quality 100.0 %
Test CRC 08D2A2A7
Copy CRC 08D2A2A7
Accurately ripped (confidence 1) [6B43A298] (AR v2)
Copy OK

Track 2

Filename C:\Jimmy Yancey Complete Recorded Works, Vol. 2 (1940-1943) (2011 Reissue Document DOCD-5042)\02 Old Quaker Blues.wav

Peak level 71.1 %
Extraction speed 4.8 X
Track quality 100.0 %
Test CRC AA610B65
Copy CRC AA610B65
Accurately ripped (confidence 1) [F0B8F68A] (AR v2)
Copy OK

Track 3

Filename C:\Jimmy Yancey Complete Recorded Works, Vol. 2 (1940-1943) (2011 Reissue Document DOCD-5042)\03 35th And Dearborn.wav

Peak level 52.7 %
Extraction speed 5.2 X
Track quality 100.0 %
Test CRC 769EECBB
Copy CRC 769EECBB
Accurately ripped (confidence 1) [8E49FCC3] (AR v2)
Copy OK

Track 4

Filename C:\Jimmy Yancey Complete Recorded Works, Vol. 2 (1940-1943) (2011 Reissue Document DOCD-5042)\04 I Love To Hear My Baby Call My Name.wav

Peak level 57.7 %
Extraction speed 5.8 X
Track quality 100.0 %
Test CRC 6D74BC37
Copy CRC 6D74BC37
Accurately ripped (confidence 1) [41EAEF7B] (AR v2)
Copy OK

Track 5

Filename C:\Jimmy Yancey Complete Recorded Works, Vol. 2 (1940-1943) (2011 Reissue Document DOCD-5042)\05 Cryin' In My Sleep.wav

Peak level 99.9 %
Extraction speed 4.5 X
Track quality 99.9 %
Test CRC BA8CF112
Copy CRC BA8CF112
Accurately ripped (confidence 1) [A857A962] (AR v2)
Copy OK

Track 6

Filename C:\Jimmy Yancey Complete Recorded Works, Vol. 2 (1940-1943) (2011 Reissue Document DOCD-5042)\06 Death Letter Blues.wav

Peak level 91.2 %
Extraction speed 6.1 X
Track quality 100.0 %
Test CRC 3A1AB4C9
Copy CRC 3A1AB4C9
Accurately ripped (confidence 1) [E79D48FC] (AR v2)
Copy OK

Track 7

Filename C:\Jimmy Yancey Complete Recorded Works, Vol. 2 (1940-1943) (2011 Reissue Document DOCD-5042)\07 Yancey's Bugle Call (Take 1).wav

Peak level 85.7 %
Extraction speed 6.2 X
Track quality 100.0 %
Test CRC 3D388FB0
Copy CRC 3D388FB0
Accurately ripped (confidence 1) [E796BE0D] (AR v2)
Copy OK

Track 8

Filename C:\Jimmy Yancey Complete Recorded Works, Vol. 2 (1940-1943) (2011 Reissue Document DOCD-5042)\08 Yancey's Bugle Call (Take 2).wav

Peak level 61.6 %
Extraction speed 6.4 X
Track quality 100.0 %
Test CRC B9370C5A
Copy CRC B9370C5A
Accurately ripped (confidence 1) [24B1F0D8] (AR v2)
Copy OK

Track 9

Filename C:\Jimmy Yancey Complete Recorded Works, Vol. 2 (1940-1943) (2011 Reissue Document DOCD-5042)\09 35th And Dearborn (Take 1).wav

Peak level 58.0 %
Extraction speed 6.5 X
Track quality 100.0 %
Test CRC A5ABBE98
Copy CRC A5ABBE98
Accurately ripped (confidence 1) [E1A0D52E] (AR v2)
Copy OK

Track 10

Filename C:\Jimmy Yancey Complete Recorded Works, Vol. 2 (1940-1943) (2011 Reissue Document DOCD-5042)\10 35th And Dearborn (Take 2).wav

Peak level 46.2 %
Extraction speed 6.9 X
Track quality 100.0 %
Test CRC FEAC0F1D
Copy CRC FEAC0F1D
Accurately ripped (confidence 1) [0E832090] (AR v2)
Copy OK

Track 11

Filename C:\Jimmy Yancey Complete Recorded Works, Vol. 2 (1940-1943) (2011 Reissue Document DOCD-5042)\11 Boodlin'.wav

Peak level 53.8 %
Extraction speed 7.2 X
Track quality 100.0 %
Test CRC 0865796A
Copy CRC 0865796A
Accurately ripped (confidence 1) [72D09398] (AR v2)
Copy OK

Track 12

Filename C:\Jimmy Yancey Complete Recorded Works, Vol. 2 (1940-1943) (2011 Reissue Document DOCD-5042)\12 Yancey's Mixture.wav

Peak level 79.9 %
Extraction speed 7.7 X
Track quality 100.0 %
Test CRC EBF27CB3
Copy CRC EBF27CB3
Accurately ripped (confidence 1) [0B27A773] (AR v2)
Copy OK

Track 13

Filename C:\Jimmy Yancey Complete Recorded Works, Vol. 2 (1940-1943) (2011 Reissue Document DOCD-5042)\13 Death letter Blues.wav

Peak level 80.8 %
Extraction speed 8.0 X
Track quality 100.0 %
Test CRC 6A5F1FE7
Copy CRC 6A5F1FE7
Accurately ripped (confidence 1) [024EBE7A] (AR v2)
Copy OK

Track 14

Filename C:\Jimmy Yancey Complete Recorded Works, Vol. 2 (1940-1943) (2011 Reissue Document DOCD-5042)\14 Sweet Patootie.wav

Peak level 48.3 %
Extraction speed 7.9 X
Track quality 100.0 %
Test CRC 3FF793A3
Copy CRC 3FF793A3
Accurately ripped (confidence 1) [012CABEF] (AR v2)
Copy OK

Track 15

Filename C:\Jimmy Yancey Complete Recorded Works, Vol. 2 (1940-1943) (2011 Reissue Document DOCD-5042)\15 How Long Blues.wav

Peak level 42.8 %
Extraction speed 7.0 X
Track quality 99.9 %
Test CRC B194C14A
Copy CRC B194C14A
Accurately ripped (confidence 1) [24AC3AF9] (AR v2)
Copy OK

Track 16

Filename C:\Jimmy Yancey Complete Recorded Works, Vol. 2 (1940-1943) (2011 Reissue Document DOCD-5042)\16 How Long Blues (Alternate take).wav

Peak level 56.4 %
Extraction speed 8.5 X
Track quality 100.0 %
Test CRC EB24B884
Copy CRC EB24B884
Accurately ripped (confidence 1) [D9787262] (AR v2)
Copy OK

Track 17

Filename C:\Jimmy Yancey Complete Recorded Works, Vol. 2 (1940-1943) (2011 Reissue Document DOCD-5042)\17 The Rocks.wav

Peak level 60.9 %
Extraction speed 8.5 X
Track quality 100.0 %
Test CRC 8D8D4770
Copy CRC 8D8D4770
Accurately ripped (confidence 1) [59DEF986] (AR v2)
Copy OK

Track 18

Filename C:\Jimmy Yancey Complete Recorded Works, Vol. 2 (1940-1943) (2011 Reissue Document DOCD-5042)\18 Jimmy's Rocks.wav

Peak level 59.5 %
Extraction speed 8.5 X
Track quality 100.0 %
Test CRC 748BB11D
Copy CRC 748BB11D
Accurately ripped (confidence 1) [8B72901D] (AR v2)
Copy OK

Track 19

Filename C:\Jimmy Yancey Complete Recorded Works, Vol. 2 (1940-1943) (2011 Reissue Document DOCD-5042)\19 How Long Blues (Mama Yancey, vcl).wav

Peak level 58.1 %
Extraction speed 9.2 X
Track quality 100.0 %
Test CRC 2012E603
Copy CRC 2012E603
Cannot be verified as accurate (confidence 1) [6219923C], AccurateRip returned [DF68B7E1] (AR v2)
Copy OK


18 track(s) accurately ripped
1 track(s) could not be verified as accurate

Some tracks could not be verified as accurate

No errors occurred

End of status report

==== Log checksum 34856B8E373B854838D37C54236C5D4476C98B5A5D97C60F318F82C8E8341B7A ====

[CUETools log; Date: 17.11.2018 22:44:42; Version: 2.1.4]
[CTDB TOCID: mPdDJNZh7poDMrsMRkq8824BdC0-] found.
Track | CTDB Status
1 | (4/4) Accurately ripped
2 | (4/4) Accurately ripped
3 | (4/4) Accurately ripped
4 | (4/4) Accurately ripped
5 | (4/4) Accurately ripped
6 | (4/4) Accurately ripped
7 | (4/4) Accurately ripped
8 | (4/4) Accurately ripped
9 | (4/4) Accurately ripped
10 | (4/4) Accurately ripped
11 | (4/4) Accurately ripped
12 | (4/4) Accurately ripped
13 | (4/4) Accurately ripped
14 | (4/4) Accurately ripped
15 | (4/4) Accurately ripped
16 | (4/4) Accurately ripped
17 | (4/4) Accurately ripped
18 | (4/4) Accurately ripped
19 | (3/4) Accurately ripped
[AccurateRip ID: 002a1eeb-02548618-010f2913] found.
Track [ CRC | V2 ] Status
01 [8de9c5f6|6b43a298] (0+1/2) Accurately ripped
02 [6a39ba8e|f0b8f68a] (0+1/2) Accurately ripped
03 [5afb3cd9|8e49fcc3] (0+1/2) Accurately ripped
04 [7ce76b76|41eaef7b] (0+1/2) Accurately ripped
05 [725be789|a857a962] (0+1/2) Accurately ripped
06 [56a9f64b|e79d48fc] (0+1/2) Accurately ripped
07 [2849de5c|e796be0d] (0+1/2) Accurately ripped
08 [df453fe9|24b1f0d8] (0+1/2) Accurately ripped
09 [6dfc7da5|e1a0d52e] (0+1/2) Accurately ripped
10 [14ac4722|0e832090] (0+1/2) Accurately ripped
11 [0b81fe7a|72d09398] (0+1/2) Accurately ripped
12 [0ddf3478|0b27a773] (0+1/2) Accurately ripped
13 [8cea4129|024ebe7a] (0+1/2) Accurately ripped
14 [a1bef632|012cabef] (0+1/2) Accurately ripped
15 [2854d0c3|24ac3af9] (0+1/2) Accurately ripped
16 [40b4e202|d9787262] (0+1/2) Accurately ripped
17 [25d42299|59def986] (0+1/2) Accurately ripped
18 [d9974cbb|8b72901d] (0+1/2) Accurately ripped
19 [906c9c70|6219923c] (0+0/2) No match
Offsetted by 36:
01 [75ad959d] (1/2) Accurately ripped
02 [01dbcaaa] (1/2) Accurately ripped
03 [75722819] (1/2) Accurately ripped
04 [4a647bff] (1/2) Accurately ripped
05 [417cc8fc] (1/2) Accurately ripped
06 [41c1de32] (1/2) Accurately ripped
07 [23855696] (1/2) Accurately ripped
08 [01a946b9] (1/2) Accurately ripped
09 [12c6fa1d] (1/2) Accurately ripped
10 [e910e918] (1/2) Accurately ripped
11 [5ea0b1b7] (1/2) Accurately ripped
12 [ce77807a] (1/2) Accurately ripped
13 [6984569a] (1/2) Accurately ripped
14 [80bcec8a] (1/2) Accurately ripped
15 [aa901e61] (1/2) Accurately ripped
16 [6ab546c1] (1/2) Accurately ripped
17 [4f2dbac8] (1/2) Accurately ripped
18 [1ad1d203] (1/2) Accurately ripped
19 [df68b7e1] (1/2) Accurately ripped

Track Peak [ CRC32 ] [W/O NULL] [ LOG ]
– 99,9 [14576C83] [CB5A43FE]
01 64,4 [08D2A2A7] [18E57425] CRC32
02 71,1 [AA610B65] [115DAA95] CRC32
03 52,7 [769EECBB] [02A3859A] CRC32
04 57,7 [6D74BC37] [5DC7E117] CRC32
05 99,9 [BA8CF112] [292F54E5] CRC32
06 91,2 [3A1AB4C9] [8C2658A9] CRC32
07 85,7 [3D388FB0] [E9ACBDA9] CRC32
08 61,6 [B9370C5A] [87181C12] CRC32
09 58,0 [A5ABBE98] [A8D01417] CRC32
10 46,2 [FEAC0F1D] [F55AE963] CRC32
11 53,8 [0865796A] [2F1FC7F9] CRC32
12 79,9 [EBF27CB3] [AE8C9C2B] CRC32
13 80,8 [6A5F1FE7] [77E40864] CRC32
14 48,3 [3FF793A3] [8B41AA86] CRC32
15 42,8 [B194C14A] [35F69F16] CRC32
16 56,4 [EB24B884] [6FC3CCD4] CRC32
17 60,9 [8D8D4770] [D1295B48] CRC32
18 59,5 [748BB11D] [0371CBC4] CRC32
19 58,1 [2012E603] [B29C502E] CRC32

foobar2000 1.2 / Dynamic Range Meter 1.1.1
log date: 2018-11-18 00:21:54

––––––––––––––––––––––––––––––––––––––––
Analyzed: Jimmy Yancey / Complete Recorded Works, Vol. 2 (1940-1943)
––––––––––––––––––––––––––––––––––––––––

DR Peak RMS Duration Track
––––––––––––––––––––––––––––––––––––––––
DR12 -3.82 dB -18.37 dB 2:48 01-Bear Trap Blues
DR13 -2.95 dB -19.12 dB 2:38 02-Old Quaker Blues
DR12 -5.55 dB -20.55 dB 3:26 03-35th and Dearborn
DR13 -4.77 dB -21.57 dB 4:23 04-I Love to Hear My Baby Call My Name
DR18 0.00 dB -21.11 dB 2:58 05-Cryin' in My Sleep
DR17 -0.80 dB -21.47 dB 2:56 06-Death Letter Blues
DR16 -1.34 dB -19.90 dB 2:43 07-Yancey's Bugle Call [take 1]
DR12 -4.20 dB -19.21 dB 2:45 08-Yancey's Bugle Call [take 2]
DR12 -4.73 dB -19.56 dB 2:43 09-35th and Dearborn [Take 1]
DR12 -6.70 dB -20.07 dB 2:51 10-35th and Dearborn [Take 2]
DR11 -5.38 dB -17.92 dB 3:07 11-Boodlin'
DR14 -1.94 dB -19.92 dB 4:03 12-Yancey's Mixture
DR14 -1.85 dB -22.03 dB 4:33 13-Death Letter Blues
DR11 -6.31 dB -20.39 dB 3:23 14-Sweet Patootie
DR11 -7.37 dB -22.27 dB 4:33 15-How Long Blues
DR13 -4.97 dB -23.56 dB 4:00 16-How Long Blues [alternate take]
DR11 -4.30 dB -17.50 dB 3:14 17-The Rocks
DR10 -4.50 dB -17.90 dB 3:07 18-Jimmy's Rocks
DR12 -4.71 dB -21.96 dB 4:30 19-How Long Blues [Mama Yancey, vocals]
––––––––––––––––––––––––––––––––––––––––

Number of tracks: 19
Official DR value: DR13

Samplerate: 44100 Hz
Channels: 2
Bits per sample: 16
Bitrate: 396 kbps
Codec: FLAC
================================================================================




Jimmy Yancey - Complete Recorded Works in Chronological Order 1939-1950, Vol. 1-3 (1991) 3CDs

Jimmy Yancey - Complete Recorded Works in Chronological Order, Vol. 3: 1943-1950 (1991)
EAC | FLAC | Tracks (Cue&Log) ~ 187 Mb | Mp3 (CBR320) ~ 165 Mb
Label: Document | # DOCD 5043 | 01:09:28 | Scans included

The third of three CDs tracing the recording career of the unique boogie-woogie pianist Jimmy Yancey, whose subtlety could often result in some dramatic music, completes his December 1943 session and also has his December 23, 1950 solo set; his final recordings from July 1951 are available on an Atlantic release. The 1943 titles, three of which were previously unreleased, include two with Mama Yancey's vocals (Jimmy switches to harmonium on one) and are highlighted by "White Sox Stomp," "Yancey Special," and two versions of "Make Me a Pallet on the Floor." After the six fine titles from 1950, this CD finishes off with the only four numbers that Jimmy's older brother, the more ragtime-oriented Alonzo Yancey, ever recorded. Although his style was different, on "Ecstatic Rag" Alonzo does sound a bit like Jimmy. All three of these Document CDs, plus the Atlantic set, are highly recommended and preferable to the piecemeal domestic Bluebird reissues.

Scott Yanow, Allmusic.com

Tracklist:

01. White Sox Stomp (4:12)
02. Eternal Blues (4:27)
03. I Received a Letter (2:58)
04. Yancey Special (4:26)
05. Midnight Stomp (3:50)
06. Pallet on the Floor (4:03)
07. Shave 'Em Dry (3:13)
08. At the Window (3:05)
09. Make Me a Pallet on the Floor (4:26)
10. The Yancey Special (4:16)
11. Assembly Call Boogie (2:45)
12. Barber Shop Rag (3:40)
13. Everlasting Blues (5:04)
14. Keep A Knockin' (3:31)
15. Jimmy's Goodnight Blues (4:30)
16. Alonzo Yancey / Everybody's Rag (2:59)
17. Alonzo Yancey / Twelfth Street Rag (3:21)
18. Alonzo Yancey / Hobo Rag (1:47)
19. Alonzo Yancey / Ecstatic Rag (2:53)


Exact Audio Copy V1.0 beta 3 from 29. August 2011

EAC extraction logfile from 4. December 2013, 10:13

Jimmy Yancey / Complete Recorded Works 1939-1950, Vol. 3: December 1943 to December 1950

Used drive : MATSHITADVD+-RW UJ8C2 Adapter: 1 ID: 0

Read mode : Secure
Utilize accurate stream : Yes
Defeat audio cache : Yes
Make use of C2 pointers : No

Read offset correction : 103
Overread into Lead-In and Lead-Out : No
Fill up missing offset samples with silence : Yes
Delete leading and trailing silent blocks : No
Null samples used in CRC calculations : Yes
Used interface : Native Win32 interface for Win NT & 2000
Gap handling : Appended to previous track

Used output format : Internal WAV Routines
Sample format : 44.100 Hz; 16 Bit; Stereo


TOC of the extracted CD

Track | Start | Length | Start sector | End sector
––––––––––––––––––––––––––––-
1 | 0:00.00 | 4:11.40 | 0 | 18864
2 | 4:11.40 | 4:26.72 | 18865 | 38886
3 | 8:38.37 | 2:58.30 | 38887 | 52266
4 | 11:36.67 | 4:26.10 | 52267 | 72226
5 | 16:03.02 | 3:50.18 | 72227 | 89494
6 | 19:53.20 | 4:02.60 | 89495 | 107704
7 | 23:56.05 | 3:12.65 | 107705 | 122169
8 | 27:08.70 | 3:05.30 | 122170 | 136074
9 | 30:14.25 | 4:26.35 | 136075 | 156059
10 | 34:40.60 | 4:16.30 | 156060 | 175289
11 | 38:57.15 | 2:45.22 | 175290 | 187686
12 | 41:42.37 | 3:40.10 | 187687 | 204196
13 | 45:22.47 | 5:04.15 | 204197 | 227011
14 | 50:26.62 | 3:31.08 | 227012 | 242844
15 | 53:57.70 | 4:29.45 | 242845 | 263064
16 | 58:27.40 | 2:59.22 | 263065 | 276511
17 | 61:26.62 | 3:20.40 | 276512 | 291551
18 | 64:47.27 | 1:47.03 | 291552 | 299579
19 | 66:34.30 | 2:53.12 | 299580 | 312566


Track 1

Filename C:\Jimmy Yancey Complete Recorded Works, Vol. 3 (1991 Document DOCD-5043)\01 - Jimmy Yancey - White Sox Stomp.wav

Pre-gap length 0:00:02.00

Peak level 83.7 %
Extraction speed 2.6 X
Track quality 100.0 %
Test CRC 59195132
Copy CRC 59195132
Accurately ripped (confidence 1) [6472511D] (AR v2)
Copy OK

Track 2

Filename C:\Jimmy Yancey Complete Recorded Works, Vol. 3 (1991 Document DOCD-5043)\02 - Jimmy Yancey - Eternal Blues.wav

Pre-gap length 0:00:01.92

Peak level 95.4 %
Extraction speed 2.9 X
Track quality 100.0 %
Test CRC 41AB5F42
Copy CRC 41AB5F42
Accurately ripped (confidence 1) [1837E5C3] (AR v2)
Copy OK

Track 3

Filename C:\Jimmy Yancey Complete Recorded Works, Vol. 3 (1991 Document DOCD-5043)\03 - Jimmy Yancey - I Received a Letter.wav

Pre-gap length 0:00:01.97

Peak level 78.0 %
Extraction speed 2.9 X
Track quality 100.0 %
Test CRC 208C22C5
Copy CRC 208C22C5
Accurately ripped (confidence 1) [2A904C61] (AR v2)
Copy OK

Track 4

Filename C:\Jimmy Yancey Complete Recorded Works, Vol. 3 (1991 Document DOCD-5043)\04 - Jimmy Yancey - Yancey Special.wav

Pre-gap length 0:00:01.66

Peak level 100.0 %
Extraction speed 3.2 X
Track quality 100.0 %
Test CRC 4F0F4089
Copy CRC 4F0F4089
Accurately ripped (confidence 1) [EEA2C9E7] (AR v2)
Copy OK

Track 5

Filename C:\Jimmy Yancey Complete Recorded Works, Vol. 3 (1991 Document DOCD-5043)\05 - Jimmy Yancey - Midnight Stomp.wav

Pre-gap length 0:00:02.06

Peak level 96.7 %
Extraction speed 3.4 X
Track quality 100.0 %
Test CRC C6BA9EBB
Copy CRC C6BA9EBB
Accurately ripped (confidence 1) [19091600] (AR v2)
Copy OK

Track 6

Filename C:\Jimmy Yancey Complete Recorded Works, Vol. 3 (1991 Document DOCD-5043)\06 - Jimmy Yancey - Pallet on the Floor.wav

Pre-gap length 0:00:01.42

Peak level 94.8 %
Extraction speed 3.6 X
Track quality 100.0 %
Test CRC 0B35CF21
Copy CRC 0B35CF21
Accurately ripped (confidence 1) [6B65BCDE] (AR v2)
Copy OK

Track 7

Filename C:\Jimmy Yancey Complete Recorded Works, Vol. 3 (1991 Document DOCD-5043)\07 - Jimmy Yancey - Shave 'Em Dry.wav

Pre-gap length 0:00:02.22

Peak level 72.7 %
Extraction speed 2.6 X
Track quality 99.9 %
Test CRC 82E38D70
Copy CRC 82E38D70
Accurately ripped (confidence 1) [52C835D0] (AR v2)
Copy OK

Track 8

Filename C:\Jimmy Yancey Complete Recorded Works, Vol. 3 (1991 Document DOCD-5043)\08 - Jimmy Yancey - At the Window.wav

Pre-gap length 0:00:02.04

Peak level 58.5 %
Extraction speed 3.7 X
Track quality 100.0 %
Test CRC 7AFD18CC
Copy CRC 7AFD18CC
Accurately ripped (confidence 1) [C28E4404] (AR v2)
Copy OK

Track 9

Filename C:\Jimmy Yancey Complete Recorded Works, Vol. 3 (1991 Document DOCD-5043)\09 - Jimmy Yancey - Make Me a Pallet on the Floor.wav

Pre-gap length 0:00:03.01

Peak level 100.0 %
Extraction speed 4.1 X
Track quality 100.0 %
Test CRC 07B7AB19
Copy CRC 07B7AB19
Accurately ripped (confidence 1) [13277544] (AR v2)
Copy OK

Track 10

Filename C:\Jimmy Yancey Complete Recorded Works, Vol. 3 (1991 Document DOCD-5043)\10 - Jimmy Yancey - The Yancey Special.wav

Pre-gap length 0:00:02.37

Peak level 95.3 %
Extraction speed 4.2 X
Track quality 100.0 %
Test CRC C50E61AA
Copy CRC C50E61AA
Accurately ripped (confidence 1) [97842CA1] (AR v2)
Copy OK

Track 11

Filename C:\Jimmy Yancey Complete Recorded Works, Vol. 3 (1991 Document DOCD-5043)\11 - Jimmy Yancey - Assembly Call Boogie.wav

Pre-gap length 0:00:01.38

Peak level 87.0 %
Extraction speed 4.0 X
Track quality 100.0 %
Test CRC EE266592
Copy CRC EE266592
Accurately ripped (confidence 1) [FE336431] (AR v2)
Copy OK

Track 12

Filename C:\Jimmy Yancey Complete Recorded Works, Vol. 3 (1991 Document DOCD-5043)\12 - Jimmy Yancey - Barber Shop Rag.wav

Pre-gap length 0:00:02.17

Peak level 100.0 %
Extraction speed 4.3 X
Track quality 100.0 %
Test CRC CD6069F7
Copy CRC CD6069F7
Accurately ripped (confidence 1) [394CDA93] (AR v2)
Copy OK

Track 13

Filename C:\Jimmy Yancey Complete Recorded Works, Vol. 3 (1991 Document DOCD-5043)\13 - Jimmy Yancey - Everlasting Blues.wav

Pre-gap length 0:00:02.16

Peak level 100.0 %
Extraction speed 4.7 X
Track quality 100.0 %
Test CRC D0FC0653
Copy CRC D0FC0653
Accurately ripped (confidence 1) [94562F5C] (AR v2)
Copy OK

Track 14

Filename C:\Jimmy Yancey Complete Recorded Works, Vol. 3 (1991 Document DOCD-5043)\14 - Jimmy Yancey - Keep A Knockin'.wav

Pre-gap length 0:00:02.34

Peak level 100.0 %
Extraction speed 4.6 X
Track quality 100.0 %
Test CRC 5DEB7B17
Copy CRC 5DEB7B17
Accurately ripped (confidence 1) [3E36B413] (AR v2)
Copy OK

Track 15

Filename C:\Jimmy Yancey Complete Recorded Works, Vol. 3 (1991 Document DOCD-5043)\15 - Jimmy Yancey - Jimmy's Goodnight Blues.wav

Pre-gap length 0:00:02.52

Peak level 89.9 %
Extraction speed 3.7 X
Track quality 99.9 %
Test CRC D6FE5661
Copy CRC D6FE5661
Accurately ripped (confidence 1) [BB6D77E6] (AR v2)
Copy OK

Track 16

Filename C:\Jimmy Yancey Complete Recorded Works, Vol. 3 (1991 Document DOCD-5043)\16 - Alonzo Yancey - Everybody's Rag.wav

Pre-gap length 0:00:03.92

Peak level 71.2 %
Extraction speed 3.2 X
Track quality 99.9 %
Test CRC 74EA67D9
Copy CRC 74EA67D9
Accurately ripped (confidence 1) [9F7FF940] (AR v2)
Copy OK

Track 17

Filename C:\Jimmy Yancey Complete Recorded Works, Vol. 3 (1991 Document DOCD-5043)\17 - Alonzo Yancey - Twelfth Street Rag.wav

Pre-gap length 0:00:02.06

Peak level 57.8 %
Extraction speed 3.4 X
Track quality 99.9 %
Test CRC D4CCA24A
Copy CRC D4CCA24A
Accurately ripped (confidence 1) [888E9EBC] (AR v2)
Copy OK

Track 18

Filename C:\Jimmy Yancey Complete Recorded Works, Vol. 3 (1991 Document DOCD-5043)\18 - Alonzo Yancey - Hobo Rag.wav

Pre-gap length 0:00:01.92

Peak level 51.5 %
Extraction speed 4.3 X
Track quality 100.0 %
Test CRC 08880D10
Copy CRC 08880D10
Accurately ripped (confidence 1) [9DB87725] (AR v2)
Copy OK

Track 19

Filename C:\Jimmy Yancey Complete Recorded Works, Vol. 3 (1991 Document DOCD-5043)\19 - Alonzo Yancey - Ecstatic Rag.wav

Pre-gap length 0:00:01.48

Peak level 69.2 %
Extraction speed 4.9 X
Track quality 100.0 %
Test CRC 2D4C9164
Copy CRC 2D4C9164
Accurately ripped (confidence 1) [43972B0E] (AR v2)
Copy OK


All tracks accurately ripped

No errors occurred

End of status report

==== Log checksum C543AB4230CEDD34125F32C99AFDC6725F5DD2987D196DEBD02082C05996926A ====

[CUETools log; Date: 17.11.2018 22:45:02; Version: 2.1.4]
[CTDB TOCID: rgbcOTyRehLXUHSQ1q9sfImjjUM-] found.
Track | CTDB Status
1 | (5/5) Accurately ripped
2 | (4/5) Accurately ripped
3 | (4/5) Accurately ripped
4 | (4/5) Accurately ripped
5 | (4/5) Accurately ripped
6 | (4/5) Accurately ripped
7 | (5/5) Accurately ripped
8 | (4/5) Accurately ripped
9 | (4/5) Accurately ripped
10 | (4/5) Accurately ripped
11 | (5/5) Accurately ripped
12 | (3/5) Accurately ripped
13 | (4/5) Accurately ripped
14 | (4/5) Accurately ripped
15 | (4/5) Accurately ripped
16 | (4/5) Accurately ripped
17 | (5/5) Accurately ripped
18 | (5/5) Accurately ripped
19 | (5/5) Accurately ripped
[AccurateRip ID: 0031f54a-02b6cf25-2f104713] found.
Track [ CRC | V2 ] Status
01 [bef93976|6472511d] (0+1/3) Accurately ripped
02 [4e71f060|1837e5c3] (0+1/3) Accurately ripped
03 [ddcc6152|2a904c61] (0+1/3) Accurately ripped
04 [e44c9efc|eea2c9e7] (0+1/3) Accurately ripped
05 [5256c132|19091600] (0+1/3) Accurately ripped
06 [e0f7ac41|6b65bcde] (0+1/3) Accurately ripped
07 [0c22efaa|52c835d0] (0+1/3) Accurately ripped
08 [c6ba0012|c28e4404] (0+1/3) Accurately ripped
09 [c7a11140|13277544] (0+1/3) Accurately ripped
10 [23be4dd2|97842ca1] (0+1/3) Accurately ripped
11 [13b9f4bf|fe336431] (0+1/3) Accurately ripped
12 [f9b4da4b|394cda93] (0+1/3) Accurately ripped
13 [74fa2755|94562f5c] (0+1/3) Accurately ripped
14 [8eb02727|3e36b413] (0+1/3) Accurately ripped
15 [29feae88|bb6d77e6] (0+1/3) Accurately ripped
16 [4ec12ad9|9f7ff940] (0+1/3) Accurately ripped
17 [34062c37|888e9ebc] (0+1/3) Accurately ripped
18 [630c38a7|9db87725] (0+1/3) Accurately ripped
19 [5d793193|43972b0e] (0+1/3) Accurately ripped

Track Peak [ CRC32 ] [W/O NULL] [ LOG ]
– 100,0 [2ABA5D16] [3E364EE5]
01 83,7 [59195132] [A4A89E83] CRC32
02 95,4 [41AB5F42] [4E5FD6E1] CRC32
03 78,0 [208C22C5] [F1630D98] CRC32
04 100,0 [4F0F4089] [BDD1138F] CRC32
05 96,7 [C6BA9EBB] [369FFA53] CRC32
06 94,8 [0B35CF21] [C0205E87] CRC32
07 72,7 [82E38D70] [B0541AC8] CRC32
08 58,5 [7AFD18CC] [4363F4B4] CRC32
09 100,0 [07B7AB19] [8A43BA05] CRC32
10 95,3 [C50E61AA] [AC05CE04] CRC32
11 87,0 [EE266592] [359AB822] CRC32
12 100,0 [CD6069F7] [D375235B] CRC32
13 100,0 [D0FC0653] [767967B2] CRC32
14 100,0 [5DEB7B17] [4F590525] CRC32
15 89,9 [D6FE5661] [93E80538] CRC32
16 71,2 [74EA67D9] [33B70273] CRC32
17 57,8 [D4CCA24A] [88B6FD11] CRC32
18 51,5 [08880D10] [973E2B54] CRC32
19 69,2 [2D4C9164] [1D5CA564] CRC32

foobar2000 1.2 / Dynamic Range Meter 1.1.1
log date: 2018-11-18 00:22:17

––––––––––––––––––––––––––––––––––––––––
Analyzed: Jimmy Yancey / Complete Recorded Works 1939-1950, Vol. 3: December 1943 to December 1950
––––––––––––––––––––––––––––––––––––––––

DR Peak RMS Duration Track
––––––––––––––––––––––––––––––––––––––––
DR11 -1.54 dB -14.74 dB 4:12 01-White Sox Stomp
DR9 -0.41 dB -12.16 dB 4:27 02-Eternal Blues
DR11 -2.16 dB -16.55 dB 2:58 03-I Received a Letter
DR9 0.00 dB -12.55 dB 4:26 04-Yancey Special
DR9 -0.28 dB -11.65 dB 3:50 05-Midnight Stomp
DR10 -0.46 dB -14.08 dB 4:03 06-Pallet on the Floor
DR11 -2.76 dB -15.04 dB 3:13 07-Shave 'Em Dry
DR11 -4.65 dB -18.99 dB 3:05 08-At the Window
DR13 0.00 dB -17.01 dB 4:26 09-Make Me a Pallet on the Floor
DR12 -0.41 dB -15.28 dB 4:16 10-The Yancey Special
DR13 -1.20 dB -16.88 dB 2:45 11-Assembly Call Boogie
DR13 0.00 dB -16.23 dB 3:40 12-Barber Shop Rag
DR15 0.00 dB -17.52 dB 5:04 13-Everlasting Blues
DR15 0.00 dB -17.66 dB 3:31 14-Keep A Knockin'
DR12 -0.92 dB -16.86 dB 4:30 15-Jimmy's Goodnight Blues
DR10 -2.94 dB -14.87 dB 2:59 16-Alonzo Yancey / Everybody's Rag
DR11 -4.76 dB -18.04 dB 3:21 17-Alonzo Yancey / Twelfth Street Rag
DR9 -5.76 dB -18.00 dB 1:47 18-Alonzo Yancey / Hobo Rag
DR9 -3.19 dB -16.16 dB 2:53 19-Alonzo Yancey / Ecstatic Rag
––––––––––––––––––––––––––––––––––––––––

Number of tracks: 19
Official DR value: DR11

Samplerate: 44100 Hz
Channels: 2
Bits per sample: 16
Bitrate: 348 kbps
Codec: FLAC
================================================================================