Subcategories

Jimmy Davis & Junction - Kick The Wall (1987)

Posted By: Andi_Deris
Jimmy Davis & Junction - Kick The Wall (1987)

Jimmy Davis & Junction - Kick The Wall (1987)
EAC Rip | FLAC: Image+Cue+Log | 263 Mb | MP3 CBR 320 kbps | 99 Mb | Scans | 38:20
QMI Music | MCAD-42015
Melodic Hard Rock, AOR

Another revered piece of AOR is this southern tinged effort from Memphis rocker Jimmy Davis. Not a lot known about him prior to this release but he gets a bit of assistance from some well known names in the rock biz, including guitarist Joe Walsh (Jojo Gunne, Eagles etc), and ex Cobra man Jack Holder, who also handles the production duties in conjunction with Don Smith. Why is it revered you ask? Well, it's got hooks, exceptional melodies in the right places, and the keyboards and guitars compliment each other to perfection. Added to that the breathy vocal style of Davis over the top of it and you get a classic cocktail of AOR.



Jimmy Davis & Junction - Kick The Wall (1987)


Track Listing

01. Catch My Heart (4:29)
02. Just A Little Bit (3:40)
03. Kick The Wall (3:39)
04. Labor Of Love (4:17)
05. Shoe Shine Man (3:24)
06. Are We Rockin' Yet? (3:42)
07. Why The West Was Won (4:03)
08. Don't Hold Back The Night (4:00)
09. Just Having Touched (3:42)
10. Over The Top (3:24)

Produced by Jack Holder and Don Smith

The Band

• Jimmy Davis - Lead Vocals
• John Scott - Piano & Keyboards
• Chuck Reynolds - Drums
• Tommy Burroughs - Electric Guitar and Mandolin

Jimmy Davis & Junction - Kick The Wall (1987)


Exact Audio Copy V0.99 prebeta 5 from 4. May 2009

Отчёт EAC об извлечении, выполненном 28. октября 2010, 19:30

Davis, Jimmy & Junction / Kick The Wall

Дисковод: PIONEER DVD-RW DVR-218L Adapter: 5 ID: 1

Режим чтения : Достоверность
Использование точного потока : Да
Отключение кэша аудио : Да
Использование указателей C2 : Нет

Коррекция смещения при чтении : 6
Способность читать области Lead-in и Lead-out : Нет
Заполнение пропущенных сэмплов тишиной : Да
Удаление блоков с тишиной в начале и конце : Нет
При вычислениях CRC использовались нулевые сэмплы : Да
Интерфейс : Встроенный Win32-интерфейс для Win NT/2000

Выходной формат : Внутренние WAV-операции
Формат сэмплов : 44.100 Гц; 16 бит; стерео


TOC извлечённого CD

Трек | Старт | Длительность | Начальный сектор | Конечный сектор
––––––––––––––––––––––––––––––––––-
1 | 0:00.00 | 4:29.60 | 0 | 20234
2 | 4:29.60 | 3:40.60 | 20235 | 36794
3 | 8:10.45 | 3:39.22 | 36795 | 53241
4 | 11:49.67 | 4:17.35 | 53242 | 72551
5 | 16:07.27 | 3:24.13 | 72552 | 87864
6 | 19:31.40 | 3:42.52 | 87865 | 104566
7 | 23:14.17 | 4:03.18 | 104567 | 122809
8 | 27:17.35 | 4:00.45 | 122810 | 140854
9 | 31:18.05 | 3:42.60 | 140855 | 157564
10 | 35:00.65 | 3:24.55 | 157565 | 172919


Характеристики диапазона извлечения и сообщения об ошибках

Выбранный диапазон

Имя файла D:\Мои раздачи\Jimmy Davis & Junction - Kick The Wall 1987\ape\Davis, Jimmy & Junction - Kick The Wall.wav

Пиковый уровень 100.0 %
Качество диапазона 100.0 %
CRC копии 85158D4B
Копирование… OK

Ошибок не произошло


AccurateRip: сводка

Трек 1 точное извлечение (доверие 8) [DCB70E57]
Трек 2 точное извлечение (доверие 8) [F0815EA5]
Трек 3 точное извлечение (доверие 8) [5E1FD228]
Трек 4 точное извлечение (доверие 8) [F7A89E29]
Трек 5 точное извлечение (доверие 8) [20091D5E]
Трек 6 точное извлечение (доверие 8) [B101E13D]
Трек 7 точное извлечение (доверие 8) [AF97DB67]
Трек 8 точное извлечение (доверие 8) [A8E878D4]
Трек 9 точное извлечение (доверие 8) [DB3EF18D]
Трек 10 точное извлечение (доверие 8) [622FA7C9]

Все треки извлечены точно

Конец отчёта


Many thanks to the original uploader: Manstr



Password: pass