Tags
Language
Tags

Jody Grind - Far Canal (1970) {1996, Reissue}

Posted By: popsakov
Jody Grind - Far Canal (1970) {1996, Reissue}

Jody Grind - Far Canal (1970) {1996, Reissue}
EAC Rip | FLAC (Img) + Cue + Log ~ 344 Mb | MP3 CBR320 ~ 152 Mb
Full Scans | 00:53:23 | RAR 5% Recovery
Psychedelic Rock, Progressive Rock | Green Tree Records #GTR 038

Formed in December 1968, by organist Tim Hinkley, Jody Grind was a powerful trio influenced by the dominance of such notable keyboard led bands as The Nice, Vincent Crane's work with The Crazy World of Arthur Brown and Traffic. Hinkley formed the first version of the band with guitarist Ivan Zagni and drummer Martin Harriman. In June 1969 the band signed to Transatlantic Records (a UK independent label more widely associated with folk music who were seeking to develop an "underground" roster) and recorded their debut album "One Step On", released in October 1969 (and also released by Esoteric Recordings), By the beginning of 1970, Jody Grind had settled to a new line up of Tim Hinkley, guitarist and vocalist Bernie Holland and drummer Pete Gavin. Recorded in the early months of 1970, the band's second album, "Far Canal" was a fine work. The quality of material such as 'We've Had It', 'Jump Bed Jed' and 'Bath Sister' was outstanding. Another highlight was the excellent Hammond organ led environmental protest "Plastic Shit" (recorded The Roundhouse at the beginning of the year. Augmented by other fine material such as 'Vegetable Oblivion', 'Red Worms and Lice' and 'Ballad for Bridget' (featuring Hinkley on vibraphone), "Far Canal" is a true "lost" gem from the heady days of British Progressive / Underground Rock.

Jody Grind's personnel changed substantially between the recording of their first album, 1969's One Step On, and their second and final one, 1970s Far Canal. Tim Hinkley was still on keyboards, but there was a new guitarist, Bernie Holland (who also did some singing), as well as a new drummer to complete the trio, Pete Gavin. As expected, the sound of the group, while still in the early British serious progressive rock bag, changed as well – sometimes for the good, sometimes for the worse. The jazzy inclinations of the debut were mostly gone, save the atypically tasteful instrumental "Ballad for Bridget." On "We've Had It" and parts of "Vegetable Oblivion," there was a classical melodic influence that was more accessible than anything on the first album, as well as somewhat more in line with what groups such as Yes were doing, though Jody Grind were far less cheerful. "Bath Sister," however, could have been the work of an entirely different band, sounding as if they were trying to imitate Cream with an organ-guitar-drums lineup – and not doing so very well. And so it went for the rest of this very erratic record, where the quite accomplished chops of the players were totally overwhelmed by the mediocrity of the material, as well as their willingness to spin off into overlong instrumental sections with tedious riffs. They really didn't have enough in the way of songs to justify an LP, but that didn't keep them from filling up space with heavy, somber organ-guitar interplay. And while the presence of three consecutive tracks titled "Plastic Shit," "Vegetable Oblivion," and "Red Worms and Lice" might lead you to expect something Frank Zappaesque, in fact these in the main are pretty boring, insubstantial period progressive hard rock pieces, "Plastic Shit" descending into some shameless (deliberately ironic, one can only hope?) sub-Robert Plant vocalizing.

~ Richie Unterberger, All Music

***************

Track List:

01. We.ve Had It [5:07]
02. Bath Sister [3:29]
03. Jump Bed Jed [7:15]
04. O Paradiso [7:32]
05. Plastic Shit [7:19]
06. Vegetable Oblivion [2:10]
07. Red Worms & Lice [7:24]
08. Ballad For Bridget [3:43]
09. Paint In Black [5:09]
10. Rock.n.Roll Man [4:19]

Exact Audio Copy V1.3 from 2. September 2016

EAC extraction logfile from 4. May 2021, 0:54

Jody Grind / Far Canal

Used drive : TSSTcorpCDDVDW TS-L633B Adapter: 1 ID: 0

Read mode : Secure
Utilize accurate stream : Yes
Defeat audio cache : Yes
Make use of C2 pointers : No

Read offset correction : 6
Overread into Lead-In and Lead-Out : No
Fill up missing offset samples with silence : Yes
Delete leading and trailing silent blocks : No
Null samples used in CRC calculations : Yes
Used interface : Native Win32 interface for Win NT & 2000

Used output format : Internal WAV Routines
Sample format : 44.100 Hz; 16 Bit; Stereo


TOC of the extracted CD

Track | Start | Length | Start sector | End sector
––––––––––––––––––––––––––––-
1 | 0:00.00 | 5:07.00 | 0 | 23024
2 | 5:07.00 | 3:28.65 | 23025 | 38689
3 | 8:35.65 | 7:14.47 | 38690 | 71286
4 | 15:50.37 | 7:31.55 | 71287 | 105166
5 | 23:22.17 | 7:18.48 | 105167 | 138064
6 | 30:40.65 | 2:09.45 | 138065 | 147784
7 | 32:50.35 | 7:23.45 | 147785 | 181054
8 | 40:14.05 | 3:42.42 | 181055 | 197746
9 | 43:56.47 | 5:08.15 | 197747 | 220861
10 | 49:04.62 | 4:18.13 | 220862 | 240224


Range status and errors

Selected range

Filename F:\Alexharvey\Jody Grind - Far Canal.wav

Peak level 98.4 %
Extraction speed 2.8 X
Range quality 100.0 %
Test CRC 18251676
Copy CRC 18251676
Copy OK

No errors occurred


AccurateRip summary

Track 1 cannot be verified as accurate (confidence 2) [C3B1CF65], AccurateRip returned [890AEA34] (AR v2)
Track 2 cannot be verified as accurate (confidence 2) [9A1F64AE], AccurateRip returned [76757A2F] (AR v2)
Track 3 cannot be verified as accurate (confidence 2) [81528F8A], AccurateRip returned [CF51785C] (AR v2)
Track 4 cannot be verified as accurate (confidence 2) [A6D83191], AccurateRip returned [874FBDFA] (AR v2)
Track 5 cannot be verified as accurate (confidence 2) [F837A34E], AccurateRip returned [FCCADF45] (AR v2)
Track 6 cannot be verified as accurate (confidence 2) [1952B91E], AccurateRip returned [DC4678B9] (AR v2)
Track 7 cannot be verified as accurate (confidence 2) [8F9E2B80], AccurateRip returned [0257BB5A] (AR v2)
Track 8 cannot be verified as accurate (confidence 2) [B1972D3E], AccurateRip returned [BEE45D60] (AR v2)
Track 9 cannot be verified as accurate (confidence 2) [3CEB220E], AccurateRip returned [0720C89E] (AR v2)
Track 10 cannot be verified as accurate (confidence 2) [61A36522], AccurateRip returned [10164A36] (AR v2)

No tracks could be verified as accurate
You may have a different pressing from the one(s) in the database

End of status report

–– CUETools DB Plugin V2.1.6

[CTDB TOCID: PzOS2z6lSFZB68iFImR02KGz8W0-] found
Submit result: PzOS2z6lSFZB68iFImR02KGz8W0- has been confirmed
Track | CTDB Status
1 | (7/8) Accurately ripped
2 | (7/8) Accurately ripped
3 | (7/8) Accurately ripped
4 | (7/8) Accurately ripped
5 | (7/8) Accurately ripped
6 | (7/8) Accurately ripped
7 | (7/8) Accurately ripped
8 | (7/8) Accurately ripped
9 | (7/8) Accurately ripped
10 | (7/8) Accurately ripped


==== Log checksum 3B4D427ACCF6C08A7C31E25D9B3F7BCA0EA4C357F6002587F2BE6CF001F90A9C ====

[CUETools log; Date: 06.05.2021 14:07:07; Version: 2.1.6]
[CTDB TOCID: PzOS2z6lSFZB68iFImR02KGz8W0-] found.
Track | CTDB Status
1 | (8/9) Accurately ripped
2 | (8/9) Accurately ripped
3 | (8/9) Accurately ripped
4 | (8/9) Accurately ripped
5 | (8/9) Accurately ripped
6 | (8/9) Accurately ripped
7 | (8/9) Accurately ripped
8 | (8/9) Accurately ripped
9 | (8/9) Accurately ripped
10 | (8/9) Accurately ripped
[AccurateRip ID: 0014cfc4-00a68daf-8b0c830a] found.
Track [ CRC | V2 ] Status
01 [40e2c38d|c3b1cf65] (0+0/2) No match
02 [292b5974|9a1f64ae] (0+0/2) No match
03 [8870e510|81528f8a] (0+0/2) No match
04 [b6a38be5|a6d83191] (0+0/2) No match
05 [e61666b0|f837a34e] (0+0/2) No match
06 [2820551f|1952b91e] (0+0/2) No match
07 [b323de63|8f9e2b80] (0+0/2) No match
08 [b75e3b95|b1972d3e] (0+0/2) No match
09 [58d9f702|3ceb220e] (0+0/2) No match
10 [70260916|61a36522] (0+0/2) No match
Offsetted by -654:
01 [00eabec5] (0/2) No match (V2 was not tested)
02 [54898bea] (0/2) No match (V2 was not tested)
03 [63c119b8] (0/2) No match (V2 was not tested)
04 [149a49cf] (0/2) No match (V2 was not tested)
05 [74271fce] (0/2) No match (V2 was not tested)
06 [7e23dcf1] (0/2) No match (V2 was not tested)
07 [ab747331] (0/2) No match (V2 was not tested)
08 [09681927] (0/2) No match (V2 was not tested)
09 [1e4a0e7a] (0/2) No match (V2 was not tested)
10 [427704a2] (0/2) No match (V2 was not tested)

Track Peak [ CRC32 ] [W/O NULL] [ LOG ]
– 98,4 [18251676] [A27547AA] CRC32
01 96,5 [29C61FF9] [2E1B8BB4]
02 96,0 [92705213] [8FE94CE0]
03 98,4 [53663BCB] [05BBEEE6]
04 98,4 [EFD836F2] [2FABEB8F]
05 98,4 [19AF83FE] [EDB3E8F4]
06 98,4 [555DFB4B] [1DEB8BB9]
07 98,4 [98A6BB50] [FB70A051]
08 98,4 [C7B8E1CA] [CD4802F5]
09 98,4 [7F9BB5A6] [6008E1C9]
10 88,7 [C644093D] [2F9A59EB]

Jody Grind - Far Canal (1970) {1996, Reissue}


See also:

Jody Grind - One Step On (1969) {1995, Reissue}

All thanks go to Alexharvey

>>> My Blog <<<

DOWNLOAD: