Subcategories

Joe Cocker: Collection (1969 - 1991) [Vinyl Rip 16/44 & mp3-320]

Posted By: v3122
Joe Cocker: Collection (1969 - 1991) [Vinyl Rip 16/44 & mp3-320]

Joe Cocker: Collection (1969 - 1991)
10 x Vinyl Rip 16/44 | Flac(Image + Cue) > 2760 Mb
MP3 CBR 320Kbps > 1145 Mb | Artwork(jpg) Included
Cube Records / EMI / Capitol | Europe, Japan, USA
Classic Rock, Blues Rock, Pop Rock

After starting out as an unsuccessful pop singer (working under the name Vance Arnold), Joe Cocker found his niche singing rock and soul in the pubs of England with his superb backing group, the Grease Band. He hit number one in the U.K. in November 1968 with his version of the Beatles' "A Little Help from My Friends." His career really took off after he sang that song at Woodstock in August 1969. A second British hit came with a version of Leon Russell's "Delta Lady" in the fall of 1969 (by then, Russell was Cocker's musical director) and both of his albums, With a Little Help from My Friends (April 1969) and Joe Cocker! (November 1969), went gold in America. In 1970, his cover of the Box Tops hit "The Letter" became his first U.S. Top Ten. Cocker's first peak of success came when Russell organized the Mad Dogs & Englishmen tour of 1970, featuring Cocker and over 40 others and resulting in a third gold album and a concert film. Subsequent efforts were less popular, and problems with alcohol (both on- and off-stage) reduced Cocker's once-powerful voice to a croaking rasp.

Cocker returned to the U.S. Top Ten in 1975, with the romantic ballad "You Are So Beautiful" and topped the charts in 1982 via a duet with Jennifer Warnes on "Up Where We Belong" (the theme from the film An Officer and a Gentleman). He still charted during the '90s, albeit with less frequency than he did in the '70s and '80s. Across from Midnight arrived in 1997, followed by No Ordinary World two years later. Respect Yourself appeared in 2002, and the covers album Heart & Soul followed in 2004. The European release Hymn for My Soul, which featured cover versions of songs by Stevie Wonder, George Harrison, Bob Dylan, and John Fogerty, was issued on Parlophone in 2007. His complete Live at Woodstock performance was released in 2009. In 2010, Hard Knocks – his first studio album in three years – appeared in Europe. Cocker's 23rd studio album, Fire It Up, was issued in November 2012 on Sony. It was produced by Matt Serletic, known for his work with Collective Soul, Rob Thomas, Matchbox Twenty, and numerous others. Slightly over two years later, however, on December 22, 2014, Cocker succumbed to lung cancer.

by Cub Koda, allmusic
Joe Cocker: Collection (1969 - 1991) [Vinyl Rip 16/44 & mp3-320]


Joe Cocker: Collection (1969 - 1991) [Vinyl Rip 16/44 & mp3-320]:

Joe Cocker: Collection (1969 - 1991) [Vinyl Rip 16/44 & mp3-320]

Tracklist VNL01 - With a Little Help from My Friends (1969):
DE LP 1976 Intercord Records • 25 101-7B

01. A1. Feelin' Alright [4:16]
02. A2. Bye Bye Blackbird [3:32]
03. A3. Change in Louise [3:22]
04. A4. Marjorine [2:38]
05. A5. Just Like a Woman [5:18]
06. B1. Do I Still Figure in Your Life [4:01]
07. B2. Sandpaper Cadillac [3:18]
08. B3. Don't Let Me Be Misunderstood [4:40]
09. B4. With a Little Help from My Friends [5:14]
10. B5. I Shall Be Released [4:30]

foobar2000 1.2.9 / Dynamic Range Meter 1.1.1
log date: 2016-12-17 12:14:44

––––––––––––––––––––––––––––––––––––––––
Analyzed: JOE COCKER / With a Little Help from My Friends (W.Germany, Cube, 25 101-7B)
––––––––––––––––––––––––––––––––––––––––

DR Peak RMS Duration Track
––––––––––––––––––––––––––––––––––––––––
DR11 -1.59 dB -15.29 dB 4:16 01-A1. Feelin' Alright
DR9 -1.35 dB -13.15 dB 3:32 02-A2. Bye Bye Blackbird
DR10 -1.05 dB -12.86 dB 3:22 03-A3. Change in Louise
DR10 -2.27 dB -14.99 dB 2:38 04-A4. Marjorine
DR10 -3.18 dB -15.38 dB 5:18 05-A5. Just Like a Woman
DR10 -1.40 dB -13.72 dB 4:01 06-B1. Do I Still Figure in Your Life
DR10 -2.04 dB -13.48 dB 3:18 07-B2. Sandpaper Cadillac
DR10 -1.88 dB -13.81 dB 4:40 08-B3. Don't Let Me Be Misunderstood
DR11 -4.85 dB -19.70 dB 5:14 09-B4. With a Little Help from My Friends
DR10 -2.15 dB -14.39 dB 4:30 10-B5. I Shall Be Released
––––––––––––––––––––––––––––––––––––––––

Number of tracks: 10
Official DR value: DR10

Samplerate: 44100 Hz
Channels: 2
Bits per sample: 16
Bitrate: 793 kbps
Codec: FLAC
================================================================================



Joe Cocker: Collection (1969 - 1991) [Vinyl Rip 16/44 & mp3-320]

Tracklist VNL02 - Something to Say:
IT LP 1973 Orizzonte Dishi Ricordi S.p.A. • ORL 8817

01. A1. Pardon Me Sir [3:19]
02. A2. High Time We Went [4:30]
03. A3. She Don't Mind [3:08]
04. A4. Black-Eyed Blues [4:41]
05. A5. Something To Say [5:22]
06. B1. Midnight Rider [4:05]
07. B2. Do Right Woman [6:56]
08. B3. Woman To Woman [4:36]
09. B4. St. James Infirmary [6:21]

foobar2000 1.2.9 / Dynamic Range Meter 1.1.1
log date: 2016-12-17 12:14:58

––––––––––––––––––––––––––––––––––––––––
Analyzed: JOE COCKER / Something To Say (Italy, Cube, ORL 8817)
––––––––––––––––––––––––––––––––––––––––

DR Peak RMS Duration Track
––––––––––––––––––––––––––––––––––––––––
DR12 -0.17 dB -15.60 dB 3:19 01-A1. Pardon Me Sir
DR12 -0.36 dB -14.29 dB 4:30 02-A2. High Time We Went
DR13 -1.45 dB -17.17 dB 3:08 03-A3. She Don't Mind
DR14 -0.70 dB -16.85 dB 4:41 04-A4. Black-Eyed Blues
DR12 -1.49 dB -15.71 dB 5:22 05-A5. Something To Say
DR12 -1.90 dB -17.48 dB 4:05 06-B1. Midnight Rider
DR11 -2.79 dB -18.57 dB 6:56 07-B2. Do Right Woman
DR13 -2.16 dB -17.13 dB 4:36 08-B3. Woman To Woman
DR12 -0.83 dB -16.16 dB 6:21 09-B4. St. James Infirmary
––––––––––––––––––––––––––––––––––––––––

Number of tracks: 9
Official DR value: DR12

Samplerate: 44100 Hz
Channels: 2
Bits per sample: 16
Bitrate: 854 kbps
Codec: FLAC
================================================================================



Joe Cocker: Collection (1969 - 1991) [Vinyl Rip 16/44 & mp3-320]

Tracklist VNL03 - Jamaica Say You Will:
BE LP 1975 Cube Records • 853003

01. A1. In my woman [3:22]
02. A2. Where am I now [4:14]
03. A3. I think it's going to rain today [3:22]
04. A4. Forgive me now [4:02]
05. A5. Oh Mama [4:08]
06. B1. Lucinda [3:54]
07. B2. If I love you [3:56]
08. B3. Jamaica say you will [4:16]
09. B4. It's all over but the shoutin' [4:01]
10. B5. Jack-A-Diamonds [3:25]

foobar2000 1.2.9 / Dynamic Range Meter 1.1.1
log date: 2016-12-17 12:15:11

––––––––––––––––––––––––––––––––––––––––
Analyzed: JOE COCKER / Jamaica say you will (Belgium, CUBE 853003)
––––––––––––––––––––––––––––––––––––––––

DR Peak RMS Duration Track
––––––––––––––––––––––––––––––––––––––––
DR11 -0.23 dB -14.32 dB 3:22 01-A1. In my woman
DR11 -0.80 dB -15.95 dB 4:14 02-A2. Where am I now
DR11 -0.25 dB -13.88 dB 3:22 03-A3. I think it's going to rain today
DR12 -0.32 dB -16.68 dB 4:02 04-A4. Forgive me now
DR11 -0.15 dB -14.45 dB 4:08 05-A5. Oh Mama
DR11 -0.35 dB -14.58 dB 3:54 06-B1. Lucinda
DR12 -0.35 dB -16.80 dB 3:56 07-B2. If I love you
DR12 -0.35 dB -15.56 dB 4:16 08-B3. Jamaica say you will
DR11 -0.35 dB -13.30 dB 4:01 09-B4. It's all over but the shoutin'
DR13 -1.46 dB -20.01 dB 3:25 10-B5. Jack-A-Diamonds
––––––––––––––––––––––––––––––––––––––––

Number of tracks: 10
Official DR value: DR12

Samplerate: 44100 Hz
Channels: 2
Bits per sample: 16
Bitrate: 771 kbps
Codec: FLAC
================================================================================



Joe Cocker: Collection (1969 - 1991) [Vinyl Rip 16/44 & mp3-320]

Tracklist VNL04 - Luxury You Can Afford:
US LP 1978 Elektra Asylum Records • 6E-145

01. A1. Fun Time [2:38]
02. A2. Watching the River Flow [3:15]
03. A3. Boogie Baby [3:52]
04. A4. A Whiter Shade Of Pale [5:30]
05. A5. I Can't Say No [2:55]
06. A6. Southern Lady [3:17]
07. B1. I Know (You Don’t Want Me No More) [3:09]
08. B2. What You Did To Me Last Night [3:29]
09. B3. Lady Put The Lights Out [4:47]
10. B4. Wasted Years [4:49]
11. B5. I Heard It Through The Grapevine [4:33]

foobar2000 1.2.9 / Dynamic Range Meter 1.1.1
log date: 2016-12-17 12:15:27

––––––––––––––––––––––––––––––––––––––––
Analyzed: JOE COCKER / Luxury You Can Afford (USA, Elektra, 6E-145)
––––––––––––––––––––––––––––––––––––––––

DR Peak RMS Duration Track
––––––––––––––––––––––––––––––––––––––––
DR14 -0.35 dB -16.33 dB 2:38 01-A1. Fun Time
DR14 -0.03 dB -15.71 dB 3:15 02-A2. Watching the River Flow
DR14 -2.48 dB -20.38 dB 3:52 03-A3. Boogie Baby
DR14 -1.80 dB -18.96 dB 5:30 04-A4. A Whiter Shade Of Pale
DR16 -0.39 dB -19.58 dB 2:55 05-A5. I Can't Say No
DR15 -2.12 dB -22.53 dB 3:17 06-A6. Southern Lady
DR13 -1.26 dB -17.01 dB 3:09 07-B1. I Know (You Don’t Want Me No More)
DR14 -0.97 dB -17.07 dB 3:29 08-B2. What You Did To Me Last Night
DR13 -0.13 dB -18.82 dB 4:47 09-B3. Lady Put The Lights Out
DR14 -1.63 dB -19.53 dB 4:49 10-B4. Wasted Years
DR14 -1.50 dB -17.58 dB 4:33 11-B5. I Heard It Through The Grapevine
––––––––––––––––––––––––––––––––––––––––

Number of tracks: 11
Official DR value: DR14

Samplerate: 44100 Hz
Channels: 2
Bits per sample: 16
Bitrate: 729 kbps
Codec: FLAC
================================================================================



Joe Cocker: Collection (1969 - 1991) [Vinyl Rip 16/44 & mp3-320]

Tracklist VNL05 - Sheffield Steel:
JP LP 1982 PolyStar Records and Tapes • 25S-142

01. A1. Look What You've Done [3:58]
02. A2. Shocked [3:31]
03. A3. Sweet Little Woman [4:01]
04. A4. Seven Days [5:21]
05. A5. Marie [2:37]
06. B1. Ruby Lee [4:24]
07. B2. Many Rivers To Cross [3:43]
08. B3. So Good, So Right [2:34]
09. B4. Talking Back To The Night [4:48]
10. B5. Just Like Always [3:31]

foobar2000 1.2.9 / Dynamic Range Meter 1.1.1
log date: 2016-12-17 12:15:40

––––––––––––––––––––––––––––––––––––––––
Analyzed: JOE COCKER / Sheffield Steel (Japan, PolyStar, 25S-142)
––––––––––––––––––––––––––––––––––––––––

DR Peak RMS Duration Track
––––––––––––––––––––––––––––––––––––––––
DR13 -1.35 dB -17.06 dB 3:58 01-A1. Look What You've Done
DR13 -0.95 dB -17.28 dB 3:31 02-A2. Shocked
DR13 -2.42 dB -17.51 dB 4:01 03-A3. Sweet Little Woman
DR14 -2.42 dB -19.09 dB 5:21 04-A4. Seven Days
DR14 -2.45 dB -20.27 dB 2:37 05-A5. Marie
DR14 -0.71 dB -17.74 dB 4:24 06-B1. Ruby Lee
DR13 -1.82 dB -18.34 dB 3:43 07-B2. Many Rivers To Cross
DR13 -1.06 dB -17.14 dB 2:34 08-B3. So Good, So Right
DR13 -0.42 dB -16.81 dB 4:48 09-B4. Talking Back To The Night
DR15 -2.46 dB -22.24 dB 3:31 10-B5. Just Like Always
––––––––––––––––––––––––––––––––––––––––

Number of tracks: 10
Official DR value: DR14

Samplerate: 44100 Hz
Channels: 2
Bits per sample: 16
Bitrate: 811 kbps
Codec: FLAC
================================================================================



Joe Cocker: Collection (1969 - 1991) [Vinyl Rip 16/44 & mp3-320]

Tracklist VNL06 - Civilized Man:
DE LP 1984 EMI Services Benelux B.V. • 1C 064 24 0139 1

01. Civilized Man [4:00]
02. There Goes My Baby [3:47]
03. Come On In [3:50]
04. Tempted [4:15]
05. Long Drag Off A Cigarette [2:35]
06. I Love The Night [3:48]
07. Crazy In Love [3:52]
08. A Girl Like You [3:11]
09. Hold On (I Feel Our Love Is Changing) [3:39]
10. Even A Fool Would Let Go [3:54]

foobar2000 1.2.9 / Dynamic Range Meter 1.1.1
log date: 2016-12-17 12:15:53

––––––––––––––––––––––––––––––––––––––––
Analyzed: JOE COCKER / Civilized Man (W.Germany, Capitol, 1C 064 2401391)
––––––––––––––––––––––––––––––––––––––––

DR Peak RMS Duration Track
––––––––––––––––––––––––––––––––––––––––
DR14 -0.16 dB -16.73 dB 4:00 01-A1. Civilized Man
DR14 -0.20 dB -16.67 dB 3:47 02-A2. There Goes My Baby
DR12 -0.43 dB -15.09 dB 3:50 03-A3. Come On In
DR14 -0.21 dB -16.71 dB 4:15 04-A4. Tempted
DR15 -1.37 dB -20.92 dB 2:35 05-A5. Long Drag Off A Cigarette
DR13 -0.18 dB -15.00 dB 3:48 06-B1. I Love The Night
DR12 -0.79 dB -15.88 dB 3:52 07-B2. Crazy In Love
DR12 -0.18 dB -13.11 dB 3:11 08-B3. A Girl Like You
DR13 -0.44 dB -14.94 dB 3:39 09-B4. Hold On (I Feel Our Love Is Changing)
DR13 -0.49 dB -17.28 dB 3:54 10-B5. Even A Fool Would Let Go
––––––––––––––––––––––––––––––––––––––––

Number of tracks: 10
Official DR value: DR13

Samplerate: 44100 Hz
Channels: 2
Bits per sample: 16
Bitrate: 807 kbps
Codec: FLAC
================================================================================



Joe Cocker: Collection (1969 - 1991) [Vinyl Rip 16/44 & mp3-320]

Tracklist VNL07 - Cocker:
NL LP 1986 EMI Services Benelux B.V. • 1C 064 24 0424 1

01. Shelter Me [5:41]
02. A To Z [4:22]
03. A3. Don't You Love Me Anymore [5:27]
04. A4. Living Without Your Love [4:12]
05. A5. Don't Drink The Water [3:27]
06. B1. You Can Leave Your Hat On [4:15]
07. B2. Heart Of The Matter [4:21]
08. B3. Inner City Blues [5:53]
09. B4. Love Is On A Fade [4:08]
10. B5. Heaven [4:35]

foobar2000 1.2.9 / Dynamic Range Meter 1.1.1
log date: 2016-12-17 12:16:06

––––––––––––––––––––––––––––––––––––––––
Analyzed: JOE COCKER / Cocker (Holland, Capitol, 1C 064 2404241)
––––––––––––––––––––––––––––––––––––––––

DR Peak RMS Duration Track
––––––––––––––––––––––––––––––––––––––––
DR13 -0.13 dB -14.92 dB 5:41 01-A1. Shelter Me
DR14 -0.33 dB -16.07 dB 4:22 02-A2. A To Z
DR11 -0.95 dB -14.43 dB 5:27 03-A3. Don't You Love Me Anymore
DR11 -2.69 dB -17.19 dB 4:12 04-A4. Living Without Your Love
DR13 -1.61 dB -17.02 dB 3:27 05-A5. Don't Drink The Water
DR14 -0.03 dB -15.41 dB 4:15 06-B1. You Can Leave Your Hat On
DR14 -1.11 dB -17.40 dB 4:21 07-B2. Heart Of The Matter
DR15 -1.25 dB -18.33 dB 5:53 08-B3. Inner City Blues
DR14 -1.41 dB -17.07 dB 4:08 09-B4. Love Is On A Fade
DR12 -2.01 dB -18.04 dB 4:35 10-B5. Heaven
––––––––––––––––––––––––––––––––––––––––

Number of tracks: 10
Official DR value: DR13

Samplerate: 44100 Hz
Channels: 2
Bits per sample: 16
Bitrate: 849 kbps
Codec: FLAC
================================================================================



Joe Cocker: Collection (1969 - 1991) [Vinyl Rip 16/44 & mp3-320]

Tracklist VNL08 - Unchain My Heart:
US LP 1987 Capitol Records, Inc. • 15062 3

01. A1. Unchain My Heart [5:05]
02. A2. Two Wrongs [4:04]
03. A3. I Stand In Wonder [4:22]
04. A4. The River's Rising [4:10]
05. A5. Isolation [3:52]
06. B1. All Our Tomorrows [4:25]
07. B2. A Woman Loves A Man [4:16]
08. B3. Trust In Me [4:15]
09. B4. The One [4:37]
10. B5. Satisfied [3:24]

foobar2000 1.2.9 / Dynamic Range Meter 1.1.1
log date: 2016-12-17 12:16:19

––––––––––––––––––––––––––––––––––––––––
Analyzed: JOE COCKER / Unchain My Heart (USA, Capitol, 15062 3)
––––––––––––––––––––––––––––––––––––––––

DR Peak RMS Duration Track
––––––––––––––––––––––––––––––––––––––––
DR15 -1.53 dB -17.69 dB 5:05 01-A1. Unchain My Heart
DR14 -0.93 dB -16.89 dB 4:04 02-A2. Two Wrongs
DR12 -1.84 dB -17.31 dB 4:22 03-A3. I Stand In Wonder
DR14 -1.86 dB -17.79 dB 4:10 04-A4. The River's Rising
DR13 -4.13 dB -20.07 dB 3:52 05-A5. Isolation
DR14 -2.00 dB -18.53 dB 4:25 06-B1. All Our Tomorrows
DR13 -3.24 dB -18.09 dB 4:16 07-B2. A Woman Loves A Man
DR14 -1.81 dB -17.24 dB 4:15 08-B3. Trust In Me
DR13 -3.46 dB -19.21 dB 4:37 09-B4. The One
DR13 -1.54 dB -15.88 dB 3:24 10-B5. Satisfied
––––––––––––––––––––––––––––––––––––––––

Number of tracks: 10
Official DR value: DR13

Samplerate: 44100 Hz
Channels: 2
Bits per sample: 16
Bitrate: 879 kbps
Codec: FLAC
================================================================================



Joe Cocker: Collection (1969 - 1991) [Vinyl Rip 16/44 & mp3-320]

Tracklist VNL09 - One Night Of Sin:
NL LP 1989 EMI Services Benelux B.V. • 064-79 1828 1

01. A1. When The Night Comes [5:22]
02. A2. I Will Live For You [4:09]
03. A3. Got To Use My Imagination [4:25]
04. A4. Letting Go [4:12]
05. A5. Just To Keep From Drowning [4:38]
06. B1. Another Mind Gone [4:45]
07. B2. Fever [3:39]
08. B3. You Know It's Gonna Hurt [3:57]
09. B4. Bad Bad Sign [4:09]
10. B5. I'm Your Man [3:53]
11. B6. One Night Of Sin [3:15]

foobar2000 1.2.9 / Dynamic Range Meter 1.1.1
log date: 2016-12-17 12:16:33

––––––––––––––––––––––––––––––––––––––––
Analyzed: JOE COCKER / One Night Of Sin (Holland, EMI, 064-79 1828 1)
––––––––––––––––––––––––––––––––––––––––

DR Peak RMS Duration Track
––––––––––––––––––––––––––––––––––––––––
DR12 -2.45 dB -16.27 dB 5:22 01-A1. When The Night Comes
DR12 -2.56 dB -16.34 dB 4:09 02-A2. I Will Live For You
DR13 -2.72 dB -17.69 dB 4:25 03-A3. Got To Use My Imagination
DR12 -3.28 dB -18.29 dB 4:12 04-A4. Letting Go
DR13 -2.79 dB -17.55 dB 4:38 05-A5. Just To Keep From Drowning
DR13 -2.06 dB -15.77 dB 4:45 06-B1. Another Mind Gone
DR13 -2.10 dB -16.69 dB 3:39 07-B2. Fever
DR11 -3.29 dB -16.70 dB 3:57 08-B3. You Know It's Gonna Hurt
DR13 -2.41 dB -17.46 dB 4:09 09-B4. Bad Bad Sign
DR14 -2.18 dB -17.79 dB 3:53 10-B5. I'm Your Man
DR13 -3.35 dB -17.92 dB 3:15 11-B6. One Night Of Sin
––––––––––––––––––––––––––––––––––––––––

Number of tracks: 11
Official DR value: DR13

Samplerate: 44100 Hz
Channels: 2
Bits per sample: 16
Bitrate: 892 kbps
Codec: FLAC
================================================================================



Joe Cocker: Collection (1969 - 1991) [Vinyl Rip 16/44 & mp3-320]

Tracklist VNL10 - Night Calls:
NL LP 1991 EMI Services Benelux B.V. • 068-79 5898 1

01. A1. Love Is Alive [3:57]
02. A2. Little Bit Of Love [2:28]
03. A3. Please No More [5:28]
04. A4. There's A Storm Coming [4:09]
05. A5. You've Got To Hide Your Love Away [5:02]
06. B1. I Can Hear The River [4:52]
07. B2. Don't Let The Sun Go Down On Me [5:30]
08. B3. Night Calls [3:28]
09. B4. Five Women [5:35]
10. B5. Can't Find My Way Home [3:29]

foobar2000 1.2.9 / Dynamic Range Meter 1.1.1
log date: 2016-12-17 12:16:46

––––––––––––––––––––––––––––––––––––––––
Analyzed: JOE COCKER / Night Calls (Holland, EMI, 068-79 5898 1)
––––––––––––––––––––––––––––––––––––––––

DR Peak RMS Duration Track
––––––––––––––––––––––––––––––––––––––––
DR13 -1.27 dB -15.87 dB 3:57 01-A1. Love Is Alive
DR13 -0.52 dB -15.35 dB 2:28 02-A2. Little Bit Of Love
DR13 -3.29 dB -17.65 dB 5:28 03-A3. Please No More
DR13 -1.54 dB -17.47 dB 4:09 04-A4. There's A Storm Coming
DR12 -1.41 dB -16.52 dB 5:02 05-A5. You've Got To Hide Your Love Away
DR13 -0.42 dB -15.58 dB 4:52 06-B1. I Can Hear The River
DR12 -0.90 dB -17.40 dB 5:30 07-B2. Don't Let The Sun Go Down On Me
DR10 -2.17 dB -14.30 dB 3:28 08-B3. Night Calls
DR15 -0.89 dB -17.76 dB 5:35 09-B4. Five Women
DR14 -0.17 dB -16.28 dB 3:29 10-B5. Can't Find My Way Home
––––––––––––––––––––––––––––––––––––––––

Number of tracks: 10
Official DR value: DR13

Samplerate: 44100 Hz
Channels: 2
Bits per sample: 16
Bitrate: 876 kbps
Codec: FLAC
================================================================================



All thanks goes to doctorrs, bezbazara, bazar, Alex Blackseam & KoGGaN