Subcategories
Tags
Language
Tags

Joe Cocker - The Album Recordings 1984-2007 (2016) {14CD Box Set}

Posted By: popsakov
Joe Cocker - The Album Recordings 1984-2007 (2016) {14CD Box Set}

Joe Cocker - The Album Recordings 1984-2007 (2016) {14CD Box Set}
EAC Rip | FLAC (Img) + Cue + Log ~ 4,85 Gb | MP3 CBR320 ~ 1,76 Gb
Covers Included / Scans (Box & Booklet) ~ 47 Mb | 12:12:59 | RAR 5% Recovery
Rock, Blues | Parlophone Records #0190295996598

UK release. This collection comprises all of Cocker's studio albums released from 1984 - 2007, including Live recordings, rarities, additional content from European deluxe discs, US Album versions and songs found in tribute albums from the likes of Elton John and Bruce Springsteen. The albums included in this box are: 1. Civilised Man (1984) 2. Cocker (1986) 3. Unchain My Heart (1987) 4. One Night Of Sin (1989) 5. Joe Cocker (Live) (1990) 6. Night Calls (1992) 7. Have A Little Faith (1994) 8. Organic (1996) 9. Across From Midnight (1997) 10. No Ordinary World (1999) 11. Respect Yourself (2002) 12. Heart & Soul (2004) 13. Hymn For My Soul (2007) 14. Related Recordings (Exclusive Bonus Disc).

***************

CD1: Joe Cocker - Civilized Man (1984/2016)

Joe Cocker - The Album Recordings 1984-2007 (2016) {14CD Box Set}

Joe Cocker - The Album Recordings 1984-2007 (2016) {14CD Box Set}

Track List:

01. Civilized Man [3:56]
02. There Goes My Baby [3:47]
03. Come on In [3:49]
04. Tempted [4:15]
05. Long Drag Off a Cigarette [2:35]
06. I Love the Night [3:49]
07. Crazy in Love [3:52]
08. A Girl Like You [3:09]
09. Hold On (I Feel Our Love Is Changing) [3:42]
10. Even a Fool Would Let Go [3:52]

Exact Audio Copy V1.1 from 23. June 2015

EAC extraction logfile from 27. August 2016, 19:32

Joe Cocker / Civilized Man

Used drive : ATAPI iHAS122 C Adapter: 1 ID: 0

Read mode : Secure
Utilize accurate stream : Yes
Defeat audio cache : Yes
Make use of C2 pointers : No

Read offset correction : 6
Overread into Lead-In and Lead-Out : No
Fill up missing offset samples with silence : Yes
Delete leading and trailing silent blocks : No
Null samples used in CRC calculations : Yes
Used interface : Native Win32 interface for Win NT & 2000

Used output format : Internal WAV Routines
Sample format : 44.100 Hz; 16 Bit; Stereo


TOC of the extracted CD

Track | Start | Length | Start sector | End sector
––––––––––––––––––––––––––––-
1 | 0:00.00 | 3:55.40 | 0 | 17664
2 | 3:55.40 | 3:47.23 | 17665 | 34712
3 | 7:42.63 | 3:49.12 | 34713 | 51899
4 | 11:32.00 | 4:15.28 | 51900 | 71052
5 | 15:47.28 | 2:34.72 | 71053 | 82674
6 | 18:22.25 | 3:48.58 | 82675 | 99832
7 | 22:11.08 | 3:52.12 | 99833 | 117244
8 | 26:03.20 | 3:09.23 | 117245 | 131442
9 | 29:12.43 | 3:41.42 | 131443 | 148059
10 | 32:54.10 | 3:52.12 | 148060 | 165471


Range status and errors

Selected range

Filename C:\Users\Arturs\Desktop\Joe Cocker - Civilized Man.wav

Peak level 83.6 %
Extraction speed 2.8 X
Range quality 100.0 %
Test CRC FDFF767C
Copy CRC FDFF767C
Copy OK

No errors occurred


AccurateRip summary

Track 1 not present in database
Track 2 not present in database
Track 3 not present in database
Track 4 not present in database
Track 5 not present in database
Track 6 not present in database
Track 7 not present in database
Track 8 not present in database
Track 9 not present in database
Track 10 not present in database

None of the tracks are present in the AccurateRip database

End of status report

–– CUETools DB Plugin V2.1.6

[CTDB TOCID: vSunKXICI3LiJikYDSO.8hdh4wA-] disk not present in database
Submit result: vSunKXICI3LiJikYDSO.8hdh4wA- has been uploaded


==== Log checksum 8EB6177354E783B238B0F95E9384929949E479FDB7F5DEB70877583D395D1D6D ====

foobar2000 1.2.6 / Dynamic Range Meter 1.1.1
log date: 2016-08-31 02:24:00

––––––––––––––––––––––––––––––––––––––––
Analyzed: Joe Cocker / Civilized Man
––––––––––––––––––––––––––––––––––––––––

DR Peak RMS Duration Track
––––––––––––––––––––––––––––––––––––––––
DR16 -2.66 dB -21.53 dB 3:56 01-Civilized Man
DR15 -3.69 dB -21.30 dB 3:47 02-There Goes My Baby
DR13 -2.88 dB -18.81 dB 3:49 03-Come on In
DR15 -4.02 dB -21.54 dB 4:15 04-Tempted
DR15 -5.32 dB -25.97 dB 2:35 05-Long Drag Off a Cigarette
DR14 -3.31 dB -19.74 dB 3:49 06-I Love the Night
DR14 -3.88 dB -21.14 dB 3:52 07-Crazy in Love
DR13 -4.32 dB -18.38 dB 3:09 08-A Girl Like You
DR14 -1.55 dB -19.05 dB 3:42 09-Hold On (I Feel Our Love Is Changing)
DR14 -3.01 dB -22.06 dB 3:52 10-Even a Fool Would Let Go
––––––––––––––––––––––––––––––––––––––––

Number of tracks: 10
Official DR value: DR14

Samplerate: 44100 Hz
Channels: 2
Bits per sample: 16
Bitrate: 732 kbps
Codec: FLAC
================================================================================

[CUETools log; Date: 31.08.2016 2:23:58; Version: 2.1.5]
[CTDB TOCID: vSunKXICI3LiJikYDSO.8hdh4wA-] found.
Track | CTDB Status
1 | (2/2) Accurately ripped
2 | (2/2) Accurately ripped
3 | (2/2) Accurately ripped
4 | (2/2) Accurately ripped
5 | (2/2) Accurately ripped
6 | (2/2) Accurately ripped
7 | (2/2) Accurately ripped
8 | (2/2) Accurately ripped
9 | (2/2) Accurately ripped
10 | (2/2) Accurately ripped
[AccurateRip ID: 000e09fb-006fadab-8e089e0a] disk not present in database.

Track Peak [ CRC32 ] [W/O NULL] [ LOG ]
– 83,6 [FDFF767C] [5662A051] CRC32
01 73,5 [7423C8E9] [FB31775A]
02 65,3 [9039EC5A] [960CAD0F]
03 71,7 [2FDA57A7] [BAED1D3E]
04 62,9 [2238E801] [6C495A37]
05 54,2 [7D6DA12D] [44C963D2]
06 68,3 [7D42C05D] [AC1511EB]
07 63,9 [709CAE11] [DA8739FD]
08 60,8 [A9F2AD2D] [CCF47DFA]
09 83,6 [51A6381D] [56C8F5D7]
10 70,7 [8D9EACD0] [F7E9D858]

***************

CD2: Joe Cocker - Cocker (1986/2016)

Joe Cocker - The Album Recordings 1984-2007 (2016) {14CD Box Set}

Track List:

01. Shelter Me [5:41]
02. A to Z [4:20]
03. Don’t You Love Me Anymore [5:26]
04. Living Without Your Love [4:12]
05. Don’t Drink the Water [3:28]
06. You Can Leave Your Hat On [4:15]
07. Heart of the Matter [4:21]
08. Inner City Blues [5:53]
09. Love Is on a Fade [4:06]
10. Heaven [4:34]

Exact Audio Copy V1.1 from 23. June 2015

EAC extraction logfile from 27. August 2016, 18:58

Joe Cocker / Cocker

Used drive : ATAPI iHAS122 C Adapter: 1 ID: 0

Read mode : Secure
Utilize accurate stream : Yes
Defeat audio cache : Yes
Make use of C2 pointers : No

Read offset correction : 6
Overread into Lead-In and Lead-Out : No
Fill up missing offset samples with silence : Yes
Delete leading and trailing silent blocks : No
Null samples used in CRC calculations : Yes
Used interface : Native Win32 interface for Win NT & 2000

Used output format : Internal WAV Routines
Sample format : 44.100 Hz; 16 Bit; Stereo


TOC of the extracted CD

Track | Start | Length | Start sector | End sector
––––––––––––––––––––––––––––-
1 | 0:00.00 | 5:40.68 | 0 | 25567
2 | 5:40.68 | 4:20.35 | 25568 | 45102
3 | 10:01.28 | 5:26.02 | 45103 | 69554
4 | 15:27.30 | 4:11.50 | 69555 | 88429
5 | 19:39.05 | 3:27.53 | 88430 | 104007
6 | 23:06.58 | 4:15.22 | 104008 | 123154
7 | 27:22.05 | 4:21.08 | 123155 | 142737
8 | 31:43.13 | 5:53.22 | 142738 | 169234
9 | 37:36.35 | 4:06.10 | 169235 | 187694
10 | 41:42.45 | 4:33.54 | 187695 | 208223


Range status and errors

Selected range

Filename C:\Users\Arturs\Desktop\Joe Cocker - Cocker.wav

Peak level 99.0 %
Extraction speed 3.0 X
Range quality 100.0 %
Test CRC F76F5BFB
Copy CRC F76F5BFB
Copy OK

No errors occurred


AccurateRip summary

Track 1 not present in database
Track 2 not present in database
Track 3 not present in database
Track 4 not present in database
Track 5 not present in database
Track 6 not present in database
Track 7 not present in database
Track 8 not present in database
Track 9 not present in database
Track 10 not present in database

None of the tracks are present in the AccurateRip database

End of status report

–– CUETools DB Plugin V2.1.6

[CTDB TOCID: s73IeDYqVUbHP_5blJZMwspnpSM-] disk not present in database
Submit result: s73IeDYqVUbHP_5blJZMwspnpSM- has been uploaded


==== Log checksum 6889DAAAB71305EEF0666FD668668F58B239802FCAEA85F6B0408BCA91A1AC92 ====

foobar2000 1.2.6 / Dynamic Range Meter 1.1.1
log date: 2016-08-31 02:27:21

––––––––––––––––––––––––––––––––––––––––
Analyzed: Joe Cocker / Cocker
––––––––––––––––––––––––––––––––––––––––

DR Peak RMS Duration Track
––––––––––––––––––––––––––––––––––––––––
DR13 -0.72 dB -15.36 dB 5:41 01-Shelter Me
DR13 -1.08 dB -16.53 dB 4:20 02-A to Z
DR12 -1.17 dB -15.27 dB 5:26 03-Don’t You Love Me Anymore
DR11 -1.85 dB -16.75 dB 4:12 04-Living Without Your Love
DR13 -0.88 dB -16.60 dB 3:28 05-Don’t Drink the Water
DR15 -0.08 dB -17.05 dB 4:15 06-You Can Leave Your Hat On
DR14 -1.71 dB -17.98 dB 4:21 07-Heart of the Matter
DR15 -2.16 dB -18.91 dB 5:53 08-Inner City Blues
DR14 -0.81 dB -17.56 dB 4:06 09-Love Is on a Fade
DR13 -1.93 dB -18.68 dB 4:34 10-Heaven
––––––––––––––––––––––––––––––––––––––––

Number of tracks: 10
Official DR value: DR13

Samplerate: 44100 Hz
Channels: 2
Bits per sample: 16
Bitrate: 830 kbps
Codec: FLAC
================================================================================

[CUETools log; Date: 31.08.2016 2:27:24; Version: 2.1.5]
[CTDB TOCID: s73IeDYqVUbHP_5blJZMwspnpSM-] found.
Track | CTDB Status
1 | (2/2) Accurately ripped
2 | (2/2) Accurately ripped
3 | (2/2) Accurately ripped
4 | (2/2) Accurately ripped
5 | (2/2) Accurately ripped
6 | (2/2) Accurately ripped
7 | (2/2) Accurately ripped
8 | (2/2) Accurately ripped
9 | (2/2) Accurately ripped
10 | (2/2) Accurately ripped
[AccurateRip ID: 0011c1bf-008cc4a6-810ad80a] disk not present in database.

Track Peak [ CRC32 ] [W/O NULL] [ LOG ]
– 99,0 [F76F5BFB] [5FD28834] CRC32
01 92,0 [B953147A] [9CAAE5DC]
02 88,3 [0692F6B2] [0BD330B6]
03 87,3 [FBD9BAAF] [F58E80A7]
04 80,7 [E606814B] [78711E92]
05 90,3 [6AD14A23] [10247C26]
06 99,0 [08400444] [B46D0E16]
07 82,1 [B7A1CC32] [62BFDDFB]
08 78,0 [DD5C60E3] [FFAD85D0]
09 91,1 [D44BFCED] [89463B07]
10 80,0 [B8E375F3] [5850B99F]

***************

CD3: Joe Cocker - Unchain My Heart (1987/2016)

Joe Cocker - The Album Recordings 1984-2007 (2016) {14CD Box Set}

Track List:

01. Unchain My Heart [5:04]
02. Two Wrongs [4:04]
03. I Stand In Wonder [4:23]
04. The River's Rising [4:09]
05. Isolation [3:52]
06. All Our Tomorrows [4:25]
07. A Woman Loves A Man [4:17]
08. Trust In Me [4:16]
09. The One [4:38]
10. Satisfied [3:25]

Exact Audio Copy V1.1 from 23. June 2015

EAC extraction logfile from 27. August 2016, 20:11

Joe Cocker / Unchain My Heart

Used drive : ATAPI iHAS122 C Adapter: 1 ID: 0

Read mode : Secure
Utilize accurate stream : Yes
Defeat audio cache : Yes
Make use of C2 pointers : No

Read offset correction : 6
Overread into Lead-In and Lead-Out : No
Fill up missing offset samples with silence : Yes
Delete leading and trailing silent blocks : No
Null samples used in CRC calculations : Yes
Used interface : Native Win32 interface for Win NT & 2000

Used output format : Internal WAV Routines
Sample format : 44.100 Hz; 16 Bit; Stereo


TOC of the extracted CD

Track | Start | Length | Start sector | End sector
––––––––––––––––––––––––––––-
1 | 0:00.00 | 5:04.22 | 0 | 22821
2 | 5:04.22 | 4:04.23 | 22822 | 41144
3 | 9:08.45 | 4:22.62 | 41145 | 60856
4 | 13:31.32 | 4:09.10 | 60857 | 79541
5 | 17:40.42 | 3:52.08 | 79542 | 96949
6 | 21:32.50 | 4:24.60 | 96950 | 116809
7 | 25:57.35 | 4:16.67 | 116810 | 136076
8 | 30:14.27 | 4:15.38 | 136077 | 155239
9 | 34:29.65 | 4:37.50 | 155240 | 176064
10 | 39:07.40 | 3:24.52 | 176065 | 191416


Range status and errors

Selected range

Filename C:\Users\Arturs\Desktop\JOE COCKER\Joe Cocker - Unchain My Heart.wav

Peak level 90.6 %
Extraction speed 7.7 X
Range quality 100.0 %
Test CRC B3919099
Copy CRC B3919099
Copy OK

No errors occurred


AccurateRip summary

Track 1 not present in database
Track 2 not present in database
Track 3 not present in database
Track 4 not present in database
Track 5 not present in database
Track 6 not present in database
Track 7 not present in database
Track 8 not present in database
Track 9 not present in database
Track 10 not present in database

None of the tracks are present in the AccurateRip database

End of status report

–– CUETools DB Plugin V2.1.6

[CTDB TOCID: cXV_nrbqgzWgNfHtw3l.FBFKVxA-] disk not present in database
Submit result: cXV_nrbqgzWgNfHtw3l.FBFKVxA- has been uploaded


==== Log checksum B2B0F261057905BD67027BB154E9B41BE8A07467E89D2108915A44321546AC03 ====

foobar2000 1.2.6 / Dynamic Range Meter 1.1.1
log date: 2016-08-31 02:29:26

––––––––––––––––––––––––––––––––––––––––
Analyzed: Joe Cocker / Unchain My Heart
––––––––––––––––––––––––––––––––––––––––

DR Peak RMS Duration Track
––––––––––––––––––––––––––––––––––––––––
DR15 -1.67 dB -18.38 dB 5:04 01-Unchain My Heart
DR15 -0.86 dB -17.55 dB 4:04 02-Two Wrongs
DR13 -2.29 dB -18.04 dB 4:23 03-I Stand In Wonder
DR15 -1.54 dB -18.36 dB 4:09 04-The River's Rising
DR14 -4.05 dB -20.63 dB 3:52 05-Isolation
DR15 -1.45 dB -19.21 dB 4:25 06-All Our Tomorrows
DR13 -3.94 dB -18.82 dB 4:17 07-A Woman Loves A Man
DR14 -2.13 dB -17.93 dB 4:16 08-Trust In Me
DR14 -2.52 dB -19.86 dB 4:38 09-The One
DR13 -1.86 dB -16.49 dB 3:25 10-Satisfied
––––––––––––––––––––––––––––––––––––––––

Number of tracks: 10
Official DR value: DR14

Samplerate: 44100 Hz
Channels: 2
Bits per sample: 16
Bitrate: 870 kbps
Codec: FLAC
================================================================================

[CUETools log; Date: 31.08.2016 2:29:26; Version: 2.1.5]
[CTDB TOCID: cXV_nrbqgzWgNfHtw3l.FBFKVxA-] found.
Track | CTDB Status
1 | (2/2) Accurately ripped
2 | (2/2) Accurately ripped
3 | (2/2) Accurately ripped
4 | (2/2) Accurately ripped
5 | (2/2) Accurately ripped
6 | (2/2) Accurately ripped
7 | (2/2) Accurately ripped
8 | (2/2) Accurately ripped
9 | (2/2) Accurately ripped
10 | (2/2) Accurately ripped
[AccurateRip ID: 00106ebd-0082a3c1-7a09f80a] disk not present in database.

Track Peak [ CRC32 ] [W/O NULL] [ LOG ]
– 90,6 [B3919099] [5D50C53F] CRC32
01 82,4 [1B887017] [4C371A6B]
02 90,6 [DCE2F411] [C3EAD6E5]
03 76,8 [CDA602C7] [C5A6CE21]
04 83,7 [E8899EE9] [733968EF]
05 62,7 [82833664] [CEA56C53]
06 84,6 [200ED3E5] [300D1E93]
07 63,5 [F4B50088] [C43806B7]
08 78,2 [72B65C39] [E1C6635E]
09 74,8 [8390BBE0] [A8F7D753]
10 80,7 [79C00200] [C807506D]

***************

CD4: Joe Cocker - One Night Of Sin (1989/2016)

Joe Cocker - The Album Recordings 1984-2007 (2016) {14CD Box Set}

Track List:

01. When the Night Comes [5:20]
02. I Will Live for You [4:10]
03. Got to Use My Imagination [4:25]
04. Letting Go [4:12]
05. Just to Keep From Drowning [4:41]
06. Unforgiven [3:30]
07. Another Mind Gone [4:45]
08. Fever [3:39]
09. You Know It’s Gonna Hurt [3:58]
10. Bad Bad Sign [4:09]
11. I’m Your Man [3:52]
12. One Night of Sin [3:14]

Exact Audio Copy V1.1 from 23. June 2015

EAC extraction logfile from 27. August 2016, 21:41

Joe Cocker / One Night of Sin

Used drive : ATAPI iHAS122 C Adapter: 1 ID: 0

Read mode : Secure
Utilize accurate stream : Yes
Defeat audio cache : Yes
Make use of C2 pointers : No

Read offset correction : 6
Overread into Lead-In and Lead-Out : No
Fill up missing offset samples with silence : Yes
Delete leading and trailing silent blocks : No
Null samples used in CRC calculations : Yes
Used interface : Native Win32 interface for Win NT & 2000

Used output format : Internal WAV Routines
Sample format : 44.100 Hz; 16 Bit; Stereo


TOC of the extracted CD

Track | Start | Length | Start sector | End sector
––––––––––––––––––––––––––––-
1 | 0:00.00 | 5:20.10 | 0 | 24009
2 | 5:20.10 | 4:09.55 | 24010 | 42739
3 | 9:29.65 | 4:25.10 | 42740 | 62624
4 | 13:55.00 | 4:11.68 | 62625 | 81517
5 | 18:06.68 | 4:40.42 | 81518 | 102559
6 | 22:47.35 | 3:29.65 | 102560 | 118299
7 | 26:17.25 | 4:44.50 | 118300 | 139649
8 | 31:02.00 | 3:38.48 | 139650 | 156047
9 | 34:40.48 | 3:57.62 | 156048 | 173884
10 | 38:38.35 | 4:09.10 | 173885 | 192569
11 | 42:47.45 | 3:52.23 | 192570 | 209992
12 | 46:39.68 | 3:13.57 | 209993 | 224524


Range status and errors

Selected range

Filename C:\Users\Arturs\Desktop\JOE COCKER\Joe Cocker - One Night of Sin.wav

Peak level 97.7 %
Extraction speed 8.0 X
Range quality 99.9 %
Test CRC E229F136
Copy CRC E229F136
Copy OK

No errors occurred


AccurateRip summary

Track 1 not present in database
Track 2 not present in database
Track 3 not present in database
Track 4 not present in database
Track 5 not present in database
Track 6 not present in database
Track 7 not present in database
Track 8 not present in database
Track 9 not present in database
Track 10 not present in database
Track 11 not present in database
Track 12 not present in database

None of the tracks are present in the AccurateRip database

End of status report

–– CUETools DB Plugin V2.1.6

[CTDB TOCID: fj7Fc791VdCSNEW2MDMDP7tYeqk-] disk not present in database
Submit result: fj7Fc791VdCSNEW2MDMDP7tYeqk- has been uploaded


==== Log checksum 069E787C6938CCD16A1BF42DE9094009E2FF7EB399AE553AF86534FB973B54C9 ====

foobar2000 1.2.6 / Dynamic Range Meter 1.1.1
log date: 2016-08-31 02:31:14

––––––––––––––––––––––––––––––––––––––––
Analyzed: Joe Cocker / One Night of Sin
––––––––––––––––––––––––––––––––––––––––

DR Peak RMS Duration Track
––––––––––––––––––––––––––––––––––––––––
DR11 -0.40 dB -12.78 dB 5:20 01-When the Night Comes
DR11 -0.40 dB -13.00 dB 4:10 02-I Will Live for You
DR12 -0.40 dB -13.99 dB 4:25 03-Got to Use My Imagination
DR11 -0.40 dB -14.45 dB 4:12 04-Letting Go
DR12 -0.40 dB -13.79 dB 4:41 05-Just to Keep From Drowning
DR13 -0.89 dB -18.24 dB 3:30 06-Unforgiven
DR11 -0.40 dB -12.62 dB 4:45 07-Another Mind Gone
DR12 -0.40 dB -13.56 dB 3:39 08-Fever
DR10 -0.59 dB -13.51 dB 3:58 09-You Know It’s Gonna Hurt
DR13 -0.40 dB -14.43 dB 4:09 10-Bad Bad Sign
DR13 -0.20 dB -14.62 dB 3:52 11-I’m Your Man
DR13 -0.20 dB -14.70 dB 3:14 12-One Night of Sin
––––––––––––––––––––––––––––––––––––––––

Number of tracks: 12
Official DR value: DR12

Samplerate: 44100 Hz
Channels: 2
Bits per sample: 16
Bitrate: 929 kbps
Codec: FLAC
================================================================================

[CUETools log; Date: 31.08.2016 2:31:18; Version: 2.1.5]
[CTDB TOCID: fj7Fc791VdCSNEW2MDMDP7tYeqk-] found.
Track | CTDB Status
1 | (2/2) Accurately ripped
2 | (2/2) Accurately ripped
3 | (2/2) Accurately ripped
4 | (2/2) Accurately ripped
5 | (2/2) Accurately ripped
6 | (2/2) Accurately ripped
7 | (2/2) Accurately ripped
8 | (2/2) Accurately ripped
9 | (2/2) Accurately ripped
10 | (2/2) Accurately ripped
11 | (2/2) Accurately ripped
12 | (2/2) Accurately ripped
[AccurateRip ID: 00175268-00d713b4-a90bb10c] disk not present in database.

Track Peak [ CRC32 ] [W/O NULL] [ LOG ]
– 97,7 [E229F136] [FC8FFCE8] CRC32
01 95,4 [5A871D49] [F21BE760]
02 95,4 [C3F4100B] [2B3E8C94]
03 95,5 [A821F8E5] [B86A1F51]
04 95,4 [C09BE14B] [21CEA9E0]
05 95,4 [F592174B] [5A0B06DD]
06 90,2 [6D086FE6] [2D660EEC]
07 95,5 [6158F69D] [1C59DAC6]
08 95,4 [F9DE80E8] [A8F51FBD]
09 93,4 [278E55AB] [D11FA131]
10 95,5 [3CF5D787] [4EBEB597]
11 97,7 [49AE051C] [6468E338]
12 97,7 [C5F51D49] [B8D66E33]

***************

CD5: Joe Cocker - Live (1990/2016)

Joe Cocker - The Album Recordings 1984-2007 (2016) {14CD Box Set}

Track List:

01. Feelin’ Alright [5:11]
02. Shelter Me [4:30]
03. Hitchcock Railway [4:03]
04. Up Where We Belong [4:39]
05. Guilty [2:46]
06. You Can Leave Your Hat On [4:32]
07. When the Night Comes [4:56]
08. Unchain My Heart [5:57]
09. With a Little Help From My Friends [9:27]
10. You Are So Beautiful [2:47]
11. The Letter [4:41]
12. She Came in Through the Bathroom Window [2:36]
13. High Time We Went [8:01]
14. What Are You Doing With a Fool Like Me [4:50]
15. Living in the Promiseland [3:55]

Exact Audio Copy V1.1 from 23. June 2015

EAC extraction logfile from 27. August 2016, 22:31

Joe Cocker / Live

Used drive : ATAPI iHAS122 C Adapter: 1 ID: 0

Read mode : Secure
Utilize accurate stream : Yes
Defeat audio cache : Yes
Make use of C2 pointers : No

Read offset correction : 6
Overread into Lead-In and Lead-Out : No
Fill up missing offset samples with silence : Yes
Delete leading and trailing silent blocks : No
Null samples used in CRC calculations : Yes
Used interface : Native Win32 interface for Win NT & 2000

Used output format : Internal WAV Routines
Sample format : 44.100 Hz; 16 Bit; Stereo


TOC of the extracted CD

Track | Start | Length | Start sector | End sector
––––––––––––––––––––––––––––-
1 | 0:00.00 | 5:11.25 | 0 | 23349
2 | 5:11.25 | 4:29.58 | 23350 | 43582
3 | 9:41.08 | 4:03.22 | 43583 | 61829
4 | 13:44.30 | 4:39.34 | 61830 | 82788
5 | 18:23.64 | 2:45.64 | 82789 | 95227
6 | 21:09.53 | 4:31.52 | 95228 | 115604
7 | 25:41.30 | 4:55.50 | 115605 | 137779
8 | 30:37.05 | 5:57.18 | 137780 | 164572
9 | 36:34.23 | 9:27.27 | 164573 | 207124
10 | 46:01.50 | 2:46.45 | 207125 | 219619
11 | 48:48.20 | 4:40.55 | 219620 | 240674
12 | 53:29.00 | 2:36.03 | 240675 | 252377
13 | 56:05.03 | 8:01.32 | 252378 | 288484
14 | 64:06.35 | 4:50.13 | 288485 | 310247
15 | 68:56.48 | 3:54.68 | 310248 | 327865


Range status and errors

Selected range

Filename C:\Users\Arturs\Desktop\JOE COCKER\Joe Cocker - Live.wav

Peak level 100.0 %
Extraction speed 3.5 X
Range quality 100.0 %
Test CRC 3356C3A2
Copy CRC 3356C3A2
Copy OK

No errors occurred


AccurateRip summary

Track 1 not present in database
Track 2 not present in database
Track 3 not present in database
Track 4 not present in database
Track 5 not present in database
Track 6 not present in database
Track 7 not present in database
Track 8 not present in database
Track 9 not present in database
Track 10 not present in database
Track 11 not present in database
Track 12 not present in database
Track 13 not present in database
Track 14 not present in database
Track 15 not present in database

None of the tracks are present in the AccurateRip database

End of status report

–– CUETools DB Plugin V2.1.6

[CTDB TOCID: h5YIYtyPmwZAksgxc9bnyeX8jCQ-] disk not present in database
Submit result: h5YIYtyPmwZAksgxc9bnyeX8jCQ- has been uploaded


==== Log checksum 9508FB546D39F4C8FC01F37013B9744452F207992487750429DB6B8C70D87BE0 ====

foobar2000 1.2.6 / Dynamic Range Meter 1.1.1
log date: 2016-08-31 02:35:14

––––––––––––––––––––––––––––––––––––––––
Analyzed: Joe Cocker / Live
––––––––––––––––––––––––––––––––––––––––

DR Peak RMS Duration Track
––––––––––––––––––––––––––––––––––––––––
DR14 -0.74 dB -16.90 dB 5:11 01-Feelin’ Alright
DR14 -0.01 dB -15.51 dB 4:30 02-Shelter Me
DR14 -0.41 dB -15.60 dB 4:03 03-Hitchcock Railway
DR13 -1.55 dB -17.12 dB 4:39 04-Up Where We Belong
DR14 -3.32 dB -21.13 dB 2:46 05-Guilty
DR14 0.00 dB -15.66 dB 4:32 06-You Can Leave Your Hat On
DR13 -0.12 dB -14.69 dB 4:56 07-When the Night Comes
DR13 0.00 dB -13.85 dB 5:57 08-Unchain My Heart
DR12 -0.28 dB -14.83 dB 9:27 09-With a Little Help From My Friends
DR13 -2.76 dB -18.33 dB 2:47 10-You Are So Beautiful
DR13 0.00 dB -14.29 dB 4:41 11-The Letter
DR13 0.00 dB -13.93 dB 2:36 12-She Came in Through the Bathroom Window
DR14 -0.24 dB -15.03 dB 8:01 13-High Time We Went
DR11 0.00 dB -14.35 dB 4:50 14-What Are You Doing With a Fool Like Me
DR12 -0.24 dB -16.49 dB 3:55 15-Living in the Promiseland
––––––––––––––––––––––––––––––––––––––––

Number of tracks: 15
Official DR value: DR13

Samplerate: 44100 Hz
Channels: 2
Bits per sample: 16
Bitrate: 966 kbps
Codec: FLAC
================================================================================

[CUETools log; Date: 31.08.2016 2:35:14; Version: 2.1.5]
[CTDB TOCID: h5YIYtyPmwZAksgxc9bnyeX8jCQ-] found.
Track | CTDB Status
1 | (2/2) Accurately ripped
2 | (2/2) Accurately ripped
3 | (2/2) Accurately ripped
4 | (2/2) Accurately ripped
5 | (2/2) Accurately ripped
6 | (2/2) Accurately ripped
7 | (2/2) Accurately ripped
8 | (2/2) Accurately ripped
9 | (2/2) Accurately ripped
10 | (2/2) Accurately ripped
11 | (2/2) Accurately ripped
12 | (2/2) Accurately ripped
13 | (2/2) Accurately ripped
14 | (2/2) Accurately ripped
15 | (1/2) Accurately ripped
[AccurateRip ID: 00273b7f-01c090ad-d011130f] disk not present in database.

Track Peak [ CRC32 ] [W/O NULL] [ LOG ]
– 100,0 [3356C3A2] [BADBED41] CRC32
01 91,8 [A106D747] [E017E660]
02 99,8 [F5D1610F] [9548EE19]
03 95,4 [0F7E896D] [512D6D3D]
04 83,6 [64356D24] [33D9FB9D]
05 68,2 [D4129A4F] [5F29A192]
06 100,0 [C0DAC004] [FA63C914]
07 98,6 [F63110AC] [A8F99C96]
08 100,0 [85EDDC7E] [42C4EDAA]
09 96,8 [4BEFEC3D] [357FB80C]
10 72,7 [B1B8AAEA] [46AD9F7C]
11 100,0 [EB28F072] [F0FE367F]
12 100,0 [CF5902AF] [26296E97]
13 97,2 [61121A6E] [AE88F559]
14 100,0 [13FFAD19] [3AB632FE]
15 97,2 [07C2085B] [540C97CF]

***************

CD6: Joe Cocker - Night Calls (1992/2016)

Joe Cocker - The Album Recordings 1984-2007 (2016) {14CD Box Set}

Track List:

01. Love Is Alive [3:57]
02. Little Bit of Love [2:28]
03. Please No More [5:29]
04. There’s a Storm Coming [4:09]
05. You’ve Got to Hide Your Love Away [5:03]
06. I Can Hear the River [4:52]
07. Don’t Let the Sun Go Down on Me [5:30]
08. Night Calls [3:28]
09. Five Women [5:35]
10. Can’t Find My Way Home [3:30]
11. Not to Young to Die of a Broken Heart [4:20]
12. Out of the Rain [4:36]

Exact Audio Copy V1.1 from 23. June 2015

EAC extraction logfile from 28. August 2016, 7:01

Joe Cocker / Night Calls

Used drive : ATAPI iHAS122 C Adapter: 1 ID: 0

Read mode : Secure
Utilize accurate stream : Yes
Defeat audio cache : Yes
Make use of C2 pointers : No

Read offset correction : 6
Overread into Lead-In and Lead-Out : No
Fill up missing offset samples with silence : Yes
Delete leading and trailing silent blocks : No
Null samples used in CRC calculations : Yes
Used interface : Native Win32 interface for Win NT & 2000

Used output format : Internal WAV Routines
Sample format : 44.100 Hz; 16 Bit; Stereo


TOC of the extracted CD

Track | Start | Length | Start sector | End sector
––––––––––––––––––––––––––––-
1 | 0:00.00 | 3:57.35 | 0 | 17809
2 | 3:57.35 | 2:28.02 | 17810 | 28911
3 | 6:25.37 | 5:28.38 | 28912 | 53549
4 | 11:54.00 | 4:08.72 | 53550 | 72221
5 | 16:02.72 | 5:03.28 | 72222 | 94974
6 | 21:06.25 | 4:51.45 | 94975 | 116844
7 | 25:57.70 | 5:30.20 | 116845 | 141614
8 | 31:28.15 | 3:28.35 | 141615 | 157249
9 | 34:56.50 | 5:34.50 | 157250 | 182349
10 | 40:31.25 | 3:29.72 | 182350 | 198096
11 | 44:01.22 | 4:19.50 | 198097 | 217571
12 | 48:20.72 | 4:36.25 | 217572 | 238296


Range status and errors

Selected range

Filename C:\Users\Arturs\Desktop\JOE COCKER\Joe Cocker - Night Calls.wav

Peak level 100.0 %
Extraction speed 3.1 X
Range quality 100.0 %
Test CRC 888B932B
Copy CRC 888B932B
Copy OK

No errors occurred


AccurateRip summary

Track 1 not present in database
Track 2 not present in database
Track 3 not present in database
Track 4 not present in database
Track 5 not present in database
Track 6 not present in database
Track 7 not present in database
Track 8 not present in database
Track 9 not present in database
Track 10 not present in database
Track 11 not present in database
Track 12 not present in database

None of the tracks are present in the AccurateRip database

End of status report

–– CUETools DB Plugin V2.1.6

[CTDB TOCID: PUdzTW8_HqHa0Iej5YCVdyRKrsk-] disk not present in database
Submit result: PUdzTW8_HqHa0Iej5YCVdyRKrsk- has been uploaded


==== Log checksum 23E8859F262B10879FA312C5573615E641BE8F755153827155B886F96E8C5BB5 ====

foobar2000 1.2.6 / Dynamic Range Meter 1.1.1
log date: 2016-08-31 02:36:42

––––––––––––––––––––––––––––––––––––––––
Analyzed: Joe Cocker / Night Calls
––––––––––––––––––––––––––––––––––––––––

DR Peak RMS Duration Track
––––––––––––––––––––––––––––––––––––––––
DR12 0.00 dB -13.47 dB 3:57 01-Love Is Alive
DR11 0.00 dB -12.86 dB 2:28 02-Little Bit of Love
DR13 -0.24 dB -15.33 dB 5:29 03-Please No More
DR12 0.00 dB -14.97 dB 4:09 04-There’s a Storm Coming
DR11 0.00 dB -13.91 dB 5:03 05-You’ve Got to Hide Your Love Away
DR12 0.00 dB -13.31 dB 4:52 06-I Can Hear the River
DR12 0.00 dB -15.15 dB 5:30 07-Don’t Let the Sun Go Down on Me
DR10 -0.01 dB -11.82 dB 3:28 08-Night Calls
DR13 0.00 dB -14.45 dB 5:35 09-Five Women
DR12 0.00 dB -13.61 dB 3:30 10-Can’t Find My Way Home
DR12 0.00 dB -13.93 dB 4:20 11-Not to Young to Die of a Broken Heart
DR11 0.00 dB -13.95 dB 4:36 12-Out of the Rain
––––––––––––––––––––––––––––––––––––––––

Number of tracks: 12
Official DR value: DR12

Samplerate: 44100 Hz
Channels: 2
Bits per sample: 16
Bitrate: 877 kbps
Codec: FLAC
================================================================================

[CUETools log; Date: 31.08.2016 2:36:42; Version: 2.1.5]
[CTDB TOCID: PUdzTW8_HqHa0Iej5YCVdyRKrsk-] found.
Track | CTDB Status
1 | (2/2) Accurately ripped
2 | (2/2) Accurately ripped
3 | (2/2) Accurately ripped
4 | (2/2) Accurately ripped
5 | (2/2) Accurately ripped
6 | (2/2) Accurately ripped
7 | (2/2) Accurately ripped
8 | (2/2) Accurately ripped
9 | (2/2) Accurately ripped
10 | (2/2) Accurately ripped
11 | (2/2) Accurately ripped
12 | (2/2) Accurately ripped
[AccurateRip ID: 00172f87-00dae2be-b50c690c] disk not present in database.

Track Peak [ CRC32 ] [W/O NULL] [ LOG ]
– 100,0 [888B932B] [3F5AC558] CRC32
01 99,9 [A06974D6] [187B7390]
02 100,0 [81D00E89] [7BAEBB26]
03 97,2 [83309F72] [EA9909F5]
04 100,0 [11C2B308] [022742B6]
05 100,0 [DBFCE539] [C9BC28A7]
06 100,0 [733BD7DB] [321C7E76]
07 100,0 [02D76E80] [84101F9C]
08 99,8 [34FC46A6] [5EDF6326]
09 100,0 [C28F6E38] [365A14E1]
10 100,0 [4B945DDA] [53C519B7]
11 100,0 [B55B69CD] [04ED8EF0]
12 100,0 [DEB640BC] [32C487E2]

***************

CD7: Joe Cocker - Have a Little Faith (1994/2016)

Joe Cocker - The Album Recordings 1984-2007 (2016) {14CD Box Set}

Track List:

01. Let the Healing Begin [5:11]
02. Have a Little Faith in Me [4:41]
03. The Simple Things [4:51]
04. Summer in the City [3:55]
05. The Great Divide [3:37]
06. Highway Highway [4:33]
07. Too Cool [4:45]
08. Soul Time [4:35]
09. Out of the Blue [3:48]
10. Angeline [4:32]
11. Hell and Highwater [4:13]
12. Standing Knee Deep in a River [4:09]
13. Take Me Home [4:24]

Exact Audio Copy V1.1 from 23. June 2015

EAC extraction logfile from 28. August 2016, 8:03

Joe Cocker / Have a Little Faith

Used drive : ATAPI iHAS122 C Adapter: 1 ID: 0

Read mode : Secure
Utilize accurate stream : Yes
Defeat audio cache : Yes
Make use of C2 pointers : No

Read offset correction : 6
Overread into Lead-In and Lead-Out : No
Fill up missing offset samples with silence : Yes
Delete leading and trailing silent blocks : No
Null samples used in CRC calculations : Yes
Used interface : Native Win32 interface for Win NT & 2000

Used output format : Internal WAV Routines
Sample format : 44.100 Hz; 16 Bit; Stereo


TOC of the extracted CD

Track | Start | Length | Start sector | End sector
––––––––––––––––––––––––––––-
1 | 0:00.00 | 5:10.48 | 0 | 23297
2 | 5:10.48 | 4:41.21 | 23298 | 44393
3 | 9:51.69 | 4:50.49 | 44394 | 66192
4 | 14:42.43 | 3:55.05 | 66193 | 83822
5 | 18:37.48 | 3:36.60 | 83823 | 100082
6 | 22:14.33 | 4:33.12 | 100083 | 120569
7 | 26:47.45 | 4:44.45 | 120570 | 141914
8 | 31:32.15 | 4:35.25 | 141915 | 162564
9 | 36:07.40 | 3:47.48 | 162565 | 179637
10 | 39:55.13 | 4:31.62 | 179638 | 200024
11 | 44:27.00 | 4:12.65 | 200025 | 218989
12 | 48:39.65 | 4:08.45 | 218990 | 237634
13 | 52:48.35 | 4:23.54 | 237635 | 257413


Range status and errors

Selected range

Filename C:\Users\Arturs\Desktop\JOE COCKER\Joe Cocker - Have a Little Faith.wav

Peak level 100.0 %
Extraction speed 3.1 X
Range quality 100.0 %
Test CRC D50D170D
Copy CRC D50D170D
Copy OK

No errors occurred


AccurateRip summary

Track 1 not present in database
Track 2 not present in database
Track 3 not present in database
Track 4 not present in database
Track 5 not present in database
Track 6 not present in database
Track 7 not present in database
Track 8 not present in database
Track 9 not present in database
Track 10 not present in database
Track 11 not present in database
Track 12 not present in database
Track 13 not present in database

None of the tracks are present in the AccurateRip database

End of status report

–– CUETools DB Plugin V2.1.6

[CTDB TOCID: nTTH9eHEfUtyEaauuXiunha5usQ-] disk not present in database
Submit result: nTTH9eHEfUtyEaauuXiunha5usQ- has been uploaded


==== Log checksum 319D0763D5A54C3E03B9BEF02388C7900C974738C3E449135D719F683DFF6E50 ====

foobar2000 1.2.6 / Dynamic Range Meter 1.1.1
log date: 2016-08-31 02:39:08

––––––––––––––––––––––––––––––––––––––––
Analyzed: Joe Cocker / Have a Little Faith
––––––––––––––––––––––––––––––––––––––––

DR Peak RMS Duration Track
––––––––––––––––––––––––––––––––––––––––
DR11 0.00 dB -12.98 dB 5:11 01-Let the Healing Begin
DR11 0.00 dB -13.49 dB 4:41 02-Have a Little Faith in Me
DR13 0.00 dB -13.79 dB 4:51 03-The Simple Things
DR11 0.00 dB -12.26 dB 3:55 04-Summer in the City
DR11 0.00 dB -12.81 dB 3:37 05-The Great Divide
DR12 -1.28 dB -15.60 dB 4:33 06-Highway Highway
DR12 0.00 dB -14.01 dB 4:45 07-Too Cool
DR11 0.00 dB -12.50 dB 4:35 08-Soul Time
DR13 0.00 dB -15.09 dB 3:48 09-Out of the Blue
DR13 0.00 dB -13.80 dB 4:32 10-Angeline
DR11 0.00 dB -12.71 dB 4:13 11-Hell and Highwater
DR12 0.00 dB -15.58 dB 4:09 12-Standing Knee Deep in a River
DR11 0.00 dB -13.50 dB 4:24 13-Take Me Home
––––––––––––––––––––––––––––––––––––––––

Number of tracks: 13
Official DR value: DR12

Samplerate: 44100 Hz
Channels: 2
Bits per sample: 16
Bitrate: 915 kbps
Codec: FLAC
================================================================================

[CUETools log; Date: 31.08.2016 2:39:12; Version: 2.1.5]
[CTDB TOCID: nTTH9eHEfUtyEaauuXiunha5usQ-] found.
Track | CTDB Status
1 | (2/2) Accurately ripped
2 | (2/2) Accurately ripped
3 | (2/2) Accurately ripped
4 | (2/2) Accurately ripped
5 | (2/2) Accurately ripped
6 | (2/2) Accurately ripped
7 | (2/2) Accurately ripped
8 | (2/2) Accurately ripped
9 | (2/2) Accurately ripped
10 | (2/2) Accurately ripped
11 | (2/2) Accurately ripped
12 | (2/2) Accurately ripped
13 | (2/2) Accurately ripped
[AccurateRip ID: 001c05ff-01161411-c30d680d] disk not present in database.

Track Peak [ CRC32 ] [W/O NULL] [ LOG ]
– 100,0 [D50D170D] [52E0F869] CRC32
01 100,0 [D57AB138] [A111FAE6]
02 100,0 [06045BA0] [6029A4C6]
03 100,0 [FED54406] [82B06CB7]
04 100,0 [51894192] [A473A54B]
05 100,0 [7A7D8909] [85EC492E]
06 86,2 [6F88EB32] [A4769D5C]
07 100,0 [9698369B] [95DDB72C]
08 100,0 [B3BB5765] [5754DA8D]
09 100,0 [99B68FF5] [6D085EAF]
10 100,0 [9FB19491] [13AEFDDB]
11 100,0 [046CFA80] [CE48C068]
12 100,0 [8E97DD51] [FDCA11A1]
13 100,0 [F686C4DF] [215BDDAF]

***************

CD8: Joe Cocker - Organic (1996/2016)

Joe Cocker - The Album Recordings 1984-2007 (2016) {14CD Box Set}

Track List:

01. Into the Mystic [3:32]
02. Bye Bye Blackbird [3:31]
03. Delta Lady [3:17]
04. Heart Full of Rain [4:49]
05. Don’t Let Me Be Misunderstood [3:52]
06. Many Rivers to Cross [4:24]
07. High Lonesome Blue [4:10]
08. Sail Away [3:01]
09. You and I [4:35]
10. Darlin’ Be Home Soon [4:11]
11. Dignity [3:14]
12. You Can Leave Your Hat On [3:46]
13. You Are So Beautiful [2:44]
14. Can’t Find My Way Home [3:53]

Exact Audio Copy V1.1 from 23. June 2015

EAC extraction logfile from 28. August 2016, 8:32

Joe Cocker / Organic

Used drive : ATAPI iHAS122 C Adapter: 1 ID: 0

Read mode : Secure
Utilize accurate stream : Yes
Defeat audio cache : Yes
Make use of C2 pointers : No

Read offset correction : 6
Overread into Lead-In and Lead-Out : No
Fill up missing offset samples with silence : Yes
Delete leading and trailing silent blocks : No
Null samples used in CRC calculations : Yes
Used interface : Native Win32 interface for Win NT & 2000

Used output format : Internal WAV Routines
Sample format : 44.100 Hz; 16 Bit; Stereo


TOC of the extracted CD

Track | Start | Length | Start sector | End sector
––––––––––––––––––––––––––––-
1 | 0:00.00 | 3:31.65 | 0 | 15889
2 | 3:31.65 | 3:31.02 | 15890 | 31716
3 | 7:02.67 | 3:16.49 | 31717 | 46465
4 | 10:19.41 | 4:48.54 | 46466 | 68119
5 | 15:08.20 | 3:52.20 | 68120 | 85539
6 | 19:00.40 | 4:23.57 | 85540 | 105321
7 | 23:24.22 | 4:10.35 | 105322 | 124106
8 | 27:34.57 | 3:00.70 | 124107 | 137676
9 | 30:35.52 | 4:35.15 | 137677 | 158316
10 | 35:10.67 | 4:11.00 | 158317 | 177141
11 | 39:21.67 | 3:13.48 | 177142 | 191664
12 | 42:35.40 | 3:46.25 | 191665 | 208639
13 | 46:21.65 | 2:43.45 | 208640 | 220909
14 | 49:05.35 | 3:53.05 | 220910 | 238389


Range status and errors

Selected range

Filename C:\Users\Arturs\Desktop\JOE COCKER\Joe Cocker - Organic.wav

Peak level 100.0 %
Extraction speed 8.3 X
Range quality 100.0 %
Test CRC 40B38321
Copy CRC 40B38321
Copy OK

No errors occurred


AccurateRip summary

Track 1 not present in database
Track 2 not present in database
Track 3 not present in database
Track 4 not present in database
Track 5 not present in database
Track 6 not present in database
Track 7 not present in database
Track 8 not present in database
Track 9 not present in database
Track 10 not present in database
Track 11 not present in database
Track 12 not present in database
Track 13 not present in database
Track 14 not present in database

None of the tracks are present in the AccurateRip database

End of status report

–– CUETools DB Plugin V2.1.6

[CTDB TOCID: GXEhpDq_DQfVlpEU1wWA.1r_n.4-] disk not present in database
Submit result: GXEhpDq_DQfVlpEU1wWA.1r_n.4- has been uploaded


==== Log checksum 6E3C3A15C229FEFD26C995F767D0137CDD7F88A986711C7AA1EDC4BD41C41363 ====

foobar2000 1.2.6 / Dynamic Range Meter 1.1.1
log date: 2016-08-31 02:40:54

––––––––––––––––––––––––––––––––––––––––
Analyzed: Joe Cocker / Organic
––––––––––––––––––––––––––––––––––––––––

DR Peak RMS Duration Track
––––––––––––––––––––––––––––––––––––––––
DR9 -0.33 dB -11.49 dB 3:32 01-Into the Mystic
DR9 -0.01 dB -10.34 dB 3:31 02-Bye Bye Blackbird
DR9 0.00 dB -10.47 dB 3:17 03-Delta Lady
DR10 -0.69 dB -14.51 dB 4:49 04-Heart Full of Rain
DR10 -0.39 dB -12.36 dB 3:52 05-Don’t Let Me Be Misunderstood
DR8 0.00 dB -11.77 dB 4:24 06-Many Rivers to Cross
DR10 -0.17 dB -12.25 dB 4:10 07-High Lonesome Blue
DR11 -0.13 dB -15.31 dB 3:01 08-Sail Away
DR11 -0.14 dB -14.76 dB 4:35 09-You and I
DR9 -0.29 dB -11.18 dB 4:11 10-Darlin’ Be Home Soon
DR9 0.00 dB -10.11 dB 3:14 11-Dignity
DR9 -0.88 dB -11.48 dB 3:46 12-You Can Leave Your Hat On
DR10 -0.13 dB -14.63 dB 2:44 13-You Are So Beautiful
DR8 -0.76 dB -10.74 dB 3:53 14-Can’t Find My Way Home
––––––––––––––––––––––––––––––––––––––––

Number of tracks: 14
Official DR value: DR9

Samplerate: 44100 Hz
Channels: 2
Bits per sample: 16
Bitrate: 869 kbps
Codec: FLAC
================================================================================

[CUETools log; Date: 31.08.2016 2:40:54; Version: 2.1.5]
[CTDB TOCID: GXEhpDq_DQfVlpEU1wWA.1r_n.4-] found.
Track | CTDB Status
1 | (1/1) Accurately ripped
2 | (1/1) Accurately ripped
3 | (1/1) Accurately ripped
4 | (1/1) Accurately ripped
5 | (1/1) Accurately ripped
6 | (1/1) Accurately ripped
7 | (1/1) Accurately ripped
8 | (1/1) Accurately ripped
9 | (1/1) Accurately ripped
10 | (1/1) Accurately ripped
11 | (1/1) Accurately ripped
12 | (1/1) Accurately ripped
13 | (1/1) Accurately ripped
14 | (1/1) Accurately ripped
[AccurateRip ID: 001b9def-01273bed-ae0c6a0e] disk not present in database.

Track Peak [ CRC32 ] [W/O NULL] [ LOG ]
– 100,0 [40B38321] [135DE11F] CRC32
01 96,2 [29916A26] [3B540895]
02 99,9 [7EB9BB7E] [E78240A7]
03 100,0 [CB98A23B] [7237D5BE]
04 92,3 [96FF940E] [196AA568]
05 95,5 [A4AD534A] [3C7C0133]
06 100,0 [3EB21C0B] [CC77D35B]
07 98,0 [51D82D48] [AF3E8034]
08 98,4 [2C21DFE5] [1F0267B0]
09 98,4 [D59CC216] [63721FF2]
10 96,6 [0A05348C] [F2AD9DB0]
11 100,0 [66929C56] [5B108CC0]
12 90,3 [615B893D] [33CC67DB]
13 98,4 [66AEC322] [E2642A6F]
14 91,6 [522348ED] [43A8A6BB]

***************

CD9: Joe Cocker - Across From Midnight (1997/2016)

Joe Cocker - The Album Recordings 1984-2007 (2016) {14CD Box Set}

Track List:

01. Tonight [4:50]
02. Could You Be Loved [5:48]
03. That’s All I Need to Know [4:05]
04. N’oubliez jamais [4:43]
05. What Do I Tell My Heart? [5:01]
06. Wayward Soul [4:16]
07. Loving You Tonight [4:39]
08. Across From Midnight [4:58]
09. What Do You Say? [4:43]
10. The Last One to Know [3:31]
11. That’s the Way Her Love Is [2:44]
12. Need Your Love So Bad [5:20]

Exact Audio Copy V1.1 from 23. June 2015

EAC extraction logfile from 28. August 2016, 9:09

Joe Cocker / Across From Midnight

Used drive : ATAPI iHAS122 C Adapter: 1 ID: 0

Read mode : Secure
Utilize accurate stream : Yes
Defeat audio cache : Yes
Make use of C2 pointers : No

Read offset correction : 6
Overread into Lead-In and Lead-Out : No
Fill up missing offset samples with silence : Yes
Delete leading and trailing silent blocks : No
Null samples used in CRC calculations : Yes
Used interface : Native Win32 interface for Win NT & 2000

Used output format : Internal WAV Routines
Sample format : 44.100 Hz; 16 Bit; Stereo


TOC of the extracted CD

Track | Start | Length | Start sector | End sector
––––––––––––––––––––––––––––-
1 | 0:00.00 | 4:49.52 | 0 | 21726
2 | 4:49.52 | 5:47.43 | 21727 | 47794
3 | 10:37.20 | 4:04.57 | 47795 | 66151
4 | 14:42.02 | 4:43.10 | 66152 | 87386
5 | 19:25.12 | 5:00.65 | 87387 | 109951
6 | 24:26.02 | 4:16.15 | 109952 | 129166
7 | 28:42.17 | 4:38.68 | 129167 | 150084
8 | 33:21.10 | 4:57.47 | 150085 | 172406
9 | 38:18.57 | 4:42.43 | 172407 | 193599
10 | 43:01.25 | 3:30.40 | 193600 | 209389
11 | 46:31.65 | 2:44.00 | 209390 | 221689
12 | 49:15.65 | 5:20.07 | 221690 | 245696


Range status and errors

Selected range

Filename C:\Users\Arturs\Desktop\JOE COCKER\Joe Cocker - Across From Midnight.wav

Peak level 99.6 %
Extraction speed 8.3 X
Range quality 100.0 %
Test CRC D0E934B3
Copy CRC D0E934B3
Copy OK

No errors occurred


AccurateRip summary

Track 1 not present in database
Track 2 not present in database
Track 3 not present in database
Track 4 not present in database
Track 5 not present in database
Track 6 not present in database
Track 7 not present in database
Track 8 not present in database
Track 9 not present in database
Track 10 not present in database
Track 11 not present in database
Track 12 not present in database

None of the tracks are present in the AccurateRip database

End of status report

–– CUETools DB Plugin V2.1.6

[CTDB TOCID: _r3AwnOxpnM215sOMuuqhTl4Lpc-] disk not present in database
Submit result: _r3AwnOxpnM215sOMuuqhTl4Lpc- has been uploaded


==== Log checksum 54169A83D9F2678C1CD42D5676ECC47EC31757F1B1341F65FF9987D9B6A4B7AF ====

foobar2000 1.2.6 / Dynamic Range Meter 1.1.1
log date: 2016-08-31 02:43:12

––––––––––––––––––––––––––––––––––––––––
Analyzed: Joe Cocker / Across From Midnight
––––––––––––––––––––––––––––––––––––––––

DR Peak RMS Duration Track
––––––––––––––––––––––––––––––––––––––––
DR9 -0.64 dB -11.10 dB 4:50 01-Tonight
DR9 -0.43 dB -11.49 dB 5:48 02-Could You Be Loved
DR9 -0.03 dB -11.21 dB 4:05 03-That’s All I Need to Know
DR9 -0.64 dB -11.60 dB 4:43 04-N’oubliez jamais
DR8 -0.64 dB -10.04 dB 5:01 05-What Do I Tell My Heart?
DR10 -0.26 dB -11.53 dB 4:16 06-Wayward Soul
DR8 -0.25 dB -9.57 dB 4:39 07-Loving You Tonight
DR9 -0.43 dB -11.56 dB 4:58 08-Across From Midnight
DR8 -0.12 dB -10.18 dB 4:43 09-What Do You Say?
DR10 -0.93 dB -13.08 dB 3:31 10-The Last One to Know
DR11 -0.89 dB -15.41 dB 2:44 11-That’s the Way Her Love Is
DR11 -0.12 dB -12.64 dB 5:20 12-Need Your Love So Bad
––––––––––––––––––––––––––––––––––––––––

Number of tracks: 12
Official DR value: DR9

Samplerate: 44100 Hz
Channels: 2
Bits per sample: 16
Bitrate: 958 kbps
Codec: FLAC
================================================================================

[CUETools log; Date: 31.08.2016 2:43:12; Version: 2.1.5]
[CTDB TOCID: _r3AwnOxpnM215sOMuuqhTl4Lpc-] found.
Track | CTDB Status
1 | (1/1) Accurately ripped
2 | (1/1) Accurately ripped
3 | (1/1) Accurately ripped
4 | (1/1) Accurately ripped
5 | (1/1) Accurately ripped
6 | (1/1) Accurately ripped
7 | (1/1) Accurately ripped
8 | (1/1) Accurately ripped
9 | (1/1) Accurately ripped
10 | (1/1) Accurately ripped
11 | (1/1) Accurately ripped
12 | (1/1) Accurately ripped
[AccurateRip ID: 00194109-00e96ebe-ac0ccb0c] disk not present in database.

Track Peak [ CRC32 ] [W/O NULL] [ LOG ]
– 99,6 [D0E934B3] [EBBDB9AF] CRC32
01 92,8 [3B064244] [809C4FC5]
02 95,1 [A2CF5B63] [AE8ABA78]
03 99,6 [8124AA9B] [74F6F153]
04 92,8 [32DFE520] [10125BC2]
05 92,8 [35C72DE1] [05D9332A]
06 97,1 [A1684A66] [A5B668A0]
07 97,1 [0D8D88C8] [F5B3DB47]
08 95,1 [89F79C7C] [BA41B5F8]
09 98,6 [ED9A4579] [E591BE46]
10 89,8 [11156BC3] [136694D7]
11 90,3 [D9771B7E] [F02B93B3]
12 98,6 [402605EF] [E5476D05]

***************

CD10: Joe Cocker - No Ordinary World (1999/2016)

Joe Cocker - The Album Recordings 1984-2007 (2016) {14CD Box Set}

Track List:

01. First We Take Manhattan [3:45]
02. Different Roads [5:00]
03. My Father’s Son [4:30]
04. While You See a Chance [3:52]
05. She Believes in Me [4:45]
06. No Ordinary World [3:52]
07. Where Would I Be Now [5:28]
08. Ain’t Gonna Cry Again [4:07]
09. Soul Rising [3:58]
10. Naked Without You [4:32]
11. Love to Lean On [4:18]
12. On My Way Home [4:12]

Exact Audio Copy V1.1 from 23. June 2015

EAC extraction logfile from 28. August 2016, 8:51

Joe Cocker / No Ordinary World

Used drive : ATAPI iHAS122 C Adapter: 1 ID: 0

Read mode : Secure
Utilize accurate stream : Yes
Defeat audio cache : Yes
Make use of C2 pointers : No

Read offset correction : 6
Overread into Lead-In and Lead-Out : No
Fill up missing offset samples with silence : Yes
Delete leading and trailing silent blocks : No
Null samples used in CRC calculations : Yes
Used interface : Native Win32 interface for Win NT & 2000

Used output format : Internal WAV Routines
Sample format : 44.100 Hz; 16 Bit; Stereo


TOC of the extracted CD

Track | Start | Length | Start sector | End sector
––––––––––––––––––––––––––––-
1 | 0:00.00 | 3:44.60 | 0 | 16859
2 | 3:44.60 | 4:59.47 | 16860 | 39331
3 | 8:44.32 | 4:29.58 | 39332 | 59564
4 | 13:14.15 | 3:51.57 | 59565 | 76946
5 | 17:05.72 | 4:44.65 | 76947 | 98311
6 | 21:50.62 | 3:52.33 | 98312 | 115744
7 | 25:43.20 | 5:28.20 | 115745 | 140364
8 | 31:11.40 | 4:06.60 | 140365 | 158874
9 | 35:18.25 | 3:57.40 | 158875 | 176689
10 | 39:15.65 | 4:31.47 | 176690 | 197061
11 | 43:47.37 | 4:17.60 | 197062 | 216396
12 | 48:05.22 | 4:11.51 | 216397 | 235272


Range status and errors

Selected range

Filename C:\Users\Arturs\Desktop\JOE COCKER\Joe Cocker - No Ordinary World.wav

Peak level 99.6 %
Extraction speed 8.2 X
Range quality 100.0 %
Test CRC 6A11F782
Copy CRC 6A11F782
Copy OK

No errors occurred


AccurateRip summary

Track 1 not present in database
Track 2 not present in database
Track 3 not present in database
Track 4 not present in database
Track 5 not present in database
Track 6 not present in database
Track 7 not present in database
Track 8 not present in database
Track 9 not present in database
Track 10 not present in database
Track 11 not present in database
Track 12 not present in database

None of the tracks are present in the AccurateRip database

End of status report

–– CUETools DB Plugin V2.1.6

[CTDB TOCID: _GRuiseZYVZmueBTnBw4A15MkUc-] disk not present in database
Submit result: _GRuiseZYVZmueBTnBw4A15MkUc- has been uploaded


==== Log checksum FA8B87FBBB5AD9B1ADEE511689F7375791A86ADEE02528100E31159BA440E255 ====

foobar2000 1.2.6 / Dynamic Range Meter 1.1.1
log date: 2016-08-31 02:44:49

––––––––––––––––––––––––––––––––––––––––
Analyzed: Joe Cocker / No Ordinary World
––––––––––––––––––––––––––––––––––––––––

DR Peak RMS Duration Track
––––––––––––––––––––––––––––––––––––––––
DR8 -0.26 dB -9.14 dB 3:45 01-First We Take Manhattan
DR7 -0.19 dB -9.13 dB 5:00 02-Different Roads
DR8 -0.43 dB -9.95 dB 4:30 03-My Father’s Son
DR7 -0.25 dB -9.52 dB 3:52 04-While You See a Chance
DR7 -0.12 dB -9.49 dB 4:45 05-She Believes in Me
DR9 -0.26 dB -11.09 dB 3:52 06-No Ordinary World
DR8 -0.43 dB -10.63 dB 5:28 07-Where Would I Be Now
DR7 -0.26 dB -9.53 dB 4:07 08-Ain’t Gonna Cry Again
DR8 -0.26 dB -9.72 dB 3:58 09-Soul Rising
DR8 -0.25 dB -9.92 dB 4:32 10-Naked Without You
DR8 -0.03 dB -9.76 dB 4:18 11-Love to Lean On
DR10 -0.12 dB -11.87 dB 4:12 12-On My Way Home
––––––––––––––––––––––––––––––––––––––––

Number of tracks: 12
Official DR value: DR8

Samplerate: 44100 Hz
Channels: 2
Bits per sample: 16
Bitrate: 950 kbps
Codec: FLAC
================================================================================

[CUETools log; Date: 31.08.2016 2:44:53; Version: 2.1.5]
[CTDB TOCID: _GRuiseZYVZmueBTnBw4A15MkUc-] found.
Track | CTDB Status
1 | (1/1) Accurately ripped
2 | (1/1) Accurately ripped
3 | (1/1) Accurately ripped
4 | (1/1) Accurately ripped
5 | (1/1) Accurately ripped
6 | (1/1) Accurately ripped
7 | (1/1) Accurately ripped
8 | (1/1) Accurately ripped
9 | (1/1) Accurately ripped
10 | (1/1) Accurately ripped
11 | (1/1) Accurately ripped
12 | (1/1) Accurately ripped
[AccurateRip ID: 00175e1f-00da77b1-a40c400c] disk not present in database.

Track Peak [ CRC32 ] [W/O NULL] [ LOG ]
– 99,6 [6A11F782] [95C8BF63] CRC32
01 97,1 [CED3DD80] [E1415C7C]
02 97,8 [762B1150] [DC34B076]
03 95,1 [02E5A0AF] [E86B5198]
04 97,1 [0D4EC9D4] [97F38535]
05 98,6 [ACDABA60] [0C35BD08]
06 97,0 [C9537AEE] [C00F0A38]
07 95,1 [76BBA525] [68B24E28]
08 97,0 [F8B59409] [B9A80567]
09 97,0 [7FE444D0] [40AFE877]
10 97,1 [1885AF0E] [ACA72437]
11 99,6 [A4D94285] [5305C978]
12 98,6 [382543C7] [E4FE733A]

***************

CD11: Joe Cocker - Respect Yourself (2002/2016)

Joe Cocker - The Album Recordings 1984-2007 (2016) {14CD Box Set}

Track List:

01. You Can’t Have My Heart [4:03]
02. Love Not War [4:02]
03. You Took It So Hard [4:29]
04. Never Tear Us Apart [4:05]
05. This Is Your Life [4:36]
06. Respect Yourself [5:16]
07. I’m Listening Now [5:03]
08. Leave a Light On [4:34]
09. It’s Only Love [3:57]
10. Every Time It Rains [3:36]
11. Midnight Without You [5:08]

Exact Audio Copy V1.1 from 23. June 2015

EAC extraction logfile from 28. August 2016, 9:32

Joe Cocker / Respect Yourself

Used drive : ATAPI iHAS122 C Adapter: 1 ID: 0

Read mode : Secure
Utilize accurate stream : Yes
Defeat audio cache : Yes
Make use of C2 pointers : No

Read offset correction : 6
Overread into Lead-In and Lead-Out : No
Fill up missing offset samples with silence : Yes
Delete leading and trailing silent blocks : No
Null samples used in CRC calculations : Yes
Used interface : Native Win32 interface for Win NT & 2000

Used output format : Internal WAV Routines
Sample format : 44.100 Hz; 16 Bit; Stereo


TOC of the extracted CD

Track | Start | Length | Start sector | End sector
––––––––––––––––––––––––––––-
1 | 0:00.00 | 4:02.67 | 0 | 18216
2 | 4:02.67 | 4:01.60 | 18217 | 36351
3 | 8:04.52 | 4:29.17 | 36352 | 56543
4 | 12:33.69 | 4:04.63 | 56544 | 74906
5 | 16:38.57 | 4:36.25 | 74907 | 95631
6 | 21:15.07 | 5:15.48 | 95632 | 119304
7 | 26:30.55 | 5:02.52 | 119305 | 142006
8 | 31:33.32 | 4:34.22 | 142007 | 162578
9 | 36:07.54 | 3:56.73 | 162579 | 180351
10 | 40:04.52 | 3:35.39 | 180352 | 196515
11 | 43:40.16 | 5:07.43 | 196516 | 219583


Range status and errors

Selected range

Filename C:\Users\Arturs\Desktop\JOE COCKER\Joe Cocker - Respect Yourself.wav

Peak level 100.0 %
Extraction speed 8.1 X
Range quality 100.0 %
Test CRC 39A67A72
Copy CRC 39A67A72
Copy OK

No errors occurred


AccurateRip summary

Track 1 not present in database
Track 2 not present in database
Track 3 not present in database
Track 4 not present in database
Track 5 not present in database
Track 6 not present in database
Track 7 not present in database
Track 8 not present in database
Track 9 not present in database
Track 10 not present in database
Track 11 not present in database

None of the tracks are present in the AccurateRip database

End of status report

–– CUETools DB Plugin V2.1.6

[CTDB TOCID: VWjGRnAaRnAGB5RTkQ7.w6paX08-] disk not present in database
Submit result: VWjGRnAaRnAGB5RTkQ7.w6paX08- has been uploaded


==== Log checksum 8ADDE17DB73B412B348B44E55A4F621A06D80D37B7AE36085B2D1A45A352B2D9 ====

foobar2000 1.2.6 / Dynamic Range Meter 1.1.1
log date: 2016-08-31 02:46:48

––––––––––––––––––––––––––––––––––––––––
Analyzed: Joe Cocker / Respect Yourself
––––––––––––––––––––––––––––––––––––––––

DR Peak RMS Duration Track
––––––––––––––––––––––––––––––––––––––––
DR10 0.00 dB -10.87 dB 4:03 01-You Can’t Have My Heart
DR9 0.00 dB -10.65 dB 4:02 02-Love Not War
DR7 0.00 dB -9.53 dB 4:29 03-You Took It So Hard
DR9 0.00 dB -11.04 dB 4:05 04-Never Tear Us Apart
DR8 0.00 dB -9.88 dB 4:36 05-This Is Your Life
DR9 0.00 dB -9.85 dB 5:16 06-Respect Yourself
DR9 0.00 dB -10.08 dB 5:03 07-I’m Listening Now
DR8 0.00 dB -9.93 dB 4:34 08-Leave a Light On
DR10 0.00 dB -10.88 dB 3:57 09-It’s Only Love
DR11 0.00 dB -14.05 dB 3:36 10-Every Time It Rains
DR10 0.00 dB -11.36 dB 5:08 11-Midnight Without You
––––––––––––––––––––––––––––––––––––––––

Number of tracks: 11
Official DR value: DR9

Samplerate: 44100 Hz
Channels: 2
Bits per sample: 16
Bitrate: 928 kbps
Codec: FLAC
================================================================================

[CUETools log; Date: 31.08.2016 2:46:50; Version: 2.1.5]
[CTDB TOCID: VWjGRnAaRnAGB5RTkQ7.w6paX08-] found.
Track | CTDB Status
1 | (1/1) Accurately ripped
2 | (1/1) Accurately ripped
3 | (1/1) Accurately ripped
4 | (1/1) Accurately ripped
5 | (1/1) Accurately ripped
6 | (1/1) Accurately ripped
7 | (1/1) Accurately ripped
8 | (1/1) Accurately ripped
9 | (1/1) Accurately ripped
10 | (1/1) Accurately ripped
11 | (1/1) Accurately ripped
[AccurateRip ID: 0013ddeb-00ad41e8-930b6f0b] disk not present in database.

Track Peak [ CRC32 ] [W/O NULL] [ LOG ]
– 100,0 [39A67A72] [553F4350] CRC32
01 100,0 [5C0ABA00] [0023F3E9]
02 100,0 [86868696] [84E6BE26]
03 100,0 [15AFF921] [460A3959]
04 100,0 [20B83D23] [8B5C4886]
05 100,0 [EA576A61] [7B1900C8]
06 100,0 [97F9500D] [41445A21]
07 100,0 [87A13BA2] [7439E83B]
08 100,0 [25FAEF33] [E02E70E5]
09 100,0 [31DBBB5C] [7D18E74D]
10 100,0 [DABA6208] [A24B1247]
11 100,0 [EF2E7483] [8AA53154]

***************

CD12: Joe Cocker - Heart & Soul (2004/2016)

Joe Cocker - The Album Recordings 1984-2007 (2016) {14CD Box Set}

Track List:

01. What’s Going On [5:14]
02. Chain of Fools [3:45]
03. One [4:34]
04. I Who Have Nothing [4:01]
05. Maybe I’m Amazed [3:23]
06. I Keep Forgetting [3:34]
07. I Put a Spell on You [4:32]
08. Every Kind of People [4:19]
09. Love Don’t Live Here Anymore [4:15]
10. Don’t Let Me Be Lonely [3:40]
11. Jealous Guy [4:07]
12. Everybody Hurts [5:19]

Exact Audio Copy V1.1 from 23. June 2015

EAC extraction logfile from 28. August 2016, 12:36

Joe Cocker / Heart & Soul

Used drive : ATAPI iHAS122 C Adapter: 1 ID: 0

Read mode : Secure
Utilize accurate stream : Yes
Defeat audio cache : Yes
Make use of C2 pointers : No

Read offset correction : 6
Overread into Lead-In and Lead-Out : No
Fill up missing offset samples with silence : Yes
Delete leading and trailing silent blocks : No
Null samples used in CRC calculations : Yes
Used interface : Native Win32 interface for Win NT & 2000

Used output format : Internal WAV Routines
Sample format : 44.100 Hz; 16 Bit; Stereo


TOC of the extracted CD

Track | Start | Length | Start sector | End sector
––––––––––––––––––––––––––––-
1 | 0:00.00 | 5:13.45 | 0 | 23519
2 | 5:13.45 | 3:44.65 | 23520 | 40384
3 | 8:58.35 | 4:33.71 | 40385 | 60930
4 | 13:32.31 | 4:01.11 | 60931 | 79016
5 | 17:33.42 | 3:22.38 | 79017 | 94204
6 | 20:56.05 | 3:33.71 | 94205 | 110250
7 | 24:30.01 | 4:31.57 | 110251 | 130632
8 | 29:01.58 | 4:18.57 | 130633 | 150039
9 | 33:20.40 | 4:14.51 | 150040 | 169140
10 | 37:35.16 | 3:40.04 | 169141 | 185644
11 | 41:15.20 | 4:06.51 | 185645 | 204145
12 | 45:21.71 | 5:19.07 | 204146 | 228077


Range status and errors

Selected range

Filename C:\Users\Arturs\Desktop\JOE COCKER\Joe Cocker - Heart & Soul.wav

Peak level 100.0 %
Extraction speed 8.1 X
Range quality 100.0 %
Test CRC 3BA8006F
Copy CRC 3BA8006F
Copy OK

No errors occurred


AccurateRip summary

Track 1 not present in database
Track 2 not present in database
Track 3 not present in database
Track 4 not present in database
Track 5 not present in database
Track 6 not present in database
Track 7 not present in database
Track 8 not present in database
Track 9 not present in database
Track 10 not present in database
Track 11 not present in database
Track 12 not present in database

None of the tracks are present in the AccurateRip database

End of status report

–– CUETools DB Plugin V2.1.6

[CTDB TOCID: nomRyuhpUTNzcGsTOLoaShn5NdY-] found
Submit result: nomRyuhpUTNzcGsTOLoaShn5NdY- has been confirmed
Track | CTDB Status
1 | (1/1) Accurately ripped
2 | (1/1) Accurately ripped
3 | (1/1) Accurately ripped
4 | (1/1) Accurately ripped
5 | (1/1) Accurately ripped
6 | (1/1) Accurately ripped
7 | (1/1) Accurately ripped
8 | (1/1) Accurately ripped
9 | (1/1) Accurately ripped
10 | (1/1) Accurately ripped
11 | (1/1) Accurately ripped
12 | (1/1) Accurately ripped


==== Log checksum 9074B5AA306F581980AF038949FE90AD676A7DDA0F7C90E5B4AB578C2283D179 ====

foobar2000 1.2.6 / Dynamic Range Meter 1.1.1
log date: 2016-08-31 02:48:52

––––––––––––––––––––––––––––––––––––––––
Analyzed: Joe Cocker / Heart & Soul
––––––––––––––––––––––––––––––––––––––––

DR Peak RMS Duration Track
––––––––––––––––––––––––––––––––––––––––
DR9 0.00 dB -11.33 dB 5:14 01-What’s Going On
DR8 0.00 dB -8.78 dB 3:45 02-Chain of Fools
DR9 0.00 dB -11.46 dB 4:34 03-One
DR10 0.00 dB -12.25 dB 4:01 04-I Who Have Nothing
DR9 0.00 dB -11.20 dB 3:23 05-Maybe I’m Amazed
DR8 0.00 dB -10.29 dB 3:34 06-I Keep Forgetting
DR9 0.00 dB -11.61 dB 4:32 07-I Put a Spell on You
DR8 0.00 dB -10.27 dB 4:19 08-Every Kind of People
DR10 0.00 dB -11.64 dB 4:15 09-Love Don’t Live Here Anymore
DR11 0.00 dB -13.40 dB 3:40 10-Don’t Let Me Be Lonely
DR10 0.00 dB -12.24 dB 4:07 11-Jealous Guy
DR9 0.00 dB -11.77 dB 5:19 12-Everybody Hurts
––––––––––––––––––––––––––––––––––––––––

Number of tracks: 12
Official DR value: DR9

Samplerate: 44100 Hz
Channels: 2
Bits per sample: 16
Bitrate: 858 kbps
Codec: FLAC
================================================================================

[CUETools log; Date: 31.08.2016 2:48:52; Version: 2.1.5]
[CTDB TOCID: nomRyuhpUTNzcGsTOLoaShn5NdY-] found.
Track | CTDB Status
1 | (2/2) Accurately ripped
2 | (2/2) Accurately ripped
3 | (2/2) Accurately ripped
4 | (2/2) Accurately ripped
5 | (2/2) Accurately ripped
6 | (2/2) Accurately ripped
7 | (2/2) Accurately ripped
8 | (2/2) Accurately ripped
9 | (2/2) Accurately ripped
10 | (2/2) Accurately ripped
11 | (2/2) Accurately ripped
12 | (2/2) Accurately ripped
[AccurateRip ID: 00168598-00d0db87-8f0be10c] disk not present in database.

Track Peak [ CRC32 ] [W/O NULL] [ LOG ]
– 100,0 [3BA8006F] [3FBCFB80] CRC32
01 100,0 [30752626] [4E8D6CD1]
02 100,0 [1D8D987F] [25EE85F4]
03 100,0 [D4BE51DA] [10F69C29]
04 100,0 [E80A06AD] [04E58682]
05 100,0 [B67ED7B9] [6A32C313]
06 100,0 [B7724582] [5AD03D9D]
07 100,0 [1B11FA4B] [30DEF44E]
08 100,0 [E0313F45] [07D1898D]
09 100,0 [3F84C782] [4E6E22BB]
10 100,0 [25DC9B1C] [A35D89AD]
11 100,0 [4EEAC68F] [70B30835]
12 100,0 [3AAF78F4] [A1D27A2C]

***************

CD13: Joe Cocker - Hymn for My Soul (2007/2016)

Joe Cocker - The Album Recordings 1984-2007 (2016) {14CD Box Set}

Track List:

01. You Haven’t Done Nothin’ [3:50]
02. One Word (Peace) [2:49]
03. Love Is for Me [4:05]
04. Don’t Give Up on Me [4:06]
05. Long as I Can See the Light [3:35]
06. Beware of Darkness [3:51]
07. Just Pass It On [4:40]
08. Rivers Invitation [3:31]
09. Ring Them Bells [3:05]
10. Hymn 4 My Soul [3:52]

Exact Audio Copy V1.1 from 23. June 2015

EAC extraction logfile from 28. August 2016, 11:39

Joe Cocker / Hymn for My Soul

Used drive : ATAPI iHAS122 C Adapter: 1 ID: 0

Read mode : Secure
Utilize accurate stream : Yes
Defeat audio cache : Yes
Make use of C2 pointers : No

Read offset correction : 6
Overread into Lead-In and Lead-Out : No
Fill up missing offset samples with silence : Yes
Delete leading and trailing silent blocks : No
Null samples used in CRC calculations : Yes
Used interface : Native Win32 interface for Win NT & 2000

Used output format : Internal WAV Routines
Sample format : 44.100 Hz; 16 Bit; Stereo


TOC of the extracted CD

Track | Start | Length | Start sector | End sector
––––––––––––––––––––––––––––-
1 | 0:00.00 | 3:50.15 | 0 | 17264
2 | 3:50.15 | 2:49.22 | 17265 | 29961
3 | 6:39.37 | 4:05.23 | 29962 | 48359
4 | 10:44.60 | 4:05.53 | 48360 | 66787
5 | 14:50.38 | 3:34.69 | 66788 | 82906
6 | 18:25.32 | 3:51.05 | 82907 | 100236
7 | 22:16.37 | 4:39.46 | 100237 | 121207
8 | 26:56.08 | 3:31.00 | 121208 | 137032
9 | 30:27.08 | 3:04.41 | 137033 | 150873
10 | 33:31.49 | 3:52.11 | 150874 | 168284


Range status and errors

Selected range

Filename C:\Users\Arturs\Desktop\JOE COCKER\Joe Cocker - Hymn for My Soul.wav

Peak level 100.0 %
Extraction speed 7.5 X
Range quality 100.0 %
Test CRC F1F5EED5
Copy CRC F1F5EED5
Copy OK

No errors occurred


AccurateRip summary

Track 1 not present in database
Track 2 not present in database
Track 3 not present in database
Track 4 not present in database
Track 5 not present in database
Track 6 not present in database
Track 7 not present in database
Track 8 not present in database
Track 9 not present in database
Track 10 not present in database

None of the tracks are present in the AccurateRip database

End of status report

–– CUETools DB Plugin V2.1.6

[CTDB TOCID: IhXx7HqAGR9nVTHqXemT2BKZCB0-] disk not present in database
Submit result: IhXx7HqAGR9nVTHqXemT2BKZCB0- has been uploaded


==== Log checksum D522BB942A0FABEAD3043A0B3A576AA1782EBC2561498C1887C4914E5A5B10B5 ====

foobar2000 1.2.6 / Dynamic Range Meter 1.1.1
log date: 2016-08-31 02:50:49

––––––––––––––––––––––––––––––––––––––––
Analyzed: Joe Cocker / Hymn for My Soul
––––––––––––––––––––––––––––––––––––––––

DR Peak RMS Duration Track
––––––––––––––––––––––––––––––––––––––––
DR7 0.00 dB -9.08 dB 3:50 01-You Haven’t Done Nothin’
DR7 0.00 dB -8.69 dB 2:49 02-One Word (Peace)
DR9 0.00 dB -11.08 dB 4:05 03-Love Is for Me
DR9 -0.01 dB -12.47 dB 4:06 04-Don’t Give Up on Me
DR10 0.00 dB -12.84 dB 3:35 05-Long as I Can See the Light
DR7 0.00 dB -8.91 dB 3:51 06-Beware of Darkness
DR7 0.00 dB -10.01 dB 4:40 07-Just Pass It On
DR7 0.00 dB -9.18 dB 3:31 08-Rivers Invitation
DR8 0.00 dB -10.77 dB 3:05 09-Ring Them Bells
DR8 0.00 dB -9.78 dB 3:52 10-Hymn 4 My Soul
––––––––––––––––––––––––––––––––––––––––

Number of tracks: 10
Official DR value: DR8

Samplerate: 44100 Hz
Channels: 2
Bits per sample: 16
Bitrate: 855 kbps
Codec: FLAC
================================================================================

[CUETools log; Date: 31.08.2016 2:50:51; Version: 2.1.5]
[CTDB TOCID: IhXx7HqAGR9nVTHqXemT2BKZCB0-] found.
Track | CTDB Status
1 | (1/1) Accurately ripped
2 | (1/1) Accurately ripped
3 | (1/1) Accurately ripped
4 | (1/1) Accurately ripped
5 | (1/1) Accurately ripped
6 | (1/1) Accurately ripped
7 | (1/1) Accurately ripped
8 | (1/1) Accurately ripped
9 | (1/1) Accurately ripped
10 | (1/1) Accurately ripped
[AccurateRip ID: 000e1527-00711fe6-7308c30a] disk not present in database.

Track Peak [ CRC32 ] [W/O NULL] [ LOG ]
– 100,0 [F1F5EED5] [0ACEFCBF] CRC32
01 100,0 [DFB5888B] [392319AB]
02 100,0 [1ED2221A] [DDCFC34A]
03 100,0 [2E280363] [5F28E2DE]
04 99,8 [8C0F91A7] [82041F4B]
05 100,0 [2E723C30] [94E36603]
06 100,0 [7F6E9716] [18214595]
07 100,0 [0754240A] [0D47343A]
08 100,0 [8B50DF32] [C1A4536A]
09 100,0 [C84BB527] [4D3106B8]
10 100,0 [4D78E1AA] [0496A572]

***************

CD14: Joe Cocker - Related Recordings (2016)

Joe Cocker - The Album Recordings 1984-2007 (2016) {14CD Box Set}

Joe Cocker - The Album Recordings 1984-2007 (2016) {14CD Box Set}

Track List:

01. Edge Of A Dream [3:55]
02. Tell Me There's A Way [4:07]
03. Now That You're Gone [4:20]
04. Sorry Seems To Be The Hardest Word [4:00]
05. Feels Like Forever [4:41]
06. When A Woman Cries [4:17]
07. Now That The Magic Has Gone [4:40]
08. I Still Can't Believe It's True [4:23]
09. My Strongest Weakness [4:13]
10. Anybody Seen My Girl [3:04]
11. Something [3:18]
12. Human Touch [3:48]
13. (My Heart Is A) Ghost Town [3:57]
14. What Becomes Of The Broken-Hearted [4:10]
15. Together (Where Do We Go From Here) [4:13]
16. Lie To Me [4:02]
17. Love Made A Promise [5:03]
18. Ain't No Sunshine [3:13]
19. Come Together [4:21]

Exact Audio Copy V1.1 from 23. June 2015

EAC extraction logfile from 28. August 2016, 14:07

Joe Cocker / Related Recordings

Used drive : ATAPI iHAS122 C Adapter: 1 ID: 0

Read mode : Secure
Utilize accurate stream : Yes
Defeat audio cache : Yes
Make use of C2 pointers : No

Read offset correction : 6
Overread into Lead-In and Lead-Out : No
Fill up missing offset samples with silence : Yes
Delete leading and trailing silent blocks : No
Null samples used in CRC calculations : Yes
Used interface : Native Win32 interface for Win NT & 2000

Used output format : Internal WAV Routines
Sample format : 44.100 Hz; 16 Bit; Stereo


TOC of the extracted CD

Track | Start | Length | Start sector | End sector
––––––––––––––––––––––––––––-
1 | 0:00.00 | 3:55.28 | 0 | 17652
2 | 3:55.28 | 4:06.38 | 17653 | 36140
3 | 8:01.66 | 4:20.15 | 36141 | 55655
4 | 12:22.06 | 4:00.17 | 55656 | 73672
5 | 16:22.23 | 4:41.11 | 73673 | 94758
6 | 21:03.34 | 4:16.70 | 94759 | 114028
7 | 25:20.29 | 4:39.70 | 114029 | 135023
8 | 30:00.24 | 4:23.10 | 135024 | 154758
9 | 34:23.34 | 4:12.55 | 154759 | 173713
10 | 38:36.14 | 3:03.43 | 173714 | 187481
11 | 41:39.57 | 3:18.25 | 187482 | 202356
12 | 44:58.07 | 3:48.05 | 202357 | 219461
13 | 48:46.12 | 3:56.58 | 219462 | 237219
14 | 52:42.70 | 4:10.26 | 237220 | 255995
15 | 56:53.21 | 4:12.54 | 255996 | 274949
16 | 61:06.00 | 4:01.50 | 274950 | 293074
17 | 65:07.50 | 5:02.72 | 293075 | 315796
18 | 70:10.47 | 3:13.07 | 315797 | 330278
19 | 73:23.54 | 4:20.64 | 330279 | 349842


Range status and errors

Selected range

Filename C:\Users\Arturs\Desktop\JOE COCKER\Joe Cocker - Related Recordings.wav

Peak level 99.8 %
Extraction speed 9.4 X
Range quality 99.9 %
Test CRC ED612F0E
Copy CRC ED612F0E
Copy OK

No errors occurred


AccurateRip summary

Track 1 not present in database
Track 2 not present in database
Track 3 not present in database
Track 4 not present in database
Track 5 not present in database
Track 6 not present in database
Track 7 not present in database
Track 8 not present in database
Track 9 not present in database
Track 10 not present in database
Track 11 not present in database
Track 12 not present in database
Track 13 not present in database
Track 14 not present in database
Track 15 not present in database
Track 16 not present in database
Track 17 not present in database
Track 18 not present in database
Track 19 not present in database

None of the tracks are present in the AccurateRip database

End of status report

–– CUETools DB Plugin V2.1.6

[CTDB TOCID: iU38cHFP_VYWhkfX_qhG9.Zpvew-] disk not present in database
Submit result: iU38cHFP_VYWhkfX_qhG9.Zpvew- has been uploaded


==== Log checksum BE0505924FA526E188A83FB9A97B6C6E941FA4FCD14CFACC70A8AFAA1A36FB30 ====

foobar2000 1.2.6 / Dynamic Range Meter 1.1.1
log date: 2016-08-31 02:52:56

––––––––––––––––––––––––––––––––––––––––
Analyzed: Joe Cocker / Related Recordings
––––––––––––––––––––––––––––––––––––––––

DR Peak RMS Duration Track
––––––––––––––––––––––––––––––––––––––––
DR7 -4.10 dB -14.18 dB 3:55 01-Edge Of A Dream
DR12 -0.55 dB -13.77 dB 4:07 02-Tell Me There's A Way
DR9 -1.01 dB -14.13 dB 4:20 03-Now That You're Gone
DR11 -0.01 dB -13.95 dB 4:00 04-Sorry Seems To Be The Hardest Word
DR12 -0.01 dB -13.06 dB 4:41 05-Feels Like Forever
DR13 -0.01 dB -15.16 dB 4:17 06-When A Woman Cries
DR12 -0.01 dB -13.96 dB 4:40 07-Now That The Magic Has Gone
DR11 -1.02 dB -13.57 dB 4:23 08-I Still Can't Believe It's True
DR13 -1.01 dB -16.17 dB 4:13 09-My Strongest Weakness
DR9 -4.12 dB -14.34 dB 3:04 10-Anybody Seen My Girl
DR8 -4.12 dB -15.38 dB 3:18 11-Something
DR8 -3.08 dB -13.18 dB 3:48 12-Human Touch
DR9 -3.00 dB -13.29 dB 3:57 13-(My Heart Is A) Ghost Town
DR9 -2.60 dB -13.41 dB 4:10 14-What Becomes Of The Broken-Hearted
DR10 -2.01 dB -13.26 dB 4:13 15-Together (Where Do We Go From Here)
DR10 -1.09 dB -12.86 dB 4:02 16-Lie To Me
DR11 -0.50 dB -13.52 dB 5:03 17-Love Made A Promise
DR13 -0.01 dB -15.56 dB 3:13 18-Ain't No Sunshine
DR6 -3.71 dB -11.72 dB 4:21 19-Come Together
––––––––––––––––––––––––––––––––––––––––

Number of tracks: 19
Official DR value: DR10

Samplerate: 44100 Hz
Channels: 2
Bits per sample: 16
Bitrate: 882 kbps
Codec: FLAC
================================================================================

[CUETools log; Date: 31.08.2016 2:53:02; Version: 2.1.5]
[CTDB TOCID: iU38cHFP_VYWhkfX_qhG9.Zpvew-] found.
Track | CTDB Status
1 | (1/1) Accurately ripped
2 | (1/1) Accurately ripped
3 | (1/1) Accurately ripped
4 | (1/1) Accurately ripped
5 | (1/1) Accurately ripped
6 | (1/1) Accurately ripped
7 | (1/1) Accurately ripped
8 | (1/1) Accurately ripped
9 | (1/1) Accurately ripped
10 | (1/1) Accurately ripped
11 | (1/1) Accurately ripped
12 | (1/1) Accurately ripped
13 | (1/1) Accurately ripped
14 | (1/1) Accurately ripped
15 | (1/1) Accurately ripped
16 | (1/1) Accurately ripped
17 | (1/1) Accurately ripped
18 | (1/1) Accurately ripped
19 | (1/1) Accurately ripped
[AccurateRip ID: 0035bd4d-02ee08b9-03123813] disk not present in database.

Track Peak [ CRC32 ] [W/O NULL] [ LOG ]
– 99,8 [ED612F0E] [D0C45131] CRC32
01 62,3 [4E1EF7B7] [D481FC62]
02 93,8 [BCDEB9DF] [1740FF88]
03 88,9 [20B87329] [D6A590BC]
04 99,8 [0A9D1B86] [E6C719AB]
05 99,8 [6CC3F6E9] [33DFFDDD]
06 99,8 [92FA9622] [8CD0AD4B]
07 99,8 [8B3C1EA0] [AEF9E062]
08 88,8 [180288E3] [9F636017]
09 89,0 [30626C11] [2CC13091]
10 62,2 [BBFCE34F] [E505EAD3]
11 62,2 [EC4D607A] [DDEF610F]
12 70,1 [ED823D74] [7B95C1CB]
13 70,7 [218A3596] [C15B7B2F]
14 74,1 [00AE433F] [29FB82B0]
15 79,3 [4AA75A35] [FBEDC87F]
16 88,2 [DDAAEE0B] [C545D5DF]
17 94,4 [15A20D5E] [8698BF5E]
18 99,8 [8664BE38] [7BE5B7AC]
19 65,2 [851F0234] [5C632425]

Joe Cocker - The Album Recordings 1984-2007 (2016) {14CD Box Set}


All thanks go to London

>>> Joe Cocker in my Blog <<<

DOWNLOAD: