Subcategories
Tags
Language
Tags

Joe Cocker - The Millennium Collection: The Best Of Joe Cocker (2000) {2004, Reissue}

Posted By: popsakov
Joe Cocker - The Millennium Collection: The Best Of Joe Cocker (2000) {2004, Reissue}

Joe Cocker - The Millennium Collection: The Best Of Joe Cocker (2000) {2004, Reissue}
EAC Rip | FLAC (Img) + Cue + Log ~ 286 Mb | MP3 CBR320 ~ 116 Mb
Full Scans | 00:42:16 | RAR 5% Recovery
Blues, Rock, Blue-Eyed Soul | A&M Records #314 541 606-2

Another one-stop shop from Universal's 20th Century Masters Millennium Collection, here's all the Joe Cocker you need in one packed-with-hits single-disc collection. Kicking off with "Feelin' Alright," "With a Little Help From My Friends," and "Delta Lady," the set also includes his later hits like "You Are So Beautiful" and his duet with Jennifer Warnes, "Up Where We Belong." This may only clock in at 11 tracks, but it's a very potent little package and highly recommended as the perfect starter set.

~ Cub Koda, All Music
***************

Joe Cocker - The Millennium Collection: The Best Of Joe Cocker (2000) {2004, Reissue}

Track List:

01. Feelin' Alright [04:12]
02. With A Little Help from My Friends [05:14]
03. Delta Lady [02:53]
04. She Came In Through The Bathroom Window [02:41]
05. Cry Me A River (Live) [04:02]
06. The Letter (Live) [04:30]
07. High Time We Went [04:32]
08. You Are So Beautiful [02:46]
09. The Jealous Kind [03:52]
10. Many Rivers To Cross [03:46]
11. Up Where We Belong (with Jennifer Warnes) [03:53]

Exact Audio Copy V0.99 prebeta 5 from 4. May 2009

Отчёт EAC об извлечении, выполненном 22. марта 2012, 21:15

Joe Cocker / 20th Century Masters - The Millennium Collection: The Best Of Joe Cocker

Дисковод: HL-DT-STDVDRAM GH22NS50 Adapter: 2 ID: 0

Режим чтения : Достоверность
Использование точного потока : Да
Отключение кэша аудио : Да
Использование указателей C2 : Нет

Коррекция смещения при чтении : 667
Способность читать области Lead-in и Lead-out : Нет
Заполнение пропущенных сэмплов тишиной : Да
Удаление блоков с тишиной в начале и конце : Нет
При вычислениях CRC использовались нулевые сэмплы : Да
Интерфейс : Встроенный Win32-интерфейс для Win NT/2000

Выходной формат : Внутренние WAV-операции
Формат сэмплов : 44.100 Гц; 16 бит; стерео


TOC извлечённого CD

Трек | Старт | Длительность | Начальный сектор | Конечный сектор
––––––––––––––––––––––––––––––––––-
1 | 0:00.00 | 4:11.30 | 0 | 18854
2 | 4:11.30 | 5:13.25 | 18855 | 42354
3 | 9:24.55 | 2:52.30 | 42355 | 55284
4 | 12:17.10 | 2:40.15 | 55285 | 67299
5 | 14:57.25 | 4:01.62 | 67300 | 85436
6 | 18:59.12 | 4:29.08 | 85437 | 105619
7 | 23:28.20 | 4:31.55 | 105620 | 125999
8 | 28:00.00 | 2:45.47 | 126000 | 138421
9 | 30:45.47 | 3:51.58 | 138422 | 155804
10 | 34:37.30 | 3:45.32 | 155805 | 172711
11 | 38:22.62 | 3:52.43 | 172712 | 190154


Характеристики диапазона извлечения и сообщения об ошибках

Выбранный диапазон

Имя файла C:\Users\Дашенька\Desktop\2000 - Joe Cocker - 20th Century Masters. The Millennium Collection. The Best Of Joe Cocker\2000 - Joe Cocker - 20th Century Masters. The Millennium Collection. The Best Of Joe Cocker.wav

Пиковый уровень 100.0 %
Качество диапазона 100.0 %
CRC копии 8513FCAE
Копирование… OK

Ошибок не произошло


AccurateRip: сводка

Трек 1 точность не определена (достоверность 22) [B3163860], AccurateRip вернул [184950F0]
Трек 2 точность не определена (достоверность 23) [F0CFB83C], AccurateRip вернул [452FA274]
Трек 3 точность не определена (достоверность 24) [8DC31CC7], AccurateRip вернул [FDC1BF3F]
Трек 4 точность не определена (достоверность 24) [8BDCAF44], AccurateRip вернул [4B1A7B7C]
Трек 5 точность не определена (достоверность 24) [F60BC880], AccurateRip вернул [DC6CB1E0]
Трек 6 точность не определена (достоверность 24) [6AF6B61C], AccurateRip вернул [15E74964]
Трек 7 точность не определена (достоверность 23) [CB6C5264], AccurateRip вернул [05A4337C]
Трек 8 точность не определена (достоверность 22) [3FE36430], AccurateRip вернул [876F1E60]
Трек 9 точность не определена (достоверность 23) [A9360A5D], AccurateRip вернул [C047745D]
Трек 10 точность не определена (достоверность 24) [73CBBAC9], AccurateRip вернул [B1F710C1]
Трек 11 точность не определена (достоверность 20) [1AC19294], AccurateRip вернул [4EDDCED4]

Ни один трек не прошёл проверки на точность
В вашей базе может быть иной вариант штамповки диска

Конец отчёта

Joe Cocker - The Millennium Collection: The Best Of Joe Cocker (2000) {2004, Reissue}


All thanks go to nptoz

>>> Joe Cocker in my Blog <<<

DOWNLOAD: