Subcategories

Joe Pass - Songs For Ellen (1994)

Posted By: Designol
Joe Pass - Songs For Ellen (1994)

Joe Pass - Songs For Ellen (1994)
EAC | FLAC | Tracks (Cue&Log) ~ 232 Mb (incl 5%) | Mp3 (CBR320) ~ 132 Mb (incl 5%) | Scans included
Guitar Virtuoso, Guitar Jazz, Mainstream Jazz | Label: Pablo | # PACD-2310-955-2 | 00:46:13

This posthumous CD is novel because it features Joe Pass exclusively on acoustic guitar, and it is obvious that he enjoyed every minute of these sessions. "The Shadow of Your Smile" is no longer easy listening fodder, as Pass turns it into a miniature master class in swing. "Star Eyes" is accented by the soft squeaks of Pass' fingers gently weaving their intricate magic. Most of the works of Joe Pass tended to be improvised blues, so the title track is an exception – a simple yet elegant ballad written for his wife. "Blues for Angel" highlights his matchless mastery of slow blues. The boppish blues "Satellite Village" is a perfect closer. The good news is that there are several more unreleased sessions by Joe Pass that will follow this superb collection.

Review by Ken Dryden, Allmusic.com

Joe Pass - Songs For Ellen (1994)



Recorded in August 7, 11, and 20, 1992

Tracklist:

01. The Shadow Of Your Smile (2:45)
02. Song For Ellen (2:59)
03. I Only Have Eyes For You (2:56)
04. Stars Fell On Alabamba (4:10)
05. That Old Feeling (2:57)
06. Star Eyes (2:43)
07. Robbins Nest (2:44)
08. Someone To Watch Over Me (3:04)
09. Blues For Angel (3:39)
10. There's a Small Hotel (2:55)
11. How Deep Is The Ocean? (2:27)
12. Stormy Weather (3:19)
13. Just Friends (3:25)
14. Blue Moon (3:33)
15. Satellite Village (2:36)


EAC extraction logfile from 17. October 2008, 10:23 for CD
Joe Pass / Songs For Ellen

Used drive : HL-DT-STCDRW/DVD GCC4482 Adapter: 1 ID: 0
Read mode : Secure with NO C2, accurate stream, disable cache
Read offset correction : 6
Overread into Lead-In and Lead-Out : No

Used output format : C:\Eac\Codecs\flac.exe (User Defined Encoder)
320 kBit/s
Additional command line options : -8 -V -T "artist=%a" -T "title=%t" -T "album=%g" -T "date=%y" -T "tracknumber=%n" -T "genre=%m" -T "comment=EAC Flac 1.1.2 -8" %s

Other options :
Fill up missing offset samples with silence : Yes
Delete leading and trailing silent blocks : No
Installed external ASPI interface


Track 1
Filename C:\Documents and Settings\pass\01 - The Shadow Of Your Smile.wav

Pre-gap length 0:00:02.00

Peak level 82.6 %
Track quality 99.9 %
Test CRC 6236352B
Copy CRC 6236352B
Copy OK

Track 2
Filename C:\Documents and Settings\pass\02 - Song For Ellen.wav

Pre-gap length 0:00:02.10

Peak level 72.4 %
Track quality 100.0 %
Test CRC 1D50C4B1
Copy CRC 1D50C4B1
Copy OK

Track 3
Filename C:\Documents and Settings\pass\03 - I Only Have Eyes For You.wav

Pre-gap length 0:00:02.30

Peak level 90.8 %
Track quality 100.0 %
Test CRC 92663D55
Copy CRC 92663D55
Copy OK

Track 4
Filename C:\Documents and Settings\pass\04 - Stars Fell On Alabamba.wav

Pre-gap length 0:00:02.22

Peak level 66.5 %
Track quality 100.0 %
Test CRC 16E97465
Copy CRC 16E97465
Copy OK

Track 5
Filename C:\Documents and Settings\pass\05 - That Old Feeling.wav

Pre-gap length 0:00:02.00

Peak level 99.6 %
Track quality 100.0 %
Test CRC 88DA4A15
Copy CRC 88DA4A15
Copy OK

Track 6
Filename C:\Documents and Settings\pass\06 - Star Eyes.wav

Pre-gap length 0:00:01.86

Peak level 77.2 %
Track quality 99.9 %
Test CRC 5AB7D3F8
Copy CRC 5AB7D3F8
Copy OK

Track 7
Filename C:\Documents and Settings\pass\07 - Robbins Nest.wav

Pre-gap length 0:00:02.13

Peak level 95.2 %
Track quality 100.0 %
Test CRC 8F9A7435
Copy CRC 8F9A7435
Copy OK

Track 8
Filename C:\Documents and Settings\pass\08 - Someone To Watch Over Me.wav

Pre-gap length 0:00:01.64

Peak level 70.8 %
Track quality 100.0 %
Test CRC D425451E
Copy CRC D425451E
Copy OK

Track 9
Filename C:\Documents and Settings\pass\09 - Blues For Angel.wav

Pre-gap length 0:00:01.57

Peak level 75.7 %
Track quality 100.0 %
Test CRC B7E35900
Copy CRC B7E35900
Copy OK

Track 10
Filename C:\Documents and Settings\pass\10 - There's a Small Hotel.wav

Pre-gap length 0:00:02.04

Peak level 63.7 %
Track quality 100.0 %
Test CRC 8DE8EA71
Copy CRC 8DE8EA71
Copy OK

Track 11
Filename C:\Documents and Settings\pass\11 - How Deep Is The Ocean .wav

Pre-gap length 0:00:01.46

Peak level 58.3 %
Track quality 99.9 %
Test CRC 1380B3F5
Copy CRC 1380B3F5
Copy OK

Track 12
Filename C:\Documents and Settings\pass\12 - Stormy Weather.wav

Pre-gap length 0:00:02.36

Peak level 57.9 %
Track quality 100.0 %
Test CRC 84674F30
Copy CRC 84674F30
Copy OK

Track 13
Filename C:\Documents and Settings\pass\13 - Just Friends.wav

Pre-gap length 0:00:02.00

Peak level 73.9 %
Track quality 100.0 %
Test CRC CB0F785A
Copy CRC CB0F785A
Copy OK

Track 14
Filename C:\Documents and Settings\pass\14 - Blue Moon.wav

Pre-gap length 0:00:01.80

Peak level 73.4 %
Track quality 100.0 %
Test CRC 57359B88
Copy CRC 57359B88
Copy OK

Track 15
Filename C:\Documents and Settings\pass\15 - Satellite Village.wav

Pre-gap length 0:00:01.64

Peak level 69.7 %
Track quality 100.0 %
Test CRC E88DB6EF
Copy CRC E88DB6EF
Copy OK

No errors occured


End of status report

[CUETools log; Date: 31.10.2016 16:23:06; Version: 2.1.4]
[CTDB TOCID: CFNCnuDTNyXrwTfgkl3pZfRnzb4-] found.
Track | CTDB Status
1 | (14/14) Accurately ripped
2 | (14/14) Accurately ripped
3 | (14/14) Accurately ripped
4 | (14/14) Accurately ripped
5 | (14/14) Accurately ripped
6 | (14/14) Accurately ripped
7 | (14/14) Accurately ripped
8 | (14/14) Accurately ripped
9 | (14/14) Accurately ripped
10 | (14/14) Accurately ripped
11 | (14/14) Accurately ripped
12 | (14/14) Accurately ripped
13 | (14/14) Accurately ripped
14 | (14/14) Accurately ripped
15 | (14/14) Accurately ripped
[AccurateRip ID: 00194e1b-011f56b7-ba0ad40f] found.
Track [ CRC | V2 ] Status
01 [af2eda70|6068b2bf] (02+09/25) Accurately ripped
02 [fd1b7f57|897cb924] (02+09/26) Accurately ripped
03 [99f4d59b|6c867e67] (02+09/24) Accurately ripped
04 [8f0773f6|70783650] (02+09/26) Accurately ripped
05 [1cd4738e|843d1695] (02+09/26) Accurately ripped
06 [2b6e0781|9add6416] (02+09/25) Accurately ripped
07 [5604b08a|921c7ea4] (02+09/26) Accurately ripped
08 [d1f0323f|4c4394bd] (02+09/24) Accurately ripped
09 [3dfd1147|7b391e25] (02+09/24) Accurately ripped
10 [80e3fc08|801bd9e7] (02+09/26) Accurately ripped
11 [89a43dcc|600bd45d] (02+09/26) Accurately ripped
12 [8b0cd971|1752bafa] (02+09/26) Accurately ripped
13 [c16c9e01|098770b5] (02+09/26) Accurately ripped
14 [da7054cd|893dc765] (02+09/26) Accurately ripped
15 [05d8f272|6d2a94ec] (02+09/26) Accurately ripped
Offsetted by -108:
01 [6d694dec] (02/25) Accurately ripped
02 [19828363] (02/26) Accurately ripped
03 [aa80ce06] (02/24) Accurately ripped
04 [bd2d3a27] (02/26) Accurately ripped
05 [d38750ea] (02/26) Accurately ripped
06 [aac9e5bf] (02/25) Accurately ripped
07 [20b4e980] (02/26) Accurately ripped
08 [0dc91543] (02/24) Accurately ripped
09 [fec03a9d] (02/24) Accurately ripped
10 [1fc0915b] (02/26) Accurately ripped
11 [dcd7b8a8] (02/26) Accurately ripped
12 [24562f7c] (02/26) Accurately ripped
13 [919e19c1] (02/26) Accurately ripped
14 [82a9c605] (02/26) Accurately ripped
15 [39bb2280] (02/26) Accurately ripped
Offsetted by 300:
01 [518db9f3] (02/25) Accurately ripped
02 [24858e32] (03/26) Accurately ripped
03 [7de2860b] (03/24) Accurately ripped
04 [4c910fb0] (03/26) Accurately ripped
05 [7ad20bcc] (03/26) Accurately ripped
06 [1c26b79c] (02/25) Accurately ripped
07 [611b3f6a] (03/26) Accurately ripped
08 [b00fae0a] (03/24) Accurately ripped
09 [c8cd757c] (03/24) Accurately ripped
10 [ae66f938] (03/26) Accurately ripped
11 [9ee640fe] (03/26) Accurately ripped
12 [543bba11] (03/26) Accurately ripped
13 [207b76b8] (03/26) Accurately ripped
14 [560c2d8b] (03/26) Accurately ripped
15 [6fd41141] (03/26) Accurately ripped

Track Peak [ CRC32 ] [W/O NULL] [ LOG ]
– 99,6 [8ECB62C6] [13601B97]
01 82,6 [6236352B] [899A3855] CRC32
02 72,4 [1D50C4B1] [849B04A2] CRC32
03 90,8 [92663D55] [C8187B98] CRC32
04 66,5 [16E97465] [6681C107] CRC32
05 99,6 [88DA4A15] [04142D6E] CRC32
06 77,2 [5AB7D3F8] [51B931B3] CRC32
07 95,2 [8F9A7435] [AFF9C6DD] CRC32
08 70,8 [D425451E] [DCC88C58] CRC32
09 75,7 [B7E35900] [775456EE] CRC32
10 63,7 [8DE8EA71] [3BD3B96B] CRC32
11 58,3 [1380B3F5] [20BD90CA] CRC32
12 57,9 [84674F30] [2E6CE2AB] CRC32
13 73,9 [CB0F785A] [97F83FA4] CRC32
14 73,4 [57359B88] [EB976616] CRC32
15 69,7 [E88DB6EF] [0E3F9755] CRC32

foobar2000 1.2 / Dynamic Range Meter 1.1.1
log date: 2016-10-31 16:46:18

––––––––––––––––––––––––––––––––––––––––
Analyzed: Joe Pass / Songs For Ellen
––––––––––––––––––––––––––––––––––––––––

DR Peak RMS Duration Track
––––––––––––––––––––––––––––––––––––––––
DR13 -1.65 dB -20.66 dB 2:45 01-The Shadow Of Your Smile
DR13 -2.80 dB -20.40 dB 2:59 02-Song For Ellen
DR13 -0.83 dB -17.72 dB 2:56 03-I Only Have Eyes For You
DR13 -3.53 dB -20.03 dB 4:10 04-Stars Fell On Alabamba
DR12 -0.03 dB -16.78 dB 2:57 05-That Old Feeling
DR12 -2.24 dB -17.99 dB 2:43 06-Star Eyes
DR12 -0.42 dB -19.24 dB 2:44 07-Robbins Nest
DR13 -2.99 dB -21.79 dB 3:04 08-Someone To Watch Over Me
DR13 -2.41 dB -22.11 dB 3:39 09-Blues For Angel
DR12 -3.92 dB -19.47 dB 2:55 10-There's a Small Hotel
DR12 -4.68 dB -20.25 dB 2:27 11-How Deep Is The Ocean?
DR12 -4.73 dB -21.15 dB 3:19 12-Stormy Weather
DR12 -2.62 dB -18.31 dB 3:25 13-Just Friends
DR13 -2.68 dB -19.84 dB 3:33 14-Blue Moon
DR13 -3.13 dB -18.61 dB 2:36 15-Satellite Village
––––––––––––––––––––––––––––––––––––––––

Number of tracks: 15
Official DR value: DR12

Samplerate: 44100 Hz
Channels: 2
Bits per sample: 16
Bitrate: 631 kbps
Codec: FLAC
================================================================================

Joe Pass - Songs For Ellen (1994)

Joe Pass - Songs For Ellen (1994)

All thanks to original releaser - lennybreau

More interesting music in My Blog

NitroFlare:

JPassEllen.flac.rar

JPassEllen.mp3.rar

Password: designol