Subcategories

Joe Sample & NDR Big Band - Children Of The Sun (2012)

Posted By: tiburon
Joe Sample & NDR Big Band - Children Of The Sun (2012)

Joe Sample & NDR Big Band - Children Of The Sun (2012)
EAC 1.0b3 | FLAC tracks level 8 | Cue+Log+M3U | Full Scans 300dpi | 405MB + 5% Recovery
Genre: Vanguard Big Band, Latin Jazz, Fusion

Joe Sample is the golden boy of American fusion-jazz, but his recent project Children of the Sun is not as sunny as the title might imply. Stimulated by a visit to the Caribbean island of St. Croix, he started to look particularly into the subject of slavery – a part of his own family history. Sample has been planning this project since 1995, and will bring his composition to the Berlin audience with the NDR Bigband (the Hamburg Radio Big Band), arranged by Jorg Achim Keller.
Track List
01. I Wanna Go Home 6:41
02. Buttermilk Sky 5:23
03. Islands Of The Mind 6:15
04. Rumfire 5:52
05. Gold In The Cane (Intro) 1:18
06. Gold In The Cane 4:30
07. I Believe In 5:54
08. Children Of The Sun 4:52
09. Blue Abyss 8:15
10. Creole Eyes 5:51
11. Albatross Day 7:20

musicians
Joe Sample - Grand piano, Fender Rhodes, compositions
Steve Gadd - drums
Marcio Doctor - percussion
Ingmar Heller - double bass
Nils Landgren - trombone, vocals
Frank Delle - soprano and tenor saxes
Stephan Diez - guitar
Klaus Heidenreich - trombone
Dan Gottshall - trombone
Gabriel Coburger - tenor sax, flute
Stefan Lottermann - trombone
Ingo Lahme - bass trombone
Jorg Achim Keller - conductor, arrangements
Thorsten Benkenstein - trumpet
Ingolf Burkhardt - trumpet
Claus Stotter - trumpet
Reiner Winterschladen - trumpet
Fiete Felsch - alto sax
Peter Bolte - alto sax
Christof Lauer - tenor sax
Lutz Buchner - tenor sax
Robert Ikiz - drums

Produced by Nils Landgren and Patrick Rains


Exact Audio Copy V1.0 beta 3 from 29. August 2011

EAC extraction logfile from 13. February 2013, 22:35

Joe Sample And NDR Big Band / Children Of The Sun

Used drive : HL-DT-STDVDRAM GH20NS10 Adapter: 2 ID: 1

Read mode : Secure
Utilize accurate stream : Yes
Defeat audio cache : Yes
Make use of C2 pointers : No

Read offset correction : 667
Overread into Lead-In and Lead-Out : No
Fill up missing offset samples with silence : Yes
Delete leading and trailing silent blocks : No
Null samples used in CRC calculations : Yes
Used interface : Native Win32 interface for Win NT & 2000
Gap handling : Appended to previous track

Used output format : User Defined Encoder
Selected bitrate : 1024 kBit/s
Quality : High
Add ID3 tag : No
Command line compressor : C:\Program Files\Exact Audio Copy\Flac\flac.exe
Additional command line options : -8 -V -T "ARTIST=%artist%" -T "TITLE=%title%" -T "ALBUM=%albumtitle%" -T "DATE=%year%" -T "TRACKNUMBER=%tracknr%" -T "TOTALTRACKS=%numtracks%" -T "GENRE=%genre%" -T "ALBUMARTIST=%albumartist%" -T "ALBUM ARTIST=%albumartist%" -T "COMMENT=EAC Secure Mode, Test & Copy, AccurateRip, FLAC -8" %source%


TOC of the extracted CD

Track | Start | Length | Start sector | End sector
––––––––––––––––––––––––––––-
1 | 0:00.00 | 6:41.16 | 0 | 30090
2 | 6:41.16 | 5:22.72 | 30091 | 54312
3 | 12:04.13 | 6:14.66 | 54313 | 82428
4 | 18:19.04 | 5:51.72 | 82429 | 108825
5 | 24:11.01 | 1:17.70 | 108826 | 114670
6 | 25:28.71 | 4:29.53 | 114671 | 134898
7 | 29:58.49 | 5:53.55 | 134899 | 161428
8 | 35:52.29 | 4:52.10 | 161429 | 183338
9 | 40:44.39 | 8:14.65 | 183339 | 220453
10 | 48:59.29 | 5:50.55 | 220454 | 246758
11 | 54:50.09 | 7:39.73 | 246759 | 281256


Track 1

Filename D:\Joe Sample & NDR Big Band - Children Of The Sun (2012) [FLAC]\01 - I Wanna Go Home.wav

Pre-gap length 0:00:02.00

Peak level 99.7 %
Extraction speed 4.5 X
Track quality 100.0 %
Test CRC 45945B43
Copy CRC 45945B43
Track not present in AccurateRip database
Copy OK

Track 2

Filename D:\Joe Sample & NDR Big Band - Children Of The Sun (2012) [FLAC]\02 - Buttermilk Sky.wav

Peak level 99.7 %
Extraction speed 5.3 X
Track quality 100.0 %
Test CRC 0B01382C
Copy CRC 0B01382C
Track not present in AccurateRip database
Copy OK

Track 3

Filename D:\Joe Sample & NDR Big Band - Children Of The Sun (2012) [FLAC]\03 - Islands Of The Mind.wav

Peak level 99.7 %
Extraction speed 6.0 X
Track quality 100.0 %
Test CRC 5BD44E2C
Copy CRC 5BD44E2C
Track not present in AccurateRip database
Copy OK

Track 4

Filename D:\Joe Sample & NDR Big Band - Children Of The Sun (2012) [FLAC]\04 - Rumfire.wav

Peak level 99.7 %
Extraction speed 5.9 X
Track quality 100.0 %
Test CRC 0FB06539
Copy CRC 0FB06539
Track not present in AccurateRip database
Copy OK

Track 5

Filename D:\Joe Sample & NDR Big Band - Children Of The Sun (2012) [FLAC]\05 - Gold In The Cane (Intro).wav

Peak level 99.2 %
Extraction speed 4.4 X
Track quality 100.0 %
Test CRC 6CE1F630
Copy CRC 6CE1F630
Track not present in AccurateRip database
Copy OK

Track 6

Filename D:\Joe Sample & NDR Big Band - Children Of The Sun (2012) [FLAC]\06 - Gold In The Cane.wav

Peak level 100.0 %
Extraction speed 6.2 X
Track quality 100.0 %
Test CRC D840B3A4
Copy CRC D840B3A4
Track not present in AccurateRip database
Copy OK

Track 7

Filename D:\Joe Sample & NDR Big Band - Children Of The Sun (2012) [FLAC]\07 - I Believe In.wav

Peak level 99.7 %
Extraction speed 6.6 X
Track quality 100.0 %
Test CRC A3A63A75
Copy CRC A3A63A75
Track not present in AccurateRip database
Copy OK

Track 8

Filename D:\Joe Sample & NDR Big Band - Children Of The Sun (2012) [FLAC]\08 - Children Of The Sun.wav

Peak level 99.7 %
Extraction speed 5.6 X
Track quality 99.9 %
Test CRC 3681F6B3
Copy CRC 3681F6B3
Track not present in AccurateRip database
Copy OK

Track 9

Filename D:\Joe Sample & NDR Big Band - Children Of The Sun (2012) [FLAC]\09 - Blue Abyss.wav

Peak level 99.7 %
Extraction speed 7.4 X
Track quality 100.0 %
Test CRC 45519C7A
Copy CRC 45519C7A
Track not present in AccurateRip database
Copy OK

Track 10

Filename D:\Joe Sample & NDR Big Band - Children Of The Sun (2012) [FLAC]\10 - Creole Eyes.wav

Peak level 99.7 %
Extraction speed 6.6 X
Track quality 100.0 %
Test CRC 571F55AC
Copy CRC 571F55AC
Track not present in AccurateRip database
Copy OK

Track 11

Filename D:\Joe Sample & NDR Big Band - Children Of The Sun (2012) [FLAC]\11 - Albatross Day.wav

Peak level 99.7 %
Extraction speed 7.0 X
Track quality 100.0 %
Test CRC 1F4100E9
Copy CRC 1F4100E9
Track not present in AccurateRip database
Copy OK


None of the tracks are present in the AccurateRip database

No errors occurred

End of status report

==== Log checksum E47A3F83BE964CA07DA91880693EF0EAE0BD86A1932A84B86F524DE94AF7FC1F ====


––––––––––––––––––––––––––––––––––––––––
Analyzed: Joe Sample And NDR Big Band / Children Of The Sun
––––––––––––––––––––––––––––––––––––––––

DR Peak RMS Duration Track
––––––––––––––––––––––––––––––––––––––––
DR8 -0.02 dB -11.04 dB 6:41 01-I Wanna Go Home
DR10 -0.02 dB -12.73 dB 5:23 02-Buttermilk Sky
DR10 -0.02 dB -13.05 dB 6:15 03-Islands Of The Mind
DR8 -0.02 dB -10.37 dB 5:52 04-Rumfire
DR10 -0.07 dB -16.49 dB 1:18 05-Gold In The Cane (Intro)
DR8 0.00 dB -9.58 dB 4:30 06-Gold In The Cane
DR8 -0.02 dB -11.33 dB 5:54 07-I Believe In
DR9 -0.02 dB -10.64 dB 4:52 08-Children Of The Sun
DR9 -0.02 dB -11.80 dB 8:15 09-Blue Abyss
DR8 -0.02 dB -11.37 dB 5:51 10-Creole Eyes
DR9 -0.02 dB -12.08 dB 7:40 11-Albatross Day
––––––––––––––––––––––––––––––––––––––––

Number of tracks: 11
Official DR value: DR9

Samplerate: 44100 Hz
Channels: 2
Bits per sample: 16
Bitrate: 768 kbps
Codec: FLAC
================================================================================

Joe Sample & NDR Big Band - Children Of The Sun (2012)
Joe Sample & NDR Big Band - Children Of The Sun (2012)
Joe Sample & NDR Big Band - Children Of The Sun (2012)


Rip by tiburon