Subcategories

Joe Sample / Ray Brown / Shelly Manne - The Three (1975) {Japanese pressing}

Posted By: tiburon
Joe Sample / Ray Brown / Shelly Manne - The Three (1975) {Japanese pressing}

Joe Sample / Ray Brown / Shelly Manne - The Three (1975) {Japanese pressing}
EAC 1.0b1 | FLAC tracks level 8 | Cue+Log+M3U | Photos | 149MB + 5% Recovery
Genre: Jazz
Joe Sample / Ray Brown / Shelly Manne - The Three (1975) {Japanese pressing}

One of the most successful Japanese piano trio recordings of the 70s – a super-session performed by a a trio of Americans that includes Joe Sample on acoustic piano, Ray Brown on bass, and Shelly Manne on drums! Given that Sample's best known during the era for his electric keys with the Crusaders (and on countless studio sessions), it's a real treat to hear him tickle the ivories in an acoustic way – and a genuine surprise to hear how strong his work is in such a format.
Track List
01. Yearnin' 5:04
02. On Green Dolphin Street 5:17
03. Satin Doll 5:38
04. Manha Do Carnaval 5:59
05. Round About Midnight 4:34
06. Funky Blues 5:10

musicians
Joe Sample - piano
Ray Brown - drums
Shelly Manne - drums

Produced by Kiyoshi Itoh and Yasohachi Itoh


Exact Audio Copy V1.0 beta 1 from 15. November 2010

EAC extraction logfile from 16. July 2012, 17:15

Joe Sample / The Three

Used drive : Optiarc DVD RW AD-7200A Adapter: 0 ID: 0

Read mode : Secure
Utilize accurate stream : Yes
Defeat audio cache : Yes
Make use of C2 pointers : No

Read offset correction : 48
Overread into Lead-In and Lead-Out : No
Fill up missing offset samples with silence : Yes
Delete leading and trailing silent blocks : No
Null samples used in CRC calculations : Yes
Used interface : Native Win32 interface for Win NT & 2000
Gap handling : Appended to previous track

Used output format : User Defined Encoder
Selected bitrate : 768 kBit/s
Quality : High
Add ID3 tag : No
Command line compressor : C:\Program Files\Exact Audio Copy\Flac\flac.exe
Additional command line options : -8 -V -T "ARTIST=%a" -T "TITLE=%t" -T "ALBUM=%g" -T "DATE=%y" -T "TRACKNUMBER=%n" -T "TOTALTRACKS=%x" -T "GENRE=%m" -T "ALBUMARTIST=%v" -T "ALBUM ARTIST=%v" -T "COMMENT=EAC Secure Mode, Test & Copy, AccurateRip, FLAC -8" %s


TOC of the extracted CD

Track | Start | Length | Start sector | End sector
––––––––––––––––––––––––––––-
1 | 0:00.00 | 5:05.55 | 0 | 22929
2 | 5:05.55 | 5:17.30 | 22930 | 46734
3 | 10:23.10 | 5:43.52 | 46735 | 72511
4 | 16:06.62 | 6:02.50 | 72512 | 99711
5 | 22:09.37 | 4:38.25 | 99712 | 120586
6 | 26:47.62 | 5:14.23 | 120587 | 144159


Track 1

Filename E:\The Three - The Three (1978) [FLAC] {East Wind, 35JD-1, Japan, 1985}\01 - Yearnin'.wav

Pre-gap length 0:00:02.00

Peak level 64.8 %
Extraction speed 2.4 X
Track quality 100.0 %
Test CRC BAEEDDE8
Copy CRC BAEEDDE8
Accurately ripped (confidence 2) [D26E7555]
Copy OK

Track 2

Filename E:\The Three - The Three (1978) [FLAC] {East Wind, 35JD-1, Japan, 1985}\02 - On Green Dolphin Street.wav

Peak level 68.8 %
Extraction speed 2.8 X
Track quality 100.0 %
Test CRC DF4D674B
Copy CRC DF4D674B
Accurately ripped (confidence 2) [44273571]
Copy OK

Track 3

Filename E:\The Three - The Three (1978) [FLAC] {East Wind, 35JD-1, Japan, 1985}\03 - Satin Doll.wav

Peak level 68.7 %
Extraction speed 2.8 X
Track quality 99.9 %
Test CRC 90FCD76E
Copy CRC 90FCD76E
Accurately ripped (confidence 2) [E1AE8464]
Copy OK

Track 4

Filename E:\The Three - The Three (1978) [FLAC] {East Wind, 35JD-1, Japan, 1985}\04 - Manh Do Carnaval.wav

Pre-gap length 0:00:03.00

Peak level 42.6 %
Extraction speed 3.5 X
Track quality 100.0 %
Test CRC 5E43E2AD
Copy CRC 5E43E2AD
Accurately ripped (confidence 2) [44597ABB]
Copy OK

Track 5

Filename E:\The Three - The Three (1978) [FLAC] {East Wind, 35JD-1, Japan, 1985}\05 - 'Round About Midnight.wav

Pre-gap length 0:00:03.53

Peak level 24.4 %
Extraction speed 3.6 X
Track quality 100.0 %
Test CRC AEC6914E
Copy CRC AEC6914E
Accurately ripped (confidence 2) [023BD333]
Copy OK

Track 6

Filename E:\The Three - The Three (1978) [FLAC] {East Wind, 35JD-1, Japan, 1985}\06 - Funky Blues.wav

Pre-gap length 0:00:02.26

Peak level 67.6 %
Extraction speed 3.9 X
Track quality 100.0 %
Test CRC 7743DC5F
Copy CRC 7743DC5F
Accurately ripped (confidence 2) [A327607A]
Copy OK


All tracks accurately ripped

No errors occurred

End of status report

==== Log checksum 6D896B44C147F49E43CA960541B673551F850F2944D9AEB3BA78974963734BC0 ====


––––––––––––––––––––––––––––––––––––––––
Analyzed: Joe Sample / The Three
––––––––––––––––––––––––––––––––––––––––

DR Peak RMS Duration Track
––––––––––––––––––––––––––––––––––––––––
DR14 -3.77 dB -22.47 dB 5:06 01-Yearnin'
DR16 -3.24 dB -22.75 dB 5:17 02-On Green Dolphin Street
DR16 -3.26 dB -23.23 dB 5:44 03-Satin Doll
DR16 -7.40 dB -28.72 dB 6:03 04-Manh Do Carnaval
DR16 -12.22 dB -34.33 dB 4:38 05-'Round About Midnight
DR17 -3.40 dB -24.00 dB 5:14 06-Funky Blues
––––––––––––––––––––––––––––––––––––––––

Number of tracks: 6
Official DR value: DR16

Samplerate: 44100 Hz
Channels: 2
Bits per sample: 16
Bitrate: 686 kbps
Codec: FLAC
================================================================================

Joe Sample / Ray Brown / Shelly Manne - The Three (1975) {Japanese pressing}
Joe Sample / Ray Brown / Shelly Manne - The Three (1975) {Japanese pressing}
Joe Sample / Ray Brown / Shelly Manne - The Three (1975) {Japanese pressing}


Rip by jazzluq