Subcategories

Joe Sample - Spellbound (1989) {Warner}

Posted By: tiburon
Joe Sample - Spellbound (1989) {Warner}

Joe Sample - Spellbound (1989) {Warner}
EAC 1.0b3 | FLAC tracks level 8 | Cue+Log+M3U | Full Scans 300dpi | 295MB + 5% Recovery
MP3 CBR 320 Kbps | 107MB + 5% Recovery
Genre: Jazz-Funk, Smooth Jazz, Fusion
Joe Sample - Spellbound (1989) {Warner}

With the supremely funky rhythm section of Marcus Miller (bass), Lenny Castro (percussion) and Omar Hakim (drums) propelling his piano most of the way – the other ringers on a few tracks aren't bad either – you would think that Joe Sample couldn't miss on this solo outing, Spellbound. Indeed, his distinctive piano cannot be mistaken for anyone else's, free of the usual mainstream influences and always a pleasure to groove to. And yet there is something too comfortable, too settled, too automatic about the musicmaking here, as if the grooves are being smothered by a warm, snuggly electric blanket. Another problem is the material; not much leaps into your memory banks. Nor is it meant to, perhaps, since the gently sustained electronic textures suggest that this is, above all, high-class background music. Al Jarreau, Michael Franks and Take 6 – all Warner Bros. signees, natch – put in characteristic cameo vocal appearances on one track apiece, and a background choir sings "Luna en New York" in Spanish.
Track List
01. Seven Years Of Good Luck 5:11
02. Spellbound 4:29
03. Somehow Our Love Survives 4:34
04. All God's Children 6:14
05. Leading Me Back To You 5:04
06. U-Turn 4:50
07. Bone's Jive 3:53
08. Luna En New York 4:45
09. Sermonized 4:39
10. Looking Glass 2:47

musicians
Joe Sample - acoustic grand piano, MIDI, synths
Marcus Miller - bass
Nathan East - bass on track 6
Omar Hakim - drums
Michael Landau - guitar
John Pena - bass on track 3
John "J.R." Robinson - drums
Lenny Castro - percussion
Take 6 - vocals on track 6
Al Jarreau - vocals on track 3
Michael Franks - vocals on track 5
Robbie Buchanan - synthesizer programming
Chuck Domanico - acoustic bass
Jerry Hey - synthesizer arrangements,
Larry Williams - synthesizer, synthesizer arrangements
Carlos Nunez - background vocals
Frank Giraldo - background vocals
Luis Chi-Sing - background vocals
Lizzie Giraldo - background vocals
Erika Mellado - background vocals

Produced by Tommy LiPuma


Exact Audio Copy V1.0 beta 3 from 29. August 2011

EAC extraction logfile from 1. November 2014, 14:39

Joe Sample / Spellbound

Used drive : HL-DT-STDVDRAM GH20NS10 Adapter: 2 ID: 1

Read mode : Secure
Utilize accurate stream : Yes
Defeat audio cache : Yes
Make use of C2 pointers : No

Read offset correction : 667
Overread into Lead-In and Lead-Out : No
Fill up missing offset samples with silence : Yes
Delete leading and trailing silent blocks : No
Null samples used in CRC calculations : Yes
Used interface : Native Win32 interface for Win NT & 2000
Gap handling : Appended to previous track

Used output format : User Defined Encoder
Selected bitrate : 1024 kBit/s
Quality : High
Add ID3 tag : No
Command line compressor : C:\Program Files\Exact Audio Copy\Flac\flac.exe
Additional command line options : -8 -V -T "ARTIST=%artist%" -T "TITLE=%title%" -T "ALBUM=%albumtitle%" -T "DATE=%year%" -T "TRACKNUMBER=%tracknr%" -T "TOTALTRACKS=%numtracks%" -T "GENRE=%genre%" -T "ALBUMARTIST=%albumartist%" -T "ALBUM ARTIST=%albumartist%" -T "COMMENT=EAC Secure Mode, Test & Copy, AccurateRip, FLAC -8" %source%


TOC of the extracted CD

Track | Start | Length | Start sector | End sector
––––––––––––––––––––––––––––-
1 | 0:00.32 | 5:11.70 | 32 | 23426
2 | 5:12.27 | 4:29.60 | 23427 | 43661
3 | 9:42.12 | 4:35.68 | 43662 | 64354
4 | 14:18.05 | 6:15.02 | 64355 | 92481
5 | 20:33.07 | 5:08.48 | 92482 | 115629
6 | 25:41.55 | 4:52.30 | 115630 | 137559
7 | 30:34.10 | 3:55.00 | 137560 | 155184
8 | 34:29.10 | 4:57.37 | 155185 | 177496
9 | 39:26.47 | 4:41.38 | 177497 | 198609
10 | 44:08.10 | 2:46.00 | 198610 | 211059


Track 1

Filename D:\Joe Sample - Spellbound (1989) [FLAC]\01 - Seven Years Of Good Luck.wav

Pre-gap length 0:00:02.32

Peak level 81.7 %
Extraction speed 4.8 X
Track quality 100.0 %
Test CRC 6E73B213
Copy CRC 6E73B213
Accurately ripped (confidence 14) [AE0360C4] (AR v2)
Copy OK

Track 2

Filename D:\Joe Sample - Spellbound (1989) [FLAC]\02 - Spellbound.wav

Pre-gap length 0:00:01.32

Peak level 84.1 %
Extraction speed 5.3 X
Track quality 100.0 %
Test CRC D397965F
Copy CRC D397965F
Accurately ripped (confidence 14) [CB9147B2] (AR v2)
Copy OK

Track 3

Filename D:\Joe Sample - Spellbound (1989) [FLAC]\03 - Somehow Our Love Survives.wav

Pre-gap length 0:00:01.37

Peak level 89.8 %
Extraction speed 5.0 X
Track quality 99.9 %
Test CRC 7F3DC5BC
Copy CRC 7F3DC5BC
Accurately ripped (confidence 14) [38ADB61B] (AR v2)
Copy OK

Track 4

Filename D:\Joe Sample - Spellbound (1989) [FLAC]\04 - All God's Children.wav

Pre-gap length 0:00:02.15

Peak level 76.3 %
Extraction speed 6.4 X
Track quality 100.0 %
Test CRC DBF446A7
Copy CRC DBF446A7
Accurately ripped (confidence 14) [BF2FBA92] (AR v2)
Copy OK

Track 5

Filename D:\Joe Sample - Spellbound (1989) [FLAC]\05 - Leading Me Back To You.wav

Pre-gap length 0:00:01.27

Peak level 83.1 %
Extraction speed 6.8 X
Track quality 100.0 %
Test CRC 794986C7
Copy CRC 794986C7
Accurately ripped (confidence 14) [965D348A] (AR v2)
Copy OK

Track 6

Filename D:\Joe Sample - Spellbound (1989) [FLAC]\06 - U-Turn.wav

Pre-gap length 0:00:03.45

Peak level 90.6 %
Extraction speed 7.1 X
Track quality 100.0 %
Test CRC C3C807C5
Copy CRC C3C807C5
Accurately ripped (confidence 14) [D14D79AD] (AR v2)
Copy OK

Track 7

Filename D:\Joe Sample - Spellbound (1989) [FLAC]\07 - Bone's Jive.wav

Pre-gap length 0:00:02.50

Peak level 88.0 %
Extraction speed 7.2 X
Track quality 100.0 %
Test CRC 01A2808A
Copy CRC 01A2808A
Accurately ripped (confidence 14) [68733B83] (AR v2)
Copy OK

Track 8

Filename D:\Joe Sample - Spellbound (1989) [FLAC]\08 - Luna En New York.wav

Pre-gap length 0:00:01.63

Peak level 78.6 %
Extraction speed 6.1 X
Track quality 99.9 %
Test CRC 1D954B82
Copy CRC 1D954B82
Accurately ripped (confidence 14) [BDAA37A2] (AR v2)
Copy OK

Track 9

Filename D:\Joe Sample - Spellbound (1989) [FLAC]\09 - Sermonized.wav

Pre-gap length 0:00:02.02

Peak level 71.9 %
Extraction speed 5.9 X
Track quality 99.9 %
Test CRC 66DA221D
Copy CRC 66DA221D
Accurately ripped (confidence 14) [C757312F] (AR v2)
Copy OK

Track 10

Filename D:\Joe Sample - Spellbound (1989) [FLAC]\10 - Looking Glass.wav

Pre-gap length 0:00:02.15

Peak level 56.5 %
Extraction speed 6.2 X
Track quality 99.9 %
Test CRC 266107A5
Copy CRC 266107A5
Accurately ripped (confidence 14) [08FBA4BF] (AR v2)
Copy OK


All tracks accurately ripped

No errors occurred

End of status report

==== Log checksum F11357B462108C78250F8EA02F8CFB053A7E399E50BFA085BE4BA789101E28FB ====


––––––––––––––––––––––––––––––––––––––––
Analyzed: Joe Sample / Spellbound
––––––––––––––––––––––––––––––––––––––––

DR Peak RMS Duration Track
––––––––––––––––––––––––––––––––––––––––
DR16 -1.75 dB -19.47 dB 5:12 01-Seven Years Of Good Luck
DR15 -1.50 dB -18.90 dB 4:30 02-Spellbound
DR14 -0.93 dB -17.60 dB 4:36 03-Somehow Our Love Survives
DR14 -2.34 dB -19.84 dB 6:15 04-All God's Children
DR14 -1.60 dB -18.60 dB 5:09 05-Leading Me Back To You
DR15 -0.85 dB -17.44 dB 4:52 06-U-Turn
DR15 -1.11 dB -18.11 dB 3:55 07-Bone's Jive
DR14 -2.09 dB -18.90 dB 4:57 08-Luna En New York
DR15 -2.86 dB -20.86 dB 4:42 09-Sermonized
DR14 -4.95 dB -23.30 dB 2:46 10-Looking Glass
––––––––––––––––––––––––––––––––––––––––

Number of tracks: 10
Official DR value: DR15

Samplerate: 44100 Hz
Channels: 2
Bits per sample: 16
Bitrate: 544 kbps
Codec: FLAC
================================================================================

Joe Sample - Spellbound (1989) {Warner}
Joe Sample - Spellbound (1989) {Warner}
Joe Sample - Spellbound (1989) {Warner}