Subcategories

Joe Satriani - Surfing with the Alien (1987) (Legacy cd + dvd edition) [Reuploaded]

Posted By: uff
Joe Satriani - Surfing with the Alien (1987) (Legacy cd + dvd edition) [Reuploaded]

Joe Satriani - Surfing with the Alien (1987) (Legacy cd + dvd edition)
DVD9 | VIDEO_TS | MPEG-2 Video, NTSC 4:3 (720:480), 29.97fps, 9230kbps | LPCM 2.0, 48kHz; DD 5.1, 448kbps; DTS 5.1, 1536kbps | 70 min | 4900Mb
1CD | Flac + Cue + Log | 270Mb
rock | Epic/Legacy | rel: 2007 | HQ covers

Surfing with the Alien is one of Satriani's most successful albums to date. The album produced three hit singles for him: "Surfing with the Alien", Satch Boogie", and the radio-only single "Always with Me, Always with You". Although released in late 1987, it did not enter the Billboard 200 until April 1988. As of 2010, Surfing with the Alien is Satriani's only studio album to go platinum in America.
-
Epic/Legacy Records reissued the album on August 7, 2007. The two-disc reissue includes a CD of the original album remastered in 2007, expanded liner notes by Joe with amusing stories that comment on the recording of the album such as the writing process for the album, how they went twice over budget for a low-budget instrumental guitar album, that the iconic name we all know was actually a second choice for the album after the original was mixed, and how in the days before Pro Tools and non-destructive edits, editing decisions were not to be taken lightly as they required physically cutting sections out of the master tape with a razor blade and splicing the ends back together. Also included is a DVD containing a live concert at the Montreux Jazz Festival in 1988, the music videos for "Satch Boogie" and "Always With Me, Always With You" and additional bonus material.

Tracks:
CD
1 "Surfing with the Alien" – 4:20
2 "Ice 9" – 4:08
3 "Crushing Day" – 5:16
4 "Always with Me, Always with You" – 3:20
5 "Satch Boogie" – 3:10
6 "Hill of the Skull" – 1:46
7 "Circles" – 3:27
8 "Lords of Karma" – 4:46
9 "Midnight" – 1:42
10 "Echo" – 5:38

DVD (live concert at the Montreux Jazz Festival in 1988)
1 Ice 9
2 Memories
3 Midnight
4 Rubina
5 Circles
6 Lords of Karma
7 Bass Solo
8 Echo
9 Hordes of Locusts
10 Always with Me, Always with You
11 Satch Boogie

Exact Audio Copy V0.99 prebeta 3 from 28. July 2007

EAC extraction logfile from 11. January 2008, 18:47

Joe Satriani / Surfing with the alien [remastered]

Used drive : PIONEER DVD-RW DVR-109 Adapter: 1 ID: 0

Read mode : Secure
Utilize accurate stream : Yes
Defeat audio cache : Yes
Make use of C2 pointers : No

Read offset correction : 48
Overread into Lead-In and Lead-Out : No
Fill up missing offset samples with silence : Yes
Delete leading and trailing silent blocks : No
Null samples used in CRC calculations : Yes
Used interface : Native Win32 interface for Win NT & 2000

Used output format : Internal WAV Routines
Sample format : 44.100 Hz; 16 Bit; Stereo


TOC of the extracted CD

Track | Start | Length | Start sector | End sector
––––––––––––––––––––––––––––-
1 | 0:00.00 | 4:26.29 | 0 | 19978
2 | 4:26.29 | 4:00.18 | 19979 | 37996
3 | 8:26.47 | 5:15.00 | 37997 | 61621
4 | 13:41.47 | 3:22.40 | 61622 | 76811
5 | 17:04.12 | 3:14.28 | 76812 | 91389
6 | 20:18.40 | 1:48.36 | 91390 | 99525
7 | 22:07.01 | 3:29.05 | 99526 | 115205
8 | 25:36.06 | 4:48.52 | 115206 | 136857
9 | 30:24.58 | 1:42.51 | 136858 | 144558
10 | 32:07.34 | 5:40.38 | 144559 | 170096


Range status and errors

Selected range

Filename E:\EAC\Joe Satriani - Surfing with the alien [remastered].wav

Peak level 98.8 %
Range quality 100.0 %
Copy CRC EEEC2212
Copy OK

No errors occurred

End of status report

[CUETools log; Date: 2012.03.13. 15:01:01; Version: 2.1.2a]
[CTDB TOCID: I6qADFcX2rPPhBqYBFrTuZy2RZg-] found.
[ CTDBID ] Status
[b8b0a6d5] (57/57) Accurately ripped
[AccurateRip ID: 000e8ebe-00726f1b-8008db0a] found.
Track [ CRC ] Status
01 [aa055c91] (26/61) Accurately ripped
02 [6ee0ddc2] (26/61) Accurately ripped
03 [23ced1e1] (26/61) Accurately ripped
04 [5b94d747] (26/61) Accurately ripped
05 [90e4872d] (26/61) Accurately ripped
06 [fb272ccb] (26/61) Accurately ripped
07 [5d43e214] (26/61) Accurately ripped
08 [f951cf56] (26/61) Accurately ripped
09 [12773188] (26/61) Accurately ripped
10 [4fb731b0] (25/59) Accurately ripped
AccurateRip v2:
01 [1ed079ec] (02/61) Accurately ripped
02 [8cf4d639] (02/61) Accurately ripped
03 [3333cbe9] (02/61) Accurately ripped
04 [e70843e2] (02/61) Accurately ripped
05 [63e91659] (02/61) Accurately ripped
06 [cac7f4ec] (02/61) Accurately ripped
07 [fb26835b] (02/61) Accurately ripped
08 [6201d4e8] (02/61) Accurately ripped
09 [82b0d9ae] (02/61) Accurately ripped
10 [f1d00672] (02/59) Accurately ripped
Joe Satriani - Surfing with the Alien (1987) (Legacy cd + dvd edition) [Reuploaded]

Offsetted by -682:
01 [3cbf6405] (03/61) Accurately ripped
02 [7f7268b9] (03/61) Accurately ripped
03 [36db595e] (03/61) Accurately ripped
04 [50361f51] (03/61) Accurately ripped
05 [8ff3dbaf] (03/61) Accurately ripped
06 [9aeab242] (03/61) Accurately ripped
07 [0647e574] (03/61) Accurately ripped
08 [ab7dbc15] (03/61) Accurately ripped
09 [a5e43624] (03/61) Accurately ripped
10 [b79c66ad] (03/59) Accurately ripped
Offsetted by -36:
01 [d4c11721] (28/61) Accurately ripped
02 [2ebc2764] (28/61) Accurately ripped
03 [8db66c83] (28/61) Accurately ripped
04 [1a580940] (28/61) Accurately ripped
05 [2b7d26ad] (28/61) Accurately ripped
06 [a195e4c0] (28/61) Accurately ripped
07 [7701ed68] (28/61) Accurately ripped
08 [1478be29] (28/61) Accurately ripped
09 [3b1c75b4] (28/61) Accurately ripped
10 [8d992a32] (27/59) Accurately ripped

Track Peak [ CRC32 ] [W/O NULL] [ LOG ]
– 98,8 [EEEC2212] [5609E0F7] CRC32
01 98,8 [6916BFB7] [0D381FBA]
02 98,8 [52ADDD60] [9DBF47B7]
03 98,8 [66FBADF0] [84DC57FE]
04 98,8 [8A7D2900] [B00AAB43]
05 98,8 [DBF2115E] [CBCCBD30]
06 98,8 [B574AF2A] [7BB4E493]
07 98,8 [031E9227] [F52CD7FA]
08 98,8 [FE1EA283] [99E6BCF7]
09 98,8 [1F8875F1] [068EDC22]
10 98,8 [E4EB2DF7] [8E049F6C]

Joe Satriani - Surfing with the Alien (1987) (Legacy cd + dvd edition) [Reuploaded]
Joe Satriani - Surfing with the Alien (1987) (Legacy cd + dvd edition) [Reuploaded]

Big thx to the original uploader