Subcategories

John Barry - King Kong: Original Motion Picture Soundtrack (1976)

Posted By: Efgrapha
John Barry - King Kong: Original Motion Picture Soundtrack (1976)

John Barry - King Kong: Original Motion Picture Soundtrack (1976)
EAC | FLAC (Tracks) + cue.+log ~ 214 Mb | Mp3, CBR320 kbps ~ 118 Mb | Scans included
Soundtrack, Score, Symphonic | Label: Mask | # MK 702 | Time: 00:40:44

Music Composed and Conducted by John Barry. King Kong is one of Hollywood's most legendary creations, from the groundbreaking 1933 original to the highly anticipated Peter Jackson remake. In 1976 producer Dino De Laurentiis struck box-office gold with his own incarnation of the story, starring Jeff Bridges, Jessica Lange, and a colossal forty-foot model of Kong. The film was a massive production with ambitious special effects. Scoring the remake of one of the most famous films in Hollywood history was one of the few composers with the clout and talent to forge ahead with his own style: John Barry. The original's Max Steiner had practically invented the film score genre with the project, yet Barry was known for a completely different approach – eschewing "Mickey Mousing" in favor of melody, mood and large-scale symphonic structures.

With his score for Dino DeLaurentiis' much-maligned 1976 remake of King Kong, John Barry faced the unenviable task of following composer Max Steiner's landmark work on the 1933 original. To his credit, Barry largely ignores Steiner's precedents (as well as the overwrought disaster-movie scores so dominant throughout the first half of the decade) to emphasize his own strengths. The result is a melodic, woozily romantic work rich in orchestral grandeur. Rather than focusing on Kong's destruction, Barry accentuates the great ape's affection for heroine Jessica Lange, yielding one of the finest love themes of his career. His classic James Bond work shades the more suspenseful passages, but King Kong works best when it plays against type and expectations.

Jason Ankeny, All Music Guide

~ John Barry at Allmusic
~ John Barry Website
~ John Barry at Wiki

~ Film at IMDB
~ Film at Wiki

Tracklist:

01. The Opening (02:15)
02. Maybe My Luck Has Changed (01:49)
03. Arrival on the Island (02:44)
04. Sacrifice - Hail to the King (07:06)
05. Arthusa (02:19)
06. Full Moon Domain (04:23)
07. Breakout to Captivity (02:45)
08. Incomprehensible Captivity (02:54)
09. Kong Hits the Big Apple (02:34)
10. Blackout in New York (03:22)
11. Climb to Skull Island (02:28)
12. The End is a Hand (01:43)
13. The End (04:16)


Exact Audio Copy V0.99 prebeta 4 from 23. January 2008

EAC extraction logfile from 21. February 2011, 15:03

John Barry / King Kong

Used drive : Optiarc DVD RW AD-7241S Adapter: 1 ID: 1

Read mode : Secure
Utilize accurate stream : Yes
Defeat audio cache : Yes
Make use of C2 pointers : No

Read offset correction : 48
Overread into Lead-In and Lead-Out : No
Fill up missing offset samples with silence : Yes
Delete leading and trailing silent blocks : No
Null samples used in CRC calculations : Yes
Used interface : Installed external ASPI interface
Gap handling : Appended to previous track

Used output format : User Defined Encoder
Selected bitrate : 1024 kBit/s
Quality : High
Add ID3 tag : No
Command line compressor : C:\Program Files\Exact Audio Copy\Flac\flac.exe
Additional command line options : -8 -V -T "ARTIST=%a" -T "TITLE=%t" -T "ALBUM=%g" -T "DATE=%y" -T "TRACKNUMBER=%n" -T "GENRE=%m" -T "COMMENT=EAC FLAC -8" %s


TOC of the extracted CD

Track | Start | Length | Start sector | End sector
––––––––––––––––––––––––––––-
1 | 0:00.00 | 2:15.57 | 0 | 10181
2 | 2:15.57 | 1:49.05 | 10182 | 18361
3 | 4:04.62 | 2:44.60 | 18362 | 30721
4 | 6:49.47 | 7:06.68 | 30722 | 62739
5 | 13:56.40 | 2:19.12 | 62740 | 73176
6 | 16:15.52 | 4:23.53 | 73177 | 92954
7 | 20:39.30 | 2:45.45 | 92955 | 105374
8 | 23:25.00 | 2:54.42 | 105375 | 118466
9 | 26:19.42 | 2:34.50 | 118467 | 130066
10 | 28:54.17 | 3:22.53 | 130067 | 145269
11 | 32:16.70 | 2:28.27 | 145270 | 156396
12 | 34:45.22 | 1:43.08 | 156397 | 164129
13 | 36:28.30 | 4:16.37 | 164130 | 183366


Track 1

Filename F:\torrent\King Kong_John Barry\score\01. John Barry – The Opening.wav

Pre-gap length 0:00:02.00

Peak level 99.9 %
Track quality 100.0 %
Test CRC E2657C4D
Copy CRC E2657C4D
Accurately ripped (confidence 3) [13227F45]
Copy OK

Track 2

Filename F:\torrent\King Kong_John Barry\score\02. John Barry – Maybe My Luck Has Changed.wav

Peak level 86.2 %
Track quality 100.0 %
Test CRC 3EDA6850
Copy CRC 3EDA6850
Accurately ripped (confidence 3) [93835DB8]
Copy OK

Track 3

Filename F:\torrent\King Kong_John Barry\score\03. John Barry – Arrival on the Island.wav

Peak level 69.8 %
Track quality 100.0 %
Test CRC 9AB2547E
Copy CRC 9AB2547E
Accurately ripped (confidence 3) [260A1B86]
Copy OK

Track 4

Filename F:\torrent\King Kong_John Barry\score\04. John Barry – Sacrifice - Hail to the King.wav

Peak level 72.7 %
Track quality 100.0 %
Test CRC 2C562199
Copy CRC 2C562199
Accurately ripped (confidence 3) [6B8EF364]
Copy OK

Track 5

Filename F:\torrent\King Kong_John Barry\score\05. John Barry – Arthusa.wav

Peak level 66.3 %
Track quality 99.9 %
Test CRC 8850DD9D
Copy CRC 8850DD9D
Accurately ripped (confidence 3) [BED2FF47]
Copy OK

Track 6

Filename F:\torrent\King Kong_John Barry\score\06. John Barry – Full Moon Domain.wav

Peak level 75.2 %
Track quality 100.0 %
Test CRC A57E057C
Copy CRC A57E057C
Accurately ripped (confidence 3) [619AFF4D]
Copy OK

Track 7

Filename F:\torrent\King Kong_John Barry\score\07. John Barry – Breakout to Captivity.wav

Peak level 69.1 %
Track quality 100.0 %
Test CRC 69AFF48C
Copy CRC 69AFF48C
Accurately ripped (confidence 3) [2399A451]
Copy OK

Track 8

Filename F:\torrent\King Kong_John Barry\score\08. John Barry – Incomprehensible Captivity.wav

Peak level 99.9 %
Track quality 100.0 %
Test CRC 39BCAC12
Copy CRC 39BCAC12
Accurately ripped (confidence 3) [F1D0BEEC]
Copy OK

Track 9

Filename F:\torrent\King Kong_John Barry\score\09. John Barry – Kong Hits the Big Apple.wav

Peak level 85.7 %
Track quality 100.0 %
Test CRC F8D82F46
Copy CRC F8D82F46
Accurately ripped (confidence 3) [20889418]
Copy OK

Track 10

Filename F:\torrent\King Kong_John Barry\score\10. John Barry – Blackout in New York.wav

Peak level 84.5 %
Track quality 100.0 %
Test CRC EAB53055
Copy CRC EAB53055
Accurately ripped (confidence 3) [6B916F57]
Copy OK

Track 11

Filename F:\torrent\King Kong_John Barry\score\11. John Barry – Climb to Skull Island.wav

Peak level 82.9 %
Track quality 100.0 %
Test CRC 7734AD88
Copy CRC 7734AD88
Accurately ripped (confidence 3) [7BA4B4E0]
Copy OK

Track 12

Filename F:\torrent\King Kong_John Barry\score\12. John Barry – The End is a Hand.wav

Peak level 76.8 %
Track quality 100.0 %
Test CRC 3465D0A2
Copy CRC 3465D0A2
Accurately ripped (confidence 3) [2330C464]
Copy OK

Track 13

Filename F:\torrent\King Kong_John Barry\score\13. John Barry – The End.wav

Peak level 85.5 %
Track quality 100.0 %
Test CRC 2941A9F4
Copy CRC 2941A9F4
Accurately ripped (confidence 3) [05452D4F]
Copy OK


All tracks accurately ripped

No errors occurred

End of status report

foobar2000 1.2 / Dynamic Range Meter 1.1.1
log date: 2014-05-29 00:43:14

––––––––––––––––––––––––––––––––––––––––
Analyzed: John Barry / King Kong
––––––––––––––––––––––––––––––––––––––––

DR Peak RMS Duration Track
––––––––––––––––––––––––––––––––––––––––
DR12 0.00 dB -19.33 dB 2:16 01-The Opening
DR11 -1.28 dB -16.21 dB 1:49 02-Maybe My Luck Has Changed
DR12 -3.12 dB -22.03 dB 2:45 03-Arrival on the Island
DR11 -2.77 dB -18.12 dB 7:07 04-Sacrifice - Hail to the King
DR12 -3.57 dB -18.46 dB 2:19 05-Arthusa
DR12 -2.47 dB -18.80 dB 4:24 06-Full Moon Domain
DR11 -3.20 dB -18.19 dB 2:46 07-Breakout to Captivity
DR12 0.00 dB -16.85 dB 2:55 08-Incomprehensible Captivity
DR12 -1.33 dB -16.58 dB 2:35 09-Kong Hits the Big Apple
DR11 -1.46 dB -19.77 dB 3:23 10-Blackout in New York
DR11 -1.62 dB -16.54 dB 2:28 11-Climb to Skull Island
DR10 -2.28 dB -16.54 dB 1:43 12-The End is a Hand
DR11 -1.36 dB -18.43 dB 4:16 13-The End
––––––––––––––––––––––––––––––––––––––––

Number of tracks: 13
Official DR value: DR11

Samplerate: 44100 Hz
Channels: 2
Bits per sample: 16
Bitrate: 658 kbps
Codec: FLAC
================================================================================

John Barry - King Kong: Original Motion Picture Soundtrack (1976)

John Barry - King Kong: Original Motion Picture Soundtrack (1976)