Tags
Language
Tags

John Farnham - One Voice: The Greatest Hits (2003)

Posted By: popsakov
John Farnham - One Voice: The Greatest Hits (2003)

John Farnham - One Voice: The Greatest Hits (2003)
2CD | EAC Rip | FLAC (Img) + Cue + Log ~ 765 Mb | MP3 CBR320 ~ 265 Mb
Full Scans ~ 29 Mb | RAR 5% Recovery
Pop, Pop Rock | Gotham / BMG Australia #82876556482

One Voice: The Greatest Hits is a 2 disc greatest hits compilation album by Australian singer John Farnham. The album was released in Australia on 20 October 2003, and was accompanied by a DVD of music videos titled One Voice: The Greatest Clips. It was released to celebrate 35 years of John Farnham's career. This album and subsequent DVD were released by Sony BMG to celebrate 35 years of John Farnham's music being commercially available in Australia. The album reached #2 in the ARIA charts.

John Farnham, billed as Johnny Farnham during 1964–1979, is an English born Australian pop singer who has released nineteen studio albums, three extended plays, nineteen compilation albums, six live albums, seventeen video albums, seventy-four singles, twenty-five music videos and twelve soundtracks. His career has mostly been as a solo artist but he replaced Glenn Shorrock as lead singer of Little River Band during 1982–1985. Aside from solo releases, Farnham has recorded duets with other solo artists or with bands.

***************

John Farnham - One Voice: The Greatest Hits (2003)

John Farnham - One Voice: The Greatest Hits (2003)

Track List CD1:

01. We Will Rock You [Featuring Queen] [03:09]
02. That's Freedom [04:19]
03. Age Of Reason [05:08]
04. Pressure Down [03:47]
05. Don't You Know It's Magic [04:03]
06. A Touch Of Paradise [04:47]
07. Help [04:26]
08. When Something Is Wrong With My Baby [Featuring Jimmy Barnes] [04:55]
09. Chain Reaction [03:14]
10. Raindrops Keep Falling On My Head [02:32]
11. Sadie (The Cleaning Lady) [03:18]
12. A Simple Life [03:53]
13. Burn For You [03:35]
14. The Last Time [03:28]

Exact Audio Copy V1.0 beta 3 from 29. August 2011

EAC extraction logfile from 5. February 2015, 19:35

John Farnham / One Voice - The Greatest Hits (Disc 1)

Used drive : HL-DT-STDVDRAM GH22NS40 Adapter: 4 ID: 0

Read mode : Secure
Utilize accurate stream : Yes
Defeat audio cache : Yes
Make use of C2 pointers : No

Read offset correction : 667
Overread into Lead-In and Lead-Out : No
Fill up missing offset samples with silence : Yes
Delete leading and trailing silent blocks : No
Null samples used in CRC calculations : Yes
Used interface : Native Win32 interface for Win NT & 2000

Used output format : User Defined Encoder
Selected bitrate : 1024 kBit/s
Quality : High
Add ID3 tag : No
Command line compressor : C:\Program Files\FLAC\flac.exe
Additional command line options : -V -8 -T "Date=%year%" -T "Genre=%genre%" %source%


TOC of the extracted CD

Track | Start | Length | Start sector | End sector
––––––––––––––––––––––––––––-
1 | 0:00.00 | 3:08.08 | 0 | 14107
2 | 3:08.08 | 4:18.69 | 14108 | 33526
3 | 7:27.02 | 5:07.14 | 33527 | 56565
4 | 12:34.16 | 3:46.38 | 56566 | 73553
5 | 16:20.54 | 4:03.00 | 73554 | 91778
6 | 20:23.54 | 4:46.31 | 91779 | 113259
7 | 25:10.10 | 4:25.38 | 113260 | 133172
8 | 29:35.48 | 4:54.32 | 133173 | 155254
9 | 34:30.05 | 3:13.36 | 155255 | 169765
10 | 37:43.41 | 2:32.00 | 169766 | 181165
11 | 40:15.41 | 3:18.00 | 181166 | 196015
12 | 43:33.41 | 3:52.57 | 196016 | 213472
13 | 47:26.23 | 3:34.49 | 213473 | 229571
14 | 51:00.72 | 3:27.56 | 229572 | 245152


Range status and errors

Selected range

Filename I:\Rips\John Farnham - One Voice - The Greatest Hits (Disc 1).wav

Peak level 100.0 %
Extraction speed 1.8 X
Range quality 100.0 %
Test CRC 43B9F087
Copy CRC 43B9F087
Copy OK

No errors occurred


AccurateRip summary

Track 1 accurately ripped (confidence 10) [F97A7477] (AR v2)
Track 2 accurately ripped (confidence 9) [2AFF7F38] (AR v2)
Track 3 accurately ripped (confidence 9) [4F875ADC] (AR v2)
Track 4 accurately ripped (confidence 9) [41920E42] (AR v2)
Track 5 accurately ripped (confidence 9) [9B4D86D3] (AR v2)
Track 6 accurately ripped (confidence 9) [F9F8B90C] (AR v2)
Track 7 accurately ripped (confidence 9) [89EDA7DF] (AR v2)
Track 8 accurately ripped (confidence 9) [403A62DB] (AR v2)
Track 9 accurately ripped (confidence 9) [0709137A] (AR v2)
Track 10 accurately ripped (confidence 9) [A3450CED] (AR v2)
Track 11 accurately ripped (confidence 9) [46F466EA] (AR v2)
Track 12 accurately ripped (confidence 9) [5E79A13C] (AR v2)
Track 13 accurately ripped (confidence 9) [412D5297] (AR v2)
Track 14 accurately ripped (confidence 9) [D47D6416] (AR v2)

All tracks accurately ripped

End of status report

==== Log checksum 081EBDD479128DA94BAF844C9CB492210C4185EABAA606D1DD6C048579F551A7 ====

[CUETools log; Date: 23.09.2019 18:16:35; Version: 2.1.6]
[CTDB TOCID: Bj8dD12I0eJQbmlDR_wtiaq06Uc-] found.
Track | CTDB Status
1 | (118/120) Accurately ripped
2 | (117/120) Accurately ripped
3 | (118/120) Accurately ripped
4 | (119/120) Accurately ripped
5 | (120/120) Accurately ripped
6 | (119/120) Accurately ripped
7 | (120/120) Accurately ripped
8 | (118/120) Accurately ripped
9 | (119/120) Accurately ripped
10 | (119/120) Accurately ripped
11 | (119/120) Accurately ripped
12 | (118/120) Accurately ripped
13 | (119/120) Accurately ripped
14 | (119/120) Accurately ripped
[AccurateRip ID: 001d16c0-0134cf37-c20cc40e] found.
Track [ CRC | V2 ] Status
01 [b60bde1b|f97a7477] (034+028/110) Accurately ripped
02 [78664533|2aff7f38] (034+026/110) Accurately ripped
03 [80f7435c|4f875adc] (034+026/110) Accurately ripped
04 [e7cf7c64|41920e42] (034+026/108) Accurately ripped
05 [b9401517|9b4d86d3] (034+028/109) Accurately ripped
06 [a4715ebc|f9f8b90c] (033+026/109) Accurately ripped
07 [9952b8f8|89eda7df] (032+027/107) Accurately ripped
08 [a27d7b7b|403a62db] (033+026/108) Accurately ripped
09 [4d83f517|0709137a] (033+026/107) Accurately ripped
10 [6421ec26|a3450ced] (033+028/110) Accurately ripped
11 [d34571d1|46f466ea] (033+028/108) Accurately ripped
12 [6897454d|5e79a13c] (033+026/107) Accurately ripped
13 [66136dc3|412d5297] (033+026/107) Accurately ripped
14 [6f4c6eaf|d47d6416] (032+026/105) Accurately ripped
Offsetted by -1328:
01 [3f93334b] (006/110) Accurately ripped
02 [defad033] (006/110) Accurately ripped
03 [ebefcffc] (006/110) Accurately ripped
04 [f66da3e4] (006/108) Accurately ripped
05 [4a2f9e37] (006/109) Accurately ripped
06 [6078c4fc] (006/109) Accurately ripped
07 [64fc0ef8] (006/107) Accurately ripped
08 [ee117d7b] (006/108) Accurately ripped
09 [f91ff0a7] (006/107) Accurately ripped
10 [bcdf7b66] (006/110) Accurately ripped
11 [f7d863a1] (006/108) Accurately ripped
12 [d4f75c7d] (006/107) Accurately ripped
13 [36369bd3] (006/107) Accurately ripped
14 [f5d4cb76] (006/105) Accurately ripped
Offsetted by -664:
01 [facf88b3] (003/110) Accurately ripped
02 [abb08ab3] (004/110) Accurately ripped
03 [b67389ac] (004/110) Accurately ripped
04 [ef1e9024] (003/108) Accurately ripped
05 [81b7d9a7] (003/109) Accurately ripped
06 [027511dc] (004/109) Accurately ripped
07 [7f2763f8] (003/107) Accurately ripped
08 [c8477c7b] (003/108) Accurately ripped
09 [2351f2df] (003/107) Accurately ripped
10 [9080b3c6] (003/110) Accurately ripped
11 [658eeab9] (003/108) Accurately ripped
12 [9ec750e5] (003/107) Accurately ripped
13 [4e2504cb] (004/107) Accurately ripped
14 [9c601822] (003/105) Accurately ripped
Offsetted by -325:
01 [e7201260] (007/110) Accurately ripped
02 [4e08b203] (007/110) Accurately ripped
03 [8ce132e2] (007/110) Accurately ripped
04 [a41005ac] (007/108) Accurately ripped
05 [2fcdfb15] (007/109) Accurately ripped
06 [9d410f78] (007/109) Accurately ripped
07 [ac83ae98] (007/107) Accurately ripped
08 [6152dc5b] (007/108) Accurately ripped
09 [f629f026] (007/107) Accurately ripped
10 [08801ed2] (007/110) Accurately ripped
11 [8d60ec9c] (007/108) Accurately ripped
12 [29aaee72] (007/107) Accurately ripped
13 [90b956ea] (007/107) Accurately ripped
14 [011a315c] (007/105) Accurately ripped
Offsetted by -1346:
01 [3e5ad15d] (000/110) No match (V2 was not tested)
02 [8ddd3653] (000/110) No match (V2 was not tested)
03 [36a3c278] (000/110) No match (V2 was not tested)
04 [64e437b4] (000/108) No match (V2 was not tested)
05 [d1ef0263] (000/109) No match (V2 was not tested)
06 [c742e4d4] (000/109) No match (V2 was not tested)
07 [a4467338] (000/107) No match (V2 was not tested)
08 [c639aa3b] (000/108) No match (V2 was not tested)
09 [7eebb15d] (000/107) No match (V2 was not tested)
10 [e18bb09e] (000/110) No match (V2 was not tested)
11 [1e827a2f] (000/108) No match (V2 was not tested)
12 [4eb96f4f] (000/107) No match (V2 was not tested)
13 [177e0679] (000/107) No match (V2 was not tested)
14 [fc074b4e] (000/105) No match (V2 was not tested)

Track Peak [ CRC32 ] [W/O NULL] [ LOG ]
– 100,0 [43B9F087] [F3D1A631] CRC32
01 100,0 [0CE9F256] [AEEE5339]
02 95,4 [16C73C99] [81E7610D]
03 100,0 [4D7F826F] [29988180]
04 100,0 [13F12C0B] [22E55C02]
05 92,5 [AEEC44EF] [8534C945]
06 95,4 [1D77138A] [827808C8]
07 100,0 [0DFBAB73] [B47B75B7]
08 95,4 [F22110CE] [E1DD5B7B]
09 100,0 [D9D200A2] [7EEC0620]
10 92,4 [C18D519E] [7070936A]
11 90,4 [CAEAAD1F] [E0F0FCE7]
12 100,0 [FB97ED9A] [22BECB29]
13 81,4 [0DFF4AD0] [5AE68512]
14 98,8 [9DDAB7A1] [E8BDFADE]

John Farnham - One Voice: The Greatest Hits (2003)

John Farnham - One Voice: The Greatest Hits (2003)

Track List CD2:

01. You're The Voice [05:04]
02. Two Strong Hearts [03:33]
03. Everything's Alright [Featuring Jon Stevens, Kate Ceberano] [04:50]
04. One [02:51]
05. Seemed Like A Good Idea (At The Time) [03:48]
06. Talk Of The Town [03:45]
07. Angels [05:38]
08. Have A Little Faith (In Us) [04:48]
09. Hearts On Fire [04:19]
10. Every Time You Cry [Featuring Human Nature] [04:46]
11. Reasons [04:29]
12. No Ordinary World [03:48]
13. Man Of The Hour [04:05]

Exact Audio Copy V1.0 beta 3 from 29. August 2011

EAC extraction logfile from 5. February 2015, 20:50

John Farnham / One Voice - The Greatest Hits (Disc 2)

Used drive : HL-DT-STDVDRAM GH22NS40 Adapter: 4 ID: 0

Read mode : Secure
Utilize accurate stream : Yes
Defeat audio cache : Yes
Make use of C2 pointers : No

Read offset correction : 667
Overread into Lead-In and Lead-Out : No
Fill up missing offset samples with silence : Yes
Delete leading and trailing silent blocks : No
Null samples used in CRC calculations : Yes
Used interface : Native Win32 interface for Win NT & 2000

Used output format : User Defined Encoder
Selected bitrate : 1024 kBit/s
Quality : High
Add ID3 tag : No
Command line compressor : C:\Program Files\FLAC\flac.exe
Additional command line options : -V -8 -T "Date=%year%" -T "Genre=%genre%" %source%


TOC of the extracted CD

Track | Start | Length | Start sector | End sector
––––––––––––––––––––––––––––-
1 | 0:00.00 | 5:04.00 | 0 | 22799
2 | 5:04.00 | 3:32.63 | 22800 | 38762
3 | 8:36.63 | 4:49.20 | 38763 | 60457
4 | 13:26.08 | 2:51.00 | 60458 | 73282
5 | 16:17.08 | 3:47.36 | 73283 | 90343
6 | 20:04.44 | 3:44.20 | 90344 | 107163
7 | 23:48.64 | 5:37.65 | 107164 | 132503
8 | 29:26.54 | 4:47.50 | 132504 | 154078
9 | 34:14.29 | 4:18.24 | 154079 | 173452
10 | 38:32.53 | 4:45.22 | 173453 | 194849
11 | 43:18.00 | 4:28.18 | 194850 | 214967
12 | 47:46.18 | 3:47.67 | 214968 | 232059
13 | 51:34.10 | 4:04.07 | 232060 | 250366


Range status and errors

Selected range

Filename I:\Rips\John Farnham - One Voice - The Greatest Hits (Disc 2).wav

Peak level 100.0 %
Extraction speed 1.9 X
Range quality 100.0 %
Test CRC 0DAA7A8C
Copy CRC 0DAA7A8C
Copy OK

No errors occurred


AccurateRip summary

Track 1 accurately ripped (confidence 9) [0FFD9024] (AR v2)
Track 2 accurately ripped (confidence 9) [962D8721] (AR v2)
Track 3 accurately ripped (confidence 9) [54C0B48F] (AR v2)
Track 4 accurately ripped (confidence 9) [6C302664] (AR v2)
Track 5 accurately ripped (confidence 9) [2A65F2D3] (AR v2)
Track 6 accurately ripped (confidence 9) [8BC72F8F] (AR v2)
Track 7 accurately ripped (confidence 9) [448A66D9] (AR v2)
Track 8 accurately ripped (confidence 9) [92BF6AED] (AR v2)
Track 9 accurately ripped (confidence 9) [343F7695] (AR v2)
Track 10 accurately ripped (confidence 9) [87E9CFB1] (AR v2)
Track 11 accurately ripped (confidence 9) [6D2D19CE] (AR v2)
Track 12 accurately ripped (confidence 9) [3DE460CE] (AR v2)
Track 13 accurately ripped (confidence 9) [AAFB026D] (AR v2)

All tracks accurately ripped

End of status report

==== Log checksum 89E211E1559532A534CC1CFB1A211145D4B0B998206D77F59528421AE4178B89 ====

[CUETools log; Date: 23.09.2019 18:17:38; Version: 2.1.6]
[CTDB TOCID: k3SsTB1f8b.ujIRDqg2Zq8GyEcQ-] found.
Track | CTDB Status
1 | (109/110) Accurately ripped
2 | (109/110) Accurately ripped
3 | (109/110) Accurately ripped
4 | (108/110) Accurately ripped
5 | (109/110) Accurately ripped
6 | (110/110) Accurately ripped
7 | (109/110) Accurately ripped
8 | (109/110) Accurately ripped
9 | (109/110) Accurately ripped
10 | (108/110) Accurately ripped
11 | (108/110) Accurately ripped
12 | (109/110) Accurately ripped
13 | ( 90/110) Accurately ripped, or (19/110) differs in 170 samples @01:58:27-01:58:28,02:00:23,02:01:58-02:01:59
[AccurateRip ID: 001aa0c5-010ada7a-b20d0a0d] found.
Track [ CRC | V2 ] Status
01 [d03a011e|0ffd9024] (29+26/93) Accurately ripped
02 [32bb43bf|962d8721] (29+26/92) Accurately ripped
03 [1043794b|54c0b48f] (29+26/92) Accurately ripped
04 [8572208e|6c302664] (29+27/93) Accurately ripped
05 [dc832aaa|2a65f2d3] (29+26/91) Accurately ripped
06 [6d41f917|8bc72f8f] (29+26/90) Accurately ripped
07 [0543eb4f|448a66d9] (29+26/92) Accurately ripped
08 [469351bc|92bf6aed] (29+26/92) Accurately ripped
09 [26f8332f|343f7695] (29+26/93) Accurately ripped
10 [fd55d9db|87e9cfb1] (28+26/92) Accurately ripped
11 [e7f57bc4|6d2d19ce] (29+26/93) Accurately ripped
12 [f3ad667c|3de460ce] (29+26/92) Accurately ripped
13 [2716db12|aafb026d] (29+26/92) Accurately ripped
Offsetted by -664:
01 [abed422e] (06/93) Accurately ripped
02 [482eb3f7] (06/92) Accurately ripped
03 [86b13fbb] (05/92) Accurately ripped
04 [31496266] (05/93) Accurately ripped
05 [5a51c49a] (05/91) Accurately ripped
06 [78d3a4e7] (05/90) Accurately ripped
07 [2f6248a7] (06/92) Accurately ripped
08 [d8fd4c84] (06/92) Accurately ripped
09 [f1614a0f] (06/93) Accurately ripped
10 [1ad6cceb] (06/92) Accurately ripped
11 [7511e22c] (06/93) Accurately ripped
12 [30bac0a4] (06/92) Accurately ripped
13 [5dd27ca8] (06/92) Accurately ripped
Offsetted by -1340:
01 [63804846] (03/93) Accurately ripped
02 [10e9a00b] (03/92) Accurately ripped
03 [c19320e3] (03/92) Accurately ripped
04 [0b69edea] (03/93) Accurately ripped
05 [58db9f02] (03/91) Accurately ripped
06 [c3d5711f] (03/90) Accurately ripped
07 [25d4796b] (03/92) Accurately ripped
08 [e34118f0] (03/92) Accurately ripped
09 [537f2b5f] (03/93) Accurately ripped
10 [bf0b6e03] (03/92) Accurately ripped
11 [895b8508] (03/93) Accurately ripped
12 [6416ff20] (03/92) Accurately ripped
13 [12e37b83] (00/92) No match (V2 was not tested)
Offsetted by -694:
01 [d19caec2] (00/93) No match (V2 was not tested)
02 [8861699d] (00/92) No match (V2 was not tested)
03 [f1d38287] (00/92) No match (V2 was not tested)
04 [a5009a94] (00/93) No match (V2 was not tested)
05 [9c25e5c6] (00/91) No match (V2 was not tested)
06 [176bf5eb] (00/90) No match (V2 was not tested)
07 [ae33d935] (00/92) No match (V2 was not tested)
08 [049dd89e] (00/92) No match (V2 was not tested)
09 [6ca54427] (00/93) No match (V2 was not tested)
10 [eb97ffff] (00/92) No match (V2 was not tested)
11 [c702f94e] (00/93) No match (V2 was not tested)
12 [987ffb76] (00/92) No match (V2 was not tested)
13 [95b0eee4] (00/92) No match (V2 was not tested)

Track Peak [ CRC32 ] [W/O NULL] [ LOG ]
– 100,0 [0DAA7A8C] [8EBD2E93] CRC32
01 100,0 [71964C80] [195D2AB9]
02 100,0 [328EEE9E] [0F9499FE]
03 100,0 [C6B8075F] [7518B4DE]
04 94,4 [27708841] [14D3072C]
05 100,0 [9F69EE07] [1D6E785A]
06 95,4 [D8B516E9] [B7E3972F]
07 100,0 [6D685CE8] [A57EB078]
08 100,0 [D6E355B3] [4EEF113D]
09 100,0 [CD50E72D] [1C3BB05D]
10 95,4 [0DC0E120] [4F78AAB2]
11 95,4 [407B7C74] [A6154A36]
12 98,8 [DD813915] [218BE31C]
13 97,7 [F73301FB] [3695C0A7]

John Farnham - One Voice: The Greatest Hits (2003)


See also:

John Farnham - Whispering Jack (1986)

All thanks go to powermet

>>> My Blog <<<

DOWNLOAD: