Subcategories

John Hiatt - All Of A Sudden (1982) [2013, Universal Music Japan UICY-75576] Repost

Posted By: v3122
John Hiatt - All Of A Sudden (1982) [2013, Universal Music Japan UICY-75576] Repost

John Hiatt - All Of A Sudden (1982)
EAC | Flac(Image) + Cue + Log & MP3 CBR 320Kbps
Universal Music Japan UICY-75576 | ~ 271 or 101 Mb | Scans(png) -> 161 Mb
Heartland Rock, Rock & Roll

Hiatt's fifth album and his first for Geffen, his third record label, was given a somewhat inappropriate big-gloss production (all shimmering keyboards and filtered vocals) by Tony Visconti, known for his work with David Bowie. What counts with Hiatt, though, is the songs, and this album contains "I Look for Love," as knowing a dissection of the dating scene as anyone has yet attempted.

by William Ruhlmann, allmusic
John Hiatt - All Of A Sudden (1982):

John Hiatt - All Of A Sudden (1982) [2013, Universal Music Japan UICY-75576] Repost

Tracklist:

01. I Look For Love 03:35
02. This Secret Life 03:57
03. Overnight Story 03:28
04. Forever Yours 03:46
05. Some Fun Now 03:20
06. The Walking Dead 02:55
07. I Could Use An Angel 03:37
08. Getting Excited 03:35
09. Doll Hospital 03:02
10. Something Happens 03:25
11. Marianne 02:45
12. My Edge Of The Razor 04:23

Exact Audio Copy V1.0 beta 3 from 29. August 2011

EAC extraction logfile from 3. June 2013, 21:04

John Hiatt / All Of A Sudden

Used drive : PLEXTOR BD-R PX-B950SA Adapter: 6 ID: 0

Read mode : Secure
Utilize accurate stream : Yes
Defeat audio cache : Yes
Make use of C2 pointers : No

Read offset correction : 6
Overread into Lead-In and Lead-Out : No
Fill up missing offset samples with silence : Yes
Delete leading and trailing silent blocks : No
Null samples used in CRC calculations : Yes
Used interface : Native Win32 interface for Win NT & 2000

Used output format : Internal WAV Routines
Sample format : 44.100 Hz; 16 Bit; Stereo


TOC of the extracted CD

Track | Start | Length | Start sector | End sector
––––––––––––––––––––––––––––-
1 | 0:00.00 | 3:35.34 | 0 | 16158
2 | 3:35.34 | 3:57.68 | 16159 | 34001
3 | 7:33.27 | 3:28.34 | 34002 | 49635
4 | 11:01.61 | 3:46.62 | 49636 | 66647
5 | 14:48.48 | 3:20.23 | 66648 | 81670
6 | 18:08.71 | 2:55.38 | 81671 | 94833
7 | 21:04.34 | 3:37.30 | 94834 | 111138
8 | 24:41.64 | 3:35.64 | 111139 | 127327
9 | 28:17.53 | 3:02.08 | 127328 | 140985
10 | 31:19.61 | 3:25.65 | 140986 | 156425
11 | 34:45.51 | 2:45.23 | 156426 | 168823
12 | 37:30.74 | 4:23.59 | 168824 | 188607


Range status and errors

Selected range

Filename C:\Users\Meijin\Desktop\ALLexxess\John Hiatt\1982 All Of A Sudden (Mini LP SHM-CD Universal Japan 2013)\John Hiatt - All Of A Sudden.wav

Peak level 92.3 %
Extraction speed 6.8 X
Range quality 100.0 %
Test CRC 3A89FDF2
Copy CRC 3A89FDF2
Copy OK

No errors occurred


AccurateRip summary

Track 1 not present in database
Track 2 not present in database
Track 3 not present in database
Track 4 not present in database
Track 5 not present in database
Track 6 not present in database
Track 7 not present in database
Track 8 not present in database
Track 9 not present in database
Track 10 not present in database
Track 11 not present in database
Track 12 not present in database

None of the tracks are present in the AccurateRip database

End of status report

==== Log checksum 3E0EF1D420A7F8E32F217D7FD6908BABD9144756071535BE132B7D07194692F0 ====


[CUETools log; Date: 07.06.2018 18:55:50; Version: 2.1.5]
[AccurateRip ID: 0012dd25-00aeeacf-aa09d20c] found.
Track [ CRC | V2 ] Status
01 [206f59fc|d5f4e9a5] (0+2/2) Accurately ripped
02 [c61b2d96|1f45dbb3] (0+2/2) Accurately ripped
03 [3dedfe2f|708a750b] (0+2/2) Accurately ripped
04 [83a150ef|f62eda4e] (0+2/2) Accurately ripped
05 [40e51822|f3f48ab6] (0+2/2) Accurately ripped
06 [57c6f5f8|1f3a5bae] (0+2/2) Accurately ripped
07 [fdc27f00|b18b570d] (0+2/2) Accurately ripped
08 [4a71561f|67dcf72a] (0+2/2) Accurately ripped
09 [14f175dd|c9ed2036] (0+2/2) Accurately ripped
10 [8e2c4359|abc94954] (0+2/2) Accurately ripped
11 [23403da3|b8f9e143] (0+2/2) Accurately ripped
12 [77fffcb7|e49c5850] (0+2/2) Accurately ripped

Track Peak [ CRC32 ] [W/O NULL] [ LOG ]
– 92,3 [3A89FDF2] [2B9EC8C8] CRC32
01 86,7 [BFA5976A] [330A2407]
02 92,3 [71E1DE16] [D7B01995]
03 82,0 [45B4C392] [E25E20BE]
04 78,1 [B8261F2E] [827ADF24]
05 82,3 [AFF7AD5A] [54CFE8EB]
06 71,4 [9CF769FD] [AC93F69D]
07 80,4 [B4C53461] [A664CA25]
08 71,8 [A230E212] [661AB8D0]
09 74,4 [0BED95A5] [B4182165]
10 79,1 [890A70FC] [7F5FE578]
11 84,8 [C4773E47] [0A638AB2]
12 62,0 [EE551ADF] [14DD1C29]


John Hiatt - All Of A Sudden (1982) [2013, Universal Music Japan UICY-75576] Repost

All thanks go to ALLexxess

John Hiatt or John Hiatt in my Blog

Download John Hiatt - All Of A Sudden (1982):