Subcategories

John Lee Hooker - Alternative Boogie: Early Studio Recordings 1948-1952 (1995) {3CD Box Set}

Posted By: popsakov
John Lee Hooker - Alternative Boogie: Early Studio Recordings 1948-1952 (1995) {3CD Box Set}

John Lee Hooker - Alternative Boogie: Early Studio Recordings 1948-1952 (1995) {3CD Box Set}
EAC Rip | WavPack (Img) + Cue + Log ~ 619 Mb | MP3 CBR320 ~ 402 Mb
Full Scans ~ 141 Mb | RAR 5% Recovery
Acoustic Blues, Electric Blues, Blues Revival | Capitol Records #7243 8 33912 2 6

A whopping three CDs, and 56 songs, from Hooker's early sessions that were unreleased at the time, although they were available for a while in the early 1970s on some United Artists LPs. Like his more widely known material of the period, it mostly features Hooker unaccompanied, though he's aided by piano and second guitarists on a few tracks. Some of these are alternates of songs that were released in different versions, or embryonic renditions of compositions that evolved into somewhat different shapes. Especially interesting are early versions of his big hit "I'm in the Mood for Love." It's too much at once, though, and too unvarying in approach, for anyone but Hooker specialists. General fans are advised to stick with The Legendary Modern Recordings, which has 24 more renowned, and somewhat more accomplished, tracks from the same era. It's certainly a well-done package, though, containing a 38-page insert with detailed liner notes and session information.
~ Richie Unterberger, All Music
John Lee Hooker - Alternative Boogie: Early Studio Recordings 1948-1952 (1995) {3CD Box Set}


***************

Track List CD1:

01. Come Back Baby [2:57]
02. Forgive Me [3:14]
03. Streets Is Filled With Women [3:13]
04. Moon Is Rising [2:50]
05. Whistle Done Blown [3:11]
06. Turnin' Gray Blues [2:48]
07. She Was In Chicago [2:57]
08. Lord Taketh My Baby Away [3:02]
09. Just Like A Woman [3:00]
10. Throw This Old Dog A Bone [3:05]
11. Johnny Lee's Mood [3:04]
12. Miss Eloise, Miss Eloise [2:41]
13. Crying All Night [2:44]
14. Welfare Blues [2:58]
15. Johnny Lee's Original Boogie [2:53]
16. She Left Me By Myself [2:50]
17. Out The Door I Went [3:01]
18. My Baby She's Long And Tall [3:03]

Exact Audio Copy V1.0 beta 3 from 29. August 2011

EAC extraction logfile from 21. January 2013, 9:56

John Lee Hooker / Alternative Boogie: Early Studio Recordings, 1948-1952

Used drive : HL-DT-STBDDVDRW GBC-H20N Adapter: 1 ID: 0

Read mode : Secure
Utilize accurate stream : Yes
Defeat audio cache : Yes
Make use of C2 pointers : No

Read offset correction : 667
Overread into Lead-In and Lead-Out : No
Fill up missing offset samples with silence : Yes
Delete leading and trailing silent blocks : No
Null samples used in CRC calculations : Yes
Used interface : Native Win32 interface for Win NT & 2000

Used output format : User Defined Encoder
Selected bitrate : 1024 kBit/s
Quality : High
Add ID3 tag : No
Command line compressor : C:\Program Files\Exact Audio Copy\wavpack.exe
Additional command line options : -hm %source% %dest%


TOC of the extracted CD

Track | Start | Length | Start sector | End sector
––––––––––––––––––––––––––––-
1 | 0:00.32 | 2:56.60 | 32 | 13291
2 | 2:57.17 | 3:13.40 | 13292 | 27806
3 | 6:10.57 | 3:13.35 | 27807 | 42316
4 | 9:24.17 | 2:49.45 | 42317 | 55036
5 | 12:13.62 | 3:10.68 | 55037 | 69354
6 | 15:24.55 | 2:48.22 | 69355 | 81976
7 | 18:13.02 | 2:57.13 | 81977 | 95264
8 | 21:10.15 | 3:02.02 | 95265 | 108916
9 | 24:12.17 | 2:59.45 | 108917 | 122386
10 | 27:11.62 | 3:05.20 | 122387 | 136281
11 | 30:17.07 | 3:04.15 | 136282 | 150096
12 | 33:21.22 | 2:41.05 | 150097 | 162176
13 | 36:02.27 | 2:43.63 | 162177 | 174464
14 | 38:46.15 | 2:57.52 | 174465 | 187791
15 | 41:43.67 | 2:53.08 | 187792 | 200774
16 | 44:37.00 | 2:49.62 | 200775 | 213511
17 | 47:26.62 | 3:01.13 | 213512 | 227099
18 | 50:28.00 | 3:03.02 | 227100 | 240826


Range status and errors

Selected range

Filename C:\Users\ProgDog\Music\ZALIVKI\BLUES\Hooker (John Lee)\Alternative Boogie\Disc 1\John Lee Hooker - Alternative Boogie- Early Studio Recordings, 1948-1952.wav

Peak level 99.0 %
Extraction speed 6.0 X
Range quality 100.0 %
Test CRC 93BF89C5
Copy CRC 93BF89C5
Copy OK

No errors occurred


AccurateRip summary

Track 1 cannot be verified as accurate (confidence 6) [1A4EAC33], AccurateRip returned [89AC0B31] (AR v2)
Track 2 cannot be verified as accurate (confidence 6) [83109D67], AccurateRip returned [E0F1ED43] (AR v2)
Track 3 cannot be verified as accurate (confidence 6) [2ECBA8F0], AccurateRip returned [593EFFC6] (AR v2)
Track 4 cannot be verified as accurate (confidence 6) [934749AB], AccurateRip returned [B0A8199A] (AR v2)
Track 5 cannot be verified as accurate (confidence 6) [75F03A80], AccurateRip returned [0DCCD9ED] (AR v2)
Track 6 cannot be verified as accurate (confidence 6) [4B4CA7FD], AccurateRip returned [D312283D] (AR v2)
Track 7 cannot be verified as accurate (confidence 6) [6FBDA123], AccurateRip returned [5FA0FBF7] (AR v2)
Track 8 cannot be verified as accurate (confidence 6) [E4FC8476], AccurateRip returned [51CA0358] (AR v2)
Track 9 cannot be verified as accurate (confidence 6) [3D197D65], AccurateRip returned [F41B6EBF] (AR v2)
Track 10 cannot be verified as accurate (confidence 6) [B84B88CF], AccurateRip returned [6E4D2AF1] (AR v2)
Track 11 cannot be verified as accurate (confidence 6) [4A384123], AccurateRip returned [1C7EB287] (AR v2)
Track 12 cannot be verified as accurate (confidence 6) [620AC6F6], AccurateRip returned [ADBBC1C2] (AR v2)
Track 13 cannot be verified as accurate (confidence 6) [FA2B2613], AccurateRip returned [524F488F] (AR v2)
Track 14 cannot be verified as accurate (confidence 6) [46D13B6C], AccurateRip returned [5C6CF1F0] (AR v2)
Track 15 cannot be verified as accurate (confidence 6) [D6DA7497], AccurateRip returned [D70109B0] (AR v2)
Track 16 cannot be verified as accurate (confidence 6) [41181C77], AccurateRip returned [C4C3FCF2] (AR v2)
Track 17 cannot be verified as accurate (confidence 6) [1E32FA71], AccurateRip returned [C6EAE713] (AR v2)
Track 18 cannot be verified as accurate (confidence 6) [45BEB18F], AccurateRip returned [8611A2B4] (AR v2)

No tracks could be verified as accurate
You may have a different pressing from the one(s) in the database

End of status report

–– CUETools DB Plugin V2.1.3

[CTDB TOCID: aNR.EsJ.1DRz2_DFn_BoI22iz3c-] disk not present in database, Submit result: database access error: The remote name could not be resolved: 'db.cuetools.net'


==== Log checksum CC1B2C8181B3832E3E2A2E69CAC5A2D19C327CEC32DA4AEF743D56A3DE591CB1 ====

Track List CD2:

01. No Mortgage On My Soul [3:18]
02. I Come To You Baby [2:45]
03. I Rule My Den [2:46]
04. The Great Disaster Of 1936 [3:03]
05. The Winding Highway [2:55]
06. She Quit Me [2:50]
07. How Long Can This Go On [2:53]
08. Can I Say Hello [3:10]
09. I Had A Dream [3:00]
10. Me And A Woman [2:40]
11. Throw My Money Around [2:42]
12. Well I Got To Leave [2:54]
13. I Gotta Be Comin' Back [2:42]
14. I Don't Be Welcome Here [3:01]
15. Two Voice Original Mood [3:07]
16. Three Voice Original Mood [3:07]
17. Johnny Says Come Back [3:15]
18. The Story Of A Married Woman [2:47]
19. Snap Them Fingers Boogie [3:02]

Exact Audio Copy V1.0 beta 3 from 29. August 2011

EAC extraction logfile from 21. January 2013, 11:09

John Lee Hooker / Alternative Boogie: Early Studio Recordings, 1948-1952

Used drive : HL-DT-STBDDVDRW GBC-H20N Adapter: 1 ID: 0

Read mode : Secure
Utilize accurate stream : Yes
Defeat audio cache : Yes
Make use of C2 pointers : No

Read offset correction : 667
Overread into Lead-In and Lead-Out : No
Fill up missing offset samples with silence : Yes
Delete leading and trailing silent blocks : No
Null samples used in CRC calculations : Yes
Used interface : Native Win32 interface for Win NT & 2000

Used output format : User Defined Encoder
Selected bitrate : 1024 kBit/s
Quality : High
Add ID3 tag : No
Command line compressor : C:\Program Files\Exact Audio Copy\wavpack.exe
Additional command line options : -hm %source% %dest%


TOC of the extracted CD

Track | Start | Length | Start sector | End sector
––––––––––––––––––––––––––––-
1 | 0:00.32 | 3:17.53 | 32 | 14859
2 | 3:18.10 | 2:45.07 | 14860 | 27241
3 | 6:03.17 | 2:45.40 | 27242 | 39656
4 | 8:48.57 | 3:03.10 | 39657 | 53391
5 | 11:51.67 | 2:55.08 | 53392 | 66524
6 | 14:47.00 | 2:50.22 | 66525 | 79296
7 | 17:37.22 | 2:53.33 | 79297 | 92304
8 | 20:30.55 | 3:09.52 | 92305 | 106531
9 | 23:40.32 | 3:00.25 | 106532 | 120056
10 | 26:40.57 | 2:39.43 | 120057 | 132024
11 | 29:20.25 | 2:41.62 | 132025 | 144161
12 | 32:02.12 | 2:54.13 | 144162 | 157224
13 | 34:56.25 | 2:42.35 | 157225 | 169409
14 | 37:38.60 | 3:01.37 | 169410 | 183021
15 | 40:40.22 | 3:06.58 | 183022 | 197029
16 | 43:47.05 | 3:06.45 | 197030 | 211024
17 | 46:53.50 | 3:15.10 | 211025 | 225659
18 | 50:08.60 | 2:47.20 | 225660 | 238204
19 | 52:56.05 | 3:02.20 | 238205 | 251874


Range status and errors

Selected range

Filename C:\Users\ProgDog\Music\ZALIVKI\BLUES\Hooker (John Lee)\Alternative Boogie\Disc 2\John Lee Hooker - Alternative Boogie- Early Studio Recordings, 1948-1952.wav

Peak level 98.9 %
Extraction speed 6.2 X
Range quality 100.0 %
Test CRC 3903082D
Copy CRC 3903082D
Copy OK

No errors occurred


AccurateRip summary

Track 1 cannot be verified as accurate (confidence 6) [097FE236], AccurateRip returned [0D051BE4] (AR v2)
Track 2 cannot be verified as accurate (confidence 6) [AA8F8C98], AccurateRip returned [1D10C6D2] (AR v2)
Track 3 cannot be verified as accurate (confidence 6) [AD482C60], AccurateRip returned [9327CC52] (AR v2)
Track 4 cannot be verified as accurate (confidence 6) [9256BA00], AccurateRip returned [EFD4D335] (AR v2)
Track 5 cannot be verified as accurate (confidence 6) [E0D1D2B3], AccurateRip returned [77D86E30] (AR v2)
Track 6 cannot be verified as accurate (confidence 6) [A403B61E], AccurateRip returned [9BD0FD48] (AR v2)
Track 7 cannot be verified as accurate (confidence 6) [59814A51], AccurateRip returned [1FF8B7B1] (AR v2)
Track 8 cannot be verified as accurate (confidence 6) [1ED4AC86], AccurateRip returned [71B8AE80] (AR v2)
Track 9 cannot be verified as accurate (confidence 6) [18478AA8], AccurateRip returned [18858C46] (AR v2)
Track 10 cannot be verified as accurate (confidence 6) [6E673435], AccurateRip returned [5985D57C] (AR v2)
Track 11 cannot be verified as accurate (confidence 6) [CB3F1EC0], AccurateRip returned [29AE85F8] (AR v2)
Track 12 cannot be verified as accurate (confidence 6) [D86AD42E], AccurateRip returned [1FD1A798] (AR v2)
Track 13 cannot be verified as accurate (confidence 6) [70EBAAF0], AccurateRip returned [9B3C8A37] (AR v2)
Track 14 cannot be verified as accurate (confidence 6) [A72EB10D], AccurateRip returned [BA2C993F] (AR v2)
Track 15 cannot be verified as accurate (confidence 6) [E379E564], AccurateRip returned [A1A7638E] (AR v2)
Track 16 cannot be verified as accurate (confidence 6) [E1422634], AccurateRip returned [BB927DB4] (AR v2)
Track 17 cannot be verified as accurate (confidence 6) [AC096468], AccurateRip returned [117B157E] (AR v2)
Track 18 cannot be verified as accurate (confidence 6) [09A9AC10], AccurateRip returned [7A869AF4] (AR v2)
Track 19 cannot be verified as accurate (confidence 6) [40E275DE], AccurateRip returned [A538766C] (AR v2)

No tracks could be verified as accurate
You may have a different pressing from the one(s) in the database

End of status report

–– CUETools DB Plugin V2.1.3

[CTDB TOCID: xEgs95QDMYuuB5eufBKQcvKf728-] disk not present in database, Submit result: discs with pregaps not supported in this protocol version


==== Log checksum 03DD9A09B25CB1CB845CC9ECE25CAF78E17E64C98FD028FED64C5F81CDFAB102 ====

Track List CD3:

01. Lord What More Can I Do [2:54]
02. Baby Please Don't Go [2:19]
03. I'm Going Away [3:03]
04. Hummin' The Blues [3:07]
05. Johnny Lee And The Thing [2:45]
06. Slow Down Your Chatter Baby [2:55]
07. I Did Everything [3:23]
08. Someone To Love (Take 1) [2:48]
09. Someone To Love (Take 2) [3:01]
10. There's A Day Comin' Baby [3:06]
11. I Was Beggin' My Baby [2:15]
12. Nobody To Talk To Me [3:05]
13. I'm Gonna Whip Ya Baby [2:57]
14. It's A Crime And A Shame [2:49]
15. I Met The Grindin' Man [3:02]
16. Louisiana Blues For You [2:51]
17. Long, Long Way From Home [2:51]
18. Sometime [2:59]
19. T.B.'S Killin' Me [2:54]

Exact Audio Copy V1.0 beta 3 from 29. August 2011

EAC extraction logfile from 21. January 2013, 11:39

John Lee Hooker / Alternative Boogie: Early Studio Recordings, 1948-1952

Used drive : HL-DT-STBDDVDRW GBC-H20N Adapter: 1 ID: 0

Read mode : Secure
Utilize accurate stream : Yes
Defeat audio cache : Yes
Make use of C2 pointers : No

Read offset correction : 667
Overread into Lead-In and Lead-Out : No
Fill up missing offset samples with silence : Yes
Delete leading and trailing silent blocks : No
Null samples used in CRC calculations : Yes
Used interface : Native Win32 interface for Win NT & 2000

Used output format : User Defined Encoder
Selected bitrate : 1024 kBit/s
Quality : High
Add ID3 tag : No
Command line compressor : C:\Program Files\Exact Audio Copy\wavpack.exe
Additional command line options : -hm %source% %dest%


TOC of the extracted CD

Track | Start | Length | Start sector | End sector
––––––––––––––––––––––––––––-
1 | 0:00.32 | 2:54.08 | 32 | 13089
2 | 2:54.40 | 2:18.47 | 13090 | 23486
3 | 5:13.12 | 3:02.45 | 23487 | 37181
4 | 8:15.57 | 3:06.73 | 37182 | 51204
5 | 11:22.55 | 2:45.15 | 51205 | 63594
6 | 14:07.70 | 2:54.42 | 63595 | 76686
7 | 17:02.37 | 3:23.15 | 76687 | 91926
8 | 20:25.52 | 2:47.73 | 91927 | 104524
9 | 23:13.50 | 3:01.35 | 104525 | 118134
10 | 26:15.10 | 3:05.47 | 118135 | 132056
11 | 29:20.57 | 2:15.05 | 132057 | 142186
12 | 31:35.62 | 3:04.63 | 142187 | 156049
13 | 34:40.50 | 2:56.55 | 156050 | 169304
14 | 37:37.30 | 2:48.52 | 169305 | 181956
15 | 40:26.07 | 3:01.45 | 181957 | 195576
16 | 43:27.52 | 2:51.23 | 195577 | 208424
17 | 46:19.00 | 2:50.45 | 208425 | 221219
18 | 49:09.45 | 2:59.15 | 221220 | 234659
19 | 52:08.60 | 2:54.02 | 234660 | 247711


Range status and errors

Selected range

Filename C:\Users\ProgDog\Music\ZALIVKI\BLUES\Hooker (John Lee)\Alternative Boogie\Disc 3\John Lee Hooker - Alternative Boogie- Early Studio Recordings, 1948-1952.wav

Peak level 96.1 %
Extraction speed 6.1 X
Range quality 100.0 %
Test CRC 5AD0240E
Copy CRC 5AD0240E
Copy OK

No errors occurred


AccurateRip summary

Track 1 cannot be verified as accurate (confidence 6) [7EAB7676], AccurateRip returned [C859B358] (AR v2)
Track 2 cannot be verified as accurate (confidence 6) [BCA3E747], AccurateRip returned [70D0D7DD] (AR v2)
Track 3 cannot be verified as accurate (confidence 6) [EEC01B33], AccurateRip returned [8A6B35D0] (AR v2)
Track 4 cannot be verified as accurate (confidence 6) [D70F187A], AccurateRip returned [FD52EB84] (AR v2)
Track 5 cannot be verified as accurate (confidence 6) [28A0BA06], AccurateRip returned [DD697782] (AR v2)
Track 6 cannot be verified as accurate (confidence 6) [76974938], AccurateRip returned [1FF47B3E] (AR v2)
Track 7 cannot be verified as accurate (confidence 6) [BD335F12], AccurateRip returned [2E12D675] (AR v2)
Track 8 cannot be verified as accurate (confidence 6) [D09A2132], AccurateRip returned [846166E7] (AR v2)
Track 9 cannot be verified as accurate (confidence 6) [5A0C4CF6], AccurateRip returned [3C1B3E31] (AR v2)
Track 10 cannot be verified as accurate (confidence 6) [83B7B6A6], AccurateRip returned [BE4225DE] (AR v2)
Track 11 cannot be verified as accurate (confidence 6) [C362BA96], AccurateRip returned [A5637DAD] (AR v2)
Track 12 cannot be verified as accurate (confidence 6) [CE994AA6], AccurateRip returned [F6392754] (AR v2)
Track 13 cannot be verified as accurate (confidence 6) [720D92E5], AccurateRip returned [E55A8ABE] (AR v2)
Track 14 cannot be verified as accurate (confidence 6) [DD8D7217], AccurateRip returned [73C4FF66] (AR v2)
Track 15 cannot be verified as accurate (confidence 6) [1FD0FA65], AccurateRip returned [615FAEE2] (AR v2)
Track 16 cannot be verified as accurate (confidence 6) [95DC324C], AccurateRip returned [0C5C31B7] (AR v2)
Track 17 cannot be verified as accurate (confidence 6) [93322BC6], AccurateRip returned [166175DF] (AR v2)
Track 18 cannot be verified as accurate (confidence 6) [E83245D4], AccurateRip returned [C5CC8D8D] (AR v2)
Track 19 cannot be verified as accurate (confidence 6) [413FC5A3], AccurateRip returned [1DEF7F54] (AR v2)

No tracks could be verified as accurate
You may have a different pressing from the one(s) in the database

End of status report

–– CUETools DB Plugin V2.1.3

[CTDB TOCID: jR29yfc6s0SfNyfw257C5PHRWKU-] disk not present in database, Submit result: discs with pregaps not supported in this protocol version


==== Log checksum AB9753078CBE0D7D246BC1154C6727A05B20E2271CBFAE155171755037F9CFC6 ====

John Lee Hooker - Alternative Boogie: Early Studio Recordings 1948-1952 (1995) {3CD Box Set}

All thanks go to AD's

>>> John Lee Hooker in my Blog <<<

Download from icerbox.com: