Subcategories
Tags
Language
Tags

John Lee Hooker - Boogie Chillun (1972)

Posted By: Designol
John Lee Hooker - Boogie Chillun (1972)

John Lee Hooker - Boogie Chillun (1972)
XLD | FLAC | Image (Cue&Log) ~ 347 Mb | Mp3 (CBR320) ~ 202 Mb | Scans included
Delta Blues, Country Blues | Label: Fantasy | # 00025218240628 | Time: 01:15:59

Recorded live in November 1962 in San Francisco, this dates from the period in which Hooker often presented himself as a sort of blues/folk singer for the coffeehouse crowd, toning down his volume and aggressiveness somewhat. There's something of a muted "unplugged" feel to these solo performances (though an electric guitar is used). It's not ineffective, though not among his best work; it's the kind of Hooker you might want to put on past midnight, just before going to sleep. Hooker's never been bashful about recycling songs, and "Boogie Chillun" appears here in one of its many versions, as does "Dimples" (retitled as "I Like to See You Walk"). He also tackles the rock/soul standard "Money," changing the title to "I Need Some Money," for which he also somehow gets awarded the songwriting credit on the sleeve.

Review by Richie Unterberger, Allmusic.com

John Lee Hooker - Boogie Chillun (1972)



Recorded Live in San Francisco, November 2, 3, 8, & 10, 1962.

Selections #1-10 originally released as Live At Sugar Hill (Galaxy 8205)
Selections #11-19 first released in 1972 on the album Boogie Chillun (Fantasy 24706)

Tracklist:

01. I Just Can't Hold On Much Longer (5:34)
02. I'm Gonna Keep On Walking (3:30)
03. I Was Standing By The Wayside (4:43)
04. T.B. Is Killing Me (4:45)
05. Run On Babe (2:30)
06. This World (5:34)
07. I Like To See You Walk (2:36)
08. It's You I Love Baby (3:00)
09. Driftin' And Driftin' (4:15)
10. You Gonna Miss Me (4:11)
11. You're Nice And Kind To Me Lou Della (5:04)
12. I Need Some Money (3:27)
13. I Want To Get Married (4:35)
14. Boogie Chillun (2:57)
15. Night Time Is The Right Time (3:32)
16. You Don't Move Me Baby (4:37)
17. Yoy Been Dealin' With The Devil (3:48)
18. Cruel Little Baby (3:33)
19. I Got The Key To The Highway (3:46)


X Lossless Decoder version 20130407 (143.0)

XLD extraction logfile from 2013-04-28 12:07:19 +0300

John Lee Hooker / Boogie Chillun

Used drive : MATSHITA DVD-R UJ-898 (revision HC09)
Media type : Pressed CD

Ripper mode : XLD Secure Ripper
Disable audio cache : OK for the drive with a cache less than 1375KiB
Make use of C2 pointers : NO
Read offset correction : 102
Max retry count : 20
Gap status : Analyzed, Appended

TOC of the extracted CD
Track | Start | Length | Start sector | End sector
––––––––––––––––––––––––––––-
1 | 00:00:00 | 05:33:47 | 0 | 25021
2 | 05:33:47 | 03:30:35 | 25022 | 40806
3 | 09:04:07 | 04:43:05 | 40807 | 62036
4 | 13:47:12 | 04:45:15 | 62037 | 83426
5 | 18:32:27 | 02:29:73 | 83427 | 94674
6 | 21:02:25 | 05:33:47 | 94675 | 119696
7 | 26:35:72 | 02:36:08 | 119697 | 131404
8 | 29:12:05 | 03:00:37 | 131405 | 144941
9 | 32:12:42 | 04:15:05 | 144942 | 164071
10 | 36:27:47 | 04:11:18 | 164072 | 182914
11 | 40:38:65 | 05:04:05 | 182915 | 205719
12 | 45:42:70 | 03:27:25 | 205720 | 221269
13 | 49:10:20 | 04:35:37 | 221270 | 241931
14 | 53:45:57 | 02:57:35 | 241932 | 255241
15 | 56:43:17 | 03:31:55 | 255242 | 271121
16 | 60:14:72 | 04:36:40 | 271122 | 291861
17 | 64:51:37 | 03:47:73 | 291862 | 308959
18 | 68:39:35 | 03:33:30 | 308960 | 324964
19 | 72:12:65 | 03:46:37 | 324965 | 341951

List of alternate offset correction values
# | Absolute | Relative | Confidence
–––––––––––––––––––––
1 | 766 | 664 | 3
2 | -270 | -372 | 2

AccurateRip Summary (DiscID: 003596d8-02e6e8a6-1411cf13)
Track 01 : OK (v1, confidence 3/5, with different offset)
Track 02 : OK (v1, confidence 3/5, with different offset)
Track 03 : OK (v1, confidence 3/5, with different offset)
Track 04 : OK (v1, confidence 3/5, with different offset)
Track 05 : OK (v1, confidence 3/5, with different offset)
Track 06 : OK (v1, confidence 3/5, with different offset)
Track 07 : OK (v1, confidence 3/5, with different offset)
Track 08 : OK (v1, confidence 3/3, with different offset)
Track 09 : OK (v1, confidence 3/5, with different offset)
Track 10 : OK (v1, confidence 3/5, with different offset)
Track 11 : OK (v1, confidence 3/5, with different offset)
Track 12 : OK (v1, confidence 3/5, with different offset)
Track 13 : OK (v1, confidence 3/5, with different offset)
Track 14 : OK (v1, confidence 3/5, with different offset)
Track 15 : OK (v1, confidence 3/5, with different offset)
Track 16 : OK (v1, confidence 3/5, with different offset)
Track 17 : OK (v1, confidence 3/5, with different offset)
Track 18 : OK (v1, confidence 3/5, with different offset)
Track 19 : OK (v1, confidence 3/5, with different offset)
->All tracks accurately ripped.

All Tracks
Filename : /Users/Home/Music/my rips/live at sugar hill/john lee hooker-boogie chillun-1972/Boogie Chillun.flac
Album gain : 1.13 dB
Peak : 0.872559
CRC32 hash (test run) : 26A119E6
CRC32 hash : 26A119E6
CRC32 hash (skip zero) : 6BEB4D8C
Statistics
Read error : 0
Jitter error (maybe fixed) : 0
Retry sector count : 0
Damaged sector count : 0

Track 01
Pre-gap length : 00:02:00

Track gain : 1.00 dB
Peak : 0.711151
CRC32 hash (test run) : 45CB8A1D
CRC32 hash : 45CB8A1D
CRC32 hash (skip zero) : 8A957EF9
AccurateRip v1 signature : ED27457A (2DEE13DC w/correction)
AccurateRip v2 signature : 6356CDA3
->Accurately ripped with different offset (v1, confidence 3/5, offset +664)
Statistics
Read error : 0
Jitter error (maybe fixed) : 0
Retry sector count : 0
Damaged sector count : 0

Track 02
Pre-gap length : 00:05:12

Track gain : 1.23 dB
Peak : 0.567017
CRC32 hash (test run) : ED3BC934
CRC32 hash : ED3BC934
CRC32 hash (skip zero) : ED0A3C23
AccurateRip v1 signature : 5E728098 (F0F61D59 w/correction)
AccurateRip v2 signature : 6CE2A9F3
->Accurately ripped with different offset (v1, confidence 3/5, offset +664)
Statistics
Read error : 0
Jitter error (maybe fixed) : 0
Retry sector count : 0
Damaged sector count : 0

Track 03
Pre-gap length : 00:04:42

Track gain : 1.71 dB
Peak : 0.677795
CRC32 hash (test run) : D4600F70
CRC32 hash : D4600F70
CRC32 hash (skip zero) : F1CEA0A0
AccurateRip v1 signature : 33A539E7 (C2530FBD w/correction)
AccurateRip v2 signature : C03ADCDE
->Accurately ripped with different offset (v1, confidence 3/5, offset +664)
Statistics
Read error : 0
Jitter error (maybe fixed) : 0
Retry sector count : 0
Damaged sector count : 0

Track 04
Pre-gap length : 00:03:50

Track gain : 4.15 dB
Peak : 0.473267
CRC32 hash (test run) : 849F62FE
CRC32 hash : 849F62FE
CRC32 hash (skip zero) : 209A632F
AccurateRip v1 signature : 2B65DEA5 (239B9181 w/correction)
AccurateRip v2 signature : 664903D3
->Accurately ripped with different offset (v1, confidence 3/5, offset +664)
Statistics
Read error : 0
Jitter error (maybe fixed) : 0
Retry sector count : 0
Damaged sector count : 0

Track 05
Pre-gap length : 00:04:40

Track gain : 4.63 dB
Peak : 0.522125
CRC32 hash (test run) : B4D5F357
CRC32 hash : B4D5F357
CRC32 hash (skip zero) : 0C6C2587
AccurateRip v1 signature : F4E2F024 (346620C7 w/correction)
AccurateRip v2 signature : 7BD3B5C9
->Accurately ripped with different offset (v1, confidence 3/5, offset +664)
Statistics
Read error : 0
Jitter error (maybe fixed) : 0
Retry sector count : 0
Damaged sector count : 0

Track 06
Pre-gap length : 00:02:65

Track gain : 3.15 dB
Peak : 0.559906
CRC32 hash (test run) : 09DDBED4
CRC32 hash : 09DDBED4
CRC32 hash (skip zero) : 5795D04A
AccurateRip v1 signature : F4686FA1 (1CF7985C w/correction)
AccurateRip v2 signature : C64A6A91
->Accurately ripped with different offset (v1, confidence 3/5, offset +664)
Statistics
Read error : 0
Jitter error (maybe fixed) : 0
Retry sector count : 0
Damaged sector count : 0

Track 07
Pre-gap length : 00:03:20

Track gain : -1.27 dB
Peak : 0.656036
CRC32 hash (test run) : FBF50293
CRC32 hash : FBF50293
CRC32 hash (skip zero) : 03639D62
AccurateRip v1 signature : D3F7FAFA (7E829295 w/correction)
AccurateRip v2 signature : 6AE57109
->Accurately ripped with different offset (v1, confidence 3/5, offset +664)
Statistics
Read error : 0
Jitter error (maybe fixed) : 0
Retry sector count : 0
Damaged sector count : 0

Track 08
Pre-gap length : 00:04:40

Track gain : 2.58 dB
Peak : 0.625732
CRC32 hash (test run) : ED43C8E8
CRC32 hash : ED43C8E8
CRC32 hash (skip zero) : 1C0406A7
AccurateRip v1 signature : C6D435AF (EB5235DC w/correction)
AccurateRip v2 signature : 8D55E6C7
->Accurately ripped with different offset (v1, confidence 3/3, offset +664)
Statistics
Read error : 0
Jitter error (maybe fixed) : 0
Retry sector count : 0
Damaged sector count : 0

Track 09
Pre-gap length : 00:02:70

Track gain : 5.72 dB
Peak : 0.634155
CRC32 hash (test run) : C221B85F
CRC32 hash : C221B85F
CRC32 hash (skip zero) : 20219C1E
AccurateRip v1 signature : 97EBFC84 (2AACDF78 w/correction)
AccurateRip v2 signature : 23970451
->Accurately ripped with different offset (v1, confidence 3/5, offset +664)
Statistics
Read error : 0
Jitter error (maybe fixed) : 0
Retry sector count : 0
Damaged sector count : 0

Track 10
Pre-gap length : 00:03:02

Track gain : -0.04 dB
Peak : 0.661438
CRC32 hash (test run) : 8F25828B
CRC32 hash : 8F25828B
CRC32 hash (skip zero) : 39A580C6
AccurateRip v1 signature : 9EB96C76 (48DD635D w/correction)
AccurateRip v2 signature : 4B3A6E65
->Accurately ripped with different offset (v1, confidence 3/5, offset +664)
Statistics
Read error : 0
Jitter error (maybe fixed) : 0
Retry sector count : 0
Damaged sector count : 0

Track 11
Pre-gap length : 00:02:68

Track gain : -0.16 dB
Peak : 0.775818
CRC32 hash (test run) : A96071DF
CRC32 hash : A96071DF
CRC32 hash (skip zero) : 9FF794B4
AccurateRip v1 signature : 03F2D4BC (B6F756B7 w/correction)
AccurateRip v2 signature : B7FC3AA3
->Accurately ripped with different offset (v1, confidence 3/5, offset +664)
Statistics
Read error : 0
Jitter error (maybe fixed) : 0
Retry sector count : 0
Damaged sector count : 0

Track 12
Pre-gap length : 00:02:18

Track gain : -0.86 dB
Peak : 0.720551
CRC32 hash (test run) : 2B9205A2
CRC32 hash : 2B9205A2
CRC32 hash (skip zero) : 4EE174EF
AccurateRip v1 signature : 7E0ECE7A (5002FF58 w/correction)
AccurateRip v2 signature : 0B4F14CD
->Accurately ripped with different offset (v1, confidence 3/5, offset +664)
Statistics
Read error : 0
Jitter error (maybe fixed) : 0
Retry sector count : 0
Damaged sector count : 0

Track 13
Pre-gap length : 00:01:53

Track gain : -1.16 dB
Peak : 0.872559
CRC32 hash (test run) : B37D481B
CRC32 hash : B37D481B
CRC32 hash (skip zero) : BD10DDFC
AccurateRip v1 signature : 9E268D77 (C9850D15 w/correction)
AccurateRip v2 signature : 8C4E5C7E
->Accurately ripped with different offset (v1, confidence 3/5, offset +664)
Statistics
Read error : 0
Jitter error (maybe fixed) : 0
Retry sector count : 0
Damaged sector count : 0

Track 14
Pre-gap length : 00:01:67

Track gain : 3.80 dB
Peak : 0.572113
CRC32 hash (test run) : 5E505650
CRC32 hash : 5E505650
CRC32 hash (skip zero) : FA6DDA14
AccurateRip v1 signature : 94016A76 (274E37E0 w/correction)
AccurateRip v2 signature : 039E13F7
->Accurately ripped with different offset (v1, confidence 3/5, offset +664)
Statistics
Read error : 0
Jitter error (maybe fixed) : 0
Retry sector count : 0
Damaged sector count : 0

Track 15
Pre-gap length : 00:03:50

Track gain : 1.64 dB
Peak : 0.623657
CRC32 hash (test run) : 9E92AAD9
CRC32 hash : 9E92AAD9
CRC32 hash (skip zero) : 422A9287
AccurateRip v1 signature : 5A5040F7 (93C0ED91 w/correction)
AccurateRip v2 signature : D9B2CFAE
->Accurately ripped with different offset (v1, confidence 3/5, offset +664)
Statistics
Read error : 0
Jitter error (maybe fixed) : 0
Retry sector count : 0
Damaged sector count : 0

Track 16
Pre-gap length : 00:04:20

Track gain : 1.18 dB
Peak : 0.733032
CRC32 hash (test run) : 13264FF1
CRC32 hash : 13264FF1
CRC32 hash (skip zero) : 13489043
AccurateRip v1 signature : 1F715384 (F2C3E957 w/correction)
AccurateRip v2 signature : ECBE4741
->Accurately ripped with different offset (v1, confidence 3/5, offset +664)
Statistics
Read error : 0
Jitter error (maybe fixed) : 0
Retry sector count : 0
Damaged sector count : 0

Track 17
Pre-gap length : 00:03:05

Track gain : 1.03 dB
Peak : 0.566925
CRC32 hash (test run) : 8D95BC9E
CRC32 hash : 8D95BC9E
CRC32 hash (skip zero) : D09007A1
AccurateRip v1 signature : 30A6AD49 (585FB8DB w/correction)
AccurateRip v2 signature : 600BFA7F
->Accurately ripped with different offset (v1, confidence 3/5, offset +664)
Statistics
Read error : 0
Jitter error (maybe fixed) : 0
Retry sector count : 0
Damaged sector count : 0

Track 18
Pre-gap length : 00:03:15

Track gain : 1.21 dB
Peak : 0.554352
CRC32 hash (test run) : B8838FEA
CRC32 hash : B8838FEA
CRC32 hash (skip zero) : A62AE083
AccurateRip v1 signature : BF45695A (1FECE43C w/correction)
AccurateRip v2 signature : 7A9A821E
->Accurately ripped with different offset (v1, confidence 3/5, offset +664)
Statistics
Read error : 0
Jitter error (maybe fixed) : 0
Retry sector count : 0
Damaged sector count : 0

Track 19
Pre-gap length : 00:02:30

Track gain : 2.23 dB
Peak : 0.719849
CRC32 hash (test run) : 66FFE3BE
CRC32 hash : 66FFE3BE
CRC32 hash (skip zero) : 98B8F221
AccurateRip v1 signature : 495B7848 (FD6B3DA6 w/correction)
AccurateRip v2 signature : 4BC26562
->Accurately ripped with different offset (v1, confidence 3/5, offset +664)
Statistics
Read error : 0
Jitter error (maybe fixed) : 0
Retry sector count : 0
Damaged sector count : 0

No errors occurred

End of status report

[CUETools log; Date: 10.08.2018 21:29:29; Version: 2.1.4]
[CTDB TOCID: BoRcuoZ6S8xJLx3omEJ1wtNxe64-] found.
Track | CTDB Status
1 | (14/14) Accurately ripped
2 | (14/14) Accurately ripped
3 | (14/14) Accurately ripped
4 | (14/14) Accurately ripped
5 | (14/14) Accurately ripped
6 | (14/14) Accurately ripped
7 | (14/14) Accurately ripped
8 | (14/14) Accurately ripped
9 | (14/14) Accurately ripped
10 | (14/14) Accurately ripped
11 | (14/14) Accurately ripped
12 | (14/14) Accurately ripped
13 | (14/14) Accurately ripped
14 | (14/14) Accurately ripped
15 | (14/14) Accurately ripped
16 | (14/14) Accurately ripped
17 | (14/14) Accurately ripped
18 | (14/14) Accurately ripped
19 | (13/14) Accurately ripped
[AccurateRip ID: 003596d8-02e6e8a6-1411cf13] found.
Track [ CRC | V2 ] Status
01 [ed27457a|6356cda3] (00+00/19) No match
02 [5e728098|6ce2a9f3] (00+00/19) No match
03 [33a539e7|c03adcde] (00+00/19) No match
04 [2b65dea5|664903d3] (00+00/19) No match
05 [f4e2f024|7bd3b5c9] (00+00/20) No match
06 [f4686fa1|c64a6a91] (00+00/19) No match
07 [d3f7fafa|6ae57109] (00+00/20) No match
08 [c6d435af|8d55e6c7] (00+00/18) No match
09 [97ebfc84|23970451] (00+00/19) No match
10 [9eb96c76|4b3a6e65] (00+00/19) No match
11 [03f2d4bc|b7fc3aa3] (00+00/20) No match
12 [7e0ece7a|0b4f14cd] (00+00/20) No match
13 [9e268d77|8c4e5c7e] (00+00/19) No match
14 [94016a76|039e13f7] (00+00/20) No match
15 [5a5040f7|d9b2cfae] (00+00/20) No match
16 [1f715384|ecbe4741] (00+00/18) No match
17 [30a6ad49|600bfa7f] (00+00/17) No match
18 [bf45695a|7a9a821e] (00+00/18) No match
19 [495b7848|4bc26562] (00+00/17) No match
Offsetted by 664:
01 [2dee13dc] (03/19) Accurately ripped
02 [f0f61d59] (03/19) Accurately ripped
03 [c2530fbd] (03/19) Accurately ripped
04 [239b9181] (03/19) Accurately ripped
05 [346620c7] (03/20) Accurately ripped
06 [1cf7985c] (03/19) Accurately ripped
07 [7e829295] (03/20) Accurately ripped
08 [eb5235dc] (03/18) Accurately ripped
09 [2aacdf78] (03/19) Accurately ripped
10 [48dd635d] (03/19) Accurately ripped
11 [b6f756b7] (03/20) Accurately ripped
12 [5002ff58] (03/20) Accurately ripped
13 [c9850d15] (03/19) Accurately ripped
14 [274e37e0] (03/20) Accurately ripped
15 [93c0ed91] (03/20) Accurately ripped
16 [f2c3e957] (03/18) Accurately ripped
17 [585fb8db] (03/17) Accurately ripped
18 [1fece43c] (03/18) Accurately ripped
19 [fd6b3da6] (03/17) Accurately ripped
Offsetted by -372:
01 [c4565583] (02/19) Accurately ripped
02 [b0360188] (02/19) Accurately ripped
03 [72959837] (02/19) Accurately ripped
04 [29683c76] (02/19) Accurately ripped
05 [17d31de6] (02/20) Accurately ripped
06 [0dab06f7] (02/19) Accurately ripped
07 [71b57106] (02/20) Accurately ripped
08 [09f4caa5] (00/18) No match (V2 was not tested)
09 [c2097e1d] (02/19) Accurately ripped
10 [85637389] (02/19) Accurately ripped
11 [b4d6ad36] (02/20) Accurately ripped
12 [687d2429] (02/20) Accurately ripped
13 [2a5597dc] (02/19) Accurately ripped
14 [07b94efc] (02/20) Accurately ripped
15 [4f11ed1a] (02/20) Accurately ripped
16 [9c16cc2d] (02/18) Accurately ripped
17 [658b0358] (02/17) Accurately ripped
18 [de0a5102] (02/18) Accurately ripped
19 [8962958d] (02/17) Accurately ripped
Offsetted by 292:
01 [15b14f33] (00/19) No match (V2 was not tested)
02 [6efc0861] (00/19) No match (V2 was not tested)
03 [b73ddcde] (00/19) No match (V2 was not tested)
04 [ac3d9275] (00/19) No match (V2 was not tested)
05 [fb9202ba] (00/20) No match (V2 was not tested)
06 [318525ec] (00/19) No match (V2 was not tested)
07 [4e15f990] (00/20) No match (V2 was not tested)
08 [cf0e2373] (00/18) No match (V2 was not tested)
09 [3f749012] (00/19) No match (V2 was not tested)
10 [92250b9b] (00/19) No match (V2 was not tested)
11 [47f79914] (00/20) No match (V2 was not tested)
12 [b8ab58cd] (00/20) No match (V2 was not tested)
13 [32744654] (00/19) No match (V2 was not tested)
14 [b8484b97] (00/20) No match (V2 was not tested)
15 [9ae81b8b] (00/20) No match (V2 was not tested)
16 [ced07a6c] (00/18) No match (V2 was not tested)
17 [5f335be8] (00/17) No match (V2 was not tested)
18 [6ee32f4a] (00/18) No match (V2 was not tested)
19 [be7cda38] (00/17) No match (V2 was not tested)

Track Peak [ CRC32 ] [W/O NULL]
– 87,2 [26A119E6] [6BEB4D8C]
01 71,1 [45CB8A1D] [8A957EF9]
02 56,7 [ED3BC934] [ED0A3C23]
03 67,7 [D4600F70] [F1CEA0A0]
04 47,3 [849F62FE] [209A632F]
05 52,2 [B4D5F357] [0C6C2587]
06 55,9 [09DDBED4] [5795D04A]
07 65,6 [FBF50293] [03639D62]
08 62,5 [ED43C8E8] [1C0406A7]
09 63,4 [C221B85F] [20219C1E]
10 66,1 [8F25828B] [39A580C6]
11 77,5 [A96071DF] [9FF794B4]
12 72,0 [2B9205A2] [4EE174EF]
13 87,2 [B37D481B] [BD10DDFC]
14 57,2 [5E505650] [FA6DDA14]
15 62,3 [9E92AAD9] [422A9287]
16 73,3 [13264FF1] [13489043]
17 56,6 [8D95BC9E] [D09007A1]
18 55,4 [B8838FEA] [A62AE083]
19 71,9 [66FFE3BE] [98B8F221]

foobar2000 1.2 / Dynamic Range Meter 1.1.1
log date: 2018-08-10 21:34:47

––––––––––––––––––––––––––––––––––––––––
Analyzed: John Lee Hooker / Boogie Chillun
––––––––––––––––––––––––––––––––––––––––

DR Peak RMS Duration Track
––––––––––––––––––––––––––––––––––––––––
DR16 -2.96 dB -24.34 dB 5:34 01-I Just Can't Hold On Much Longer
DR14 -4.93 dB -22.86 dB 3:30 02-I'm Gonna Keep On Walking
DR14 -3.38 dB -24.25 dB 4:43 03-I Was Standing By The Wayside
DR15 -6.50 dB -24.97 dB 4:45 04-T.B. Is Killing Me
DR16 -5.64 dB -25.66 dB 2:30 05-Run On Babe
DR14 -5.04 dB -23.82 dB 5:34 06-This World
DR13 -3.66 dB -20.88 dB 2:36 07-I Like To See You Walk
DR16 -4.07 dB -24.44 dB 3:00 08-It's You I Love Baby
DR19 -3.96 dB -28.13 dB 4:15 09-Driftin' And Driftin'
DR14 -3.59 dB -22.52 dB 4:11 10-You Gonna Miss Me
DR14 -2.20 dB -22.46 dB 5:04 11-You're Nice And Kind To Me Lou Della
DR12 -2.85 dB -19.71 dB 3:27 12-I Need Some Money
DR14 -1.18 dB -20.59 dB 4:35 13-I Want To Get Married
DR14 -4.85 dB -24.67 dB 2:57 14-Boogie Chillun
DR15 -4.10 dB -23.09 dB 3:32 15-Night Time Is The Right Time
DR14 -2.70 dB -23.03 dB 4:37 16-You Don't Move Me Baby
DR13 -4.93 dB -21.04 dB 3:48 17-Yoy Been Dealin' With The Devil
DR13 -5.12 dB -22.64 dB 3:33 18-Cruel Little Baby
DR13 -2.86 dB -22.11 dB 3:46 19-I Got The Key To The Highway
––––––––––––––––––––––––––––––––––––––––

Number of tracks: 19
Official DR value: DR14

Samplerate: 44100 Hz
Channels: 2
Bits per sample: 16
Bitrate: 587 kbps
Codec: FLAC
================================================================================

John Lee Hooker - Boogie Chillun (1972)

John Lee Hooker - Boogie Chillun (1972)

All thanks to original releaser - igaann

More interesting music in My Blog